  0
SECTION
  2
HEADER
  9
$ACADVER
  1
AC1009
  9
$INSBASE
 10
0.0
 20
0.0
 30
0.0
  9
$EXTMIN
 10
-380.038528
 20
-10.03244
 30
-20.000922
  9
$EXTMAX
 10
507.258722
 20
890.045009
 30
10.002181
  9
$LIMMIN
 10
-380.038528
 20
-10.03244
  9
$LIMMAX
 10
507.258722
 20
890.045009
  9
$ORTHOMODE
 70
     1
  9
$REGENMODE
 70
     1
  9
$FILLMODE
 70
     1
  9
$QTEXTMODE
 70
     0
  9
$MIRRTEXT
 70
     0
  9
$DRAGMODE
 70
     2
  9
$LTSCALE
 40
25.0
  9
$OSMODE
 70
     0
  9
$ATTMODE
 70
     1
  9
$TEXTSIZE
 40
200.0
  9
$TRACEWID
 40
1.0
  9
$TEXTSTYLE
  7
STANDARD
  9
$CLAYER
  8
TEAM-MAS
  9
$CELTYPE
  6
BYLAYER
  9
$CECOLOR
 62
   256
  9
$DIMSCALE
 40
1.0
  9
$DIMASZ
 40
20.0
  9
$DIMEXO
 40
10.0
  9
$DIMDLI
 40
1.0
  9
$DIMRND
 40
0.0
  9
$DIMDLE
 40
0.0
  9
$DIMEXE
 40
1.0
  9
$DIMTP
 40
0.0
  9
$DIMTM
 40
0.0
  9
$DIMTXT
 40
35.0
  9
$DIMCEN
 40
1.0
  9
$DIMTSZ
 40
0.0
  9
$DIMTOL
 70
     0
  9
$DIMLIM
 70
     0
  9
$DIMTIH
 70
     0
  9
$DIMTOH
 70
     0
  9
$DIMSE1
 70
     0
  9
$DIMSE2
 70
     0
  9
$DIMTAD
 70
     0
  9
$DIMZIN
 70
     0
  9
$DIMBLK
  1

  9
$DIMASO
 70
     1
  9
$DIMSHO
 70
     0
  9
$DIMPOST
  1

  9
$DIMAPOST
  1

  9
$DIMALT
 70
     0
  9
$DIMALTD
 70
     2
  9
$DIMALTF
 40
25.4
  9
$DIMLFAC
 40
1.0
  9
$DIMTOFL
 70
     0
  9
$DIMTVP
 40
0.0
  9
$DIMTIX
 70
     0
  9
$DIMSOXD
 70
     0
  9
$DIMSAH
 70
     0
  9
$DIMBLK1
  1

  9
$DIMBLK2
  1

  9
$DIMSTYLE
  2
TEAM
  9
$DIMCLRD
 70
     9
  9
$DIMCLRE
 70
     9
  9
$DIMCLRT
 70
    11
  9
$DIMTFAC
 40
1.0
  9
$DIMGAP
 40
15.0
  9
$LUNITS
 70
     2
  9
$LUPREC
 70
     1
  9
$SKETCHINC
 40
1.0
  9
$FILLETRAD
 40
50.0
  9
$AUNITS
 70
     0
  9
$AUPREC
 70
     0
  9
$MENU
  1
ROPLANS
  9
$ELEVATION
 40
0.0
  9
$PELEVATION
 40
0.0
  9
$THICKNESS
 40
0.0
  9
$LIMCHECK
 70
     0
  9
$BLIPMODE
 70
     1
  9
$CHAMFERA
 40
0.0
  9
$CHAMFERB
 40
0.0
  9
$SKPOLY
 70
     0
  9
$TDCREATE
 40
2450392.957851
  9
$TDUPDATE
 40
2455505.473099
  9
$TDINDWG
 40
2.023557
  9
$TDUSRTIMER
 40
2.023557
  9
$USRTIMER
 70
     1
  9
$ANGBASE
 50
0.0
  9
$ANGDIR
 70
     0
  9
$PDMODE
 70
     0
  9
$PDSIZE
 40
0.0
  9
$PLINEWID
 40
0.0
  9
$COORDS
 70
     2
  9
$SPLFRAME
 70
     0
  9
$SPLINETYPE
 70
     6
  9
$SPLINESEGS
 70
     8
  9
$ATTDIA
 70
     0
  9
$ATTREQ
 70
     0
  9
$HANDLING
 70
     1
  9
$HANDSEED
  5
132
  9
$SURFTAB1
 70
    24
  9
$SURFTAB2
 70
    24
  9
$SURFTYPE
 70
     6
  9
$SURFU
 70
     6
  9
$SURFV
 70
     6
  9
$UCSNAME
  2

  9
$UCSORG
 10
0.0
 20
0.0
 30
0.0
  9
$UCSXDIR
 10
1.0
 20
0.0
 30
0.0
  9
$UCSYDIR
 10
0.0
 20
1.0
 30
0.0
  9
$PUCSNAME
  2

  9
$PUCSORG
 10
0.0
 20
0.0
 30
0.0
  9
$PUCSXDIR
 10
1.0
 20
0.0
 30
0.0
  9
$PUCSYDIR
 10
0.0
 20
1.0
 30
0.0
  9
$USERI1
 70
     0
  9
$USERI2
 70
     0
  9
$USERI3
 70
     0
  9
$USERI4
 70
     0
  9
$USERI5
 70
     0
  9
$USERR1
 40
0.0
  9
$USERR2
 40
0.0
  9
$USERR3
 40
0.0
  9
$USERR4
 40
0.0
  9
$USERR5
 40
0.0
  9
$WORLDVIEW
 70
     1
  9
$SHADEDGE
 70
     0
  9
$SHADEDIF
 70
    70
  9
$TILEMODE
 70
     1
  9
$MAXACTVP
 70
    16
  9
$PLIMCHECK
 70
     0
  9
$PEXTMIN
 10
-0.805942
 20
0.005011
 30
0.0
  9
$PEXTMAX
 10
20.250094
 20
11.356329
 30
0.0
  9
$PLIMMIN
 10
0.0
 20
0.0
  9
$PLIMMAX
 10
12.0
 20
9.0
  9
$UNITMODE
 70
     0
  9
$VISRETAIN
 70
     0
  9
$PLINEGEN
 70
     0
  9
$PSLTSCALE
 70
     0
  0
ENDSEC
  0
SECTION
  2
TABLES
  0
TABLE
  2
VPORT
 70
     2
  0
VPORT
  2
*ACTIVE
 70
     0
 10
0.0
 20
0.0
 11
1.0
 21
1.0
 12
63.610097
 22
440.006285
 13
0.0
 23
0.0
 14
1.0
 24
1.0
 15
50.0
 25
50.0
 16
0.0
 26
0.0
 36
1.0
 17
0.0
 27
0.0
 37
0.0
 40
905.605049
 41
1.865779
 42
50.0
 43
0.0
 44
0.0
 50
0.0
 51
0.0
 71
     0
 72
   100
 73
     1
 74
     1
 75
     0
 76
     0
 77
     0
 78
     0
  0
ENDTAB
  0
TABLE
  2
LTYPE
 70
     3
  0
LTYPE
  2
CONTINUOUS
 70
     0
  3
Solid Line
 72
    65
 73
     0
 40
0.0
  0
LTYPE
  2
31
 70
     0
  3

 72
    65
 73
     4
 40
2.1
 49
1.5
 49
-0.3
 49
0.0
 49
-0.3
  0
LTYPE
  2
22
 70
     0
  3

 72
    65
 73
     2
 40
1.4
 49
1.2
 49
-0.2
  0
ENDTAB
  0
TABLE
  2
LAYER
 70
    11
  0
LAYER
  2
0
 70
     0
 62
     7
  6
CONTINUOUS
  0
LAYER
  2
DEFPOINTS
 70
     0
 62
     7
  6
CONTINUOUS
  0
LAYER
  2
TEAM-BODY
 70
     0
 62
     2
  6
CONTINUOUS
  0
LAYER
  2
TEAM-AXE
 70
     0
 62
    10
  6
31
  0
LAYER
  2
TEAM-MAS
 70
     0
 62
     9
  6
CONTINUOUS
  0
LAYER
  2
TEAM-TXT
 70
     0
 62
    11
  6
CONTINUOUS
  0
LAYER
  2
TEAM-COLD
 70
     0
 62
     3
  6
CONTINUOUS
  0
LAYER
  2
TEAM-HIDE
 70
     0
 62
     8
  6
22
  0
LAYER
  2
TEAM-KAN
 70
     0
 62
     6
  6
CONTINUOUS
  0
LAYER
  2
TEAM-WARM
 70
     0
 62
     1
  6
CONTINUOUS
  0
LAYER
  2
TEAM-INSP
 70
     0
 62
     5
  6
CONTINUOUS
  0
ENDTAB
  0
TABLE
  2
STYLE
 70
     2
  0
STYLE
  2
STANDARD
 70
     0
 40
0.0
 41
1.0
 50
0.0
 71
     0
 42
200.0
  3
txt
  4

  0
STYLE
  2
TEAM
 70
     0
 40
0.0
 41
0.8
 50
15.0
 71
     0
 42
7.0
  3
ROMANS.shx
  4

  0
ENDTAB
  0
TABLE
  2
VIEW
 70
     0
  0
ENDTAB
  0
TABLE
  2
UCS
 70
     0
  0
ENDTAB
  0
TABLE
  2
APPID
 70
     1
  0
APPID
  2
ACAD
 70
     0
  0
ENDTAB
  0
TABLE
  2
DIMSTYLE
 70
     1
  0
DIMSTYLE
  2
TEAM
 70
     0
  3

  4

  5

  6

  7

 40
1.0
 41
20.0
 42
10.0
 43
1.0
 44
1.0
 45
0.0
 46
0.0
 47
0.0
 48
0.0
140
35.0
141
1.0
142
0.0
143
25.4
144
1.0
145
0.0
146
1.0
147
15.0
 71
     0
 72
     0
 73
     0
 74
     0
 75
     0
 76
     0
 77
     0
 78
     0
170
     0
171
     2
172
     0
173
     0
174
     0
175
     0
176
     9
177
     9
178
    11
  0
ENDTAB
  0
ENDSEC
  0
SECTION
  2
BLOCKS
  0
BLOCK
  8
0
  2
$MODEL_SPACE
 70
     0
 10
0.0
 20
0.0
 30
0.0
  3
$MODEL_SPACE
  1

  0
ENDBLK
  5
12B
  8
0
  0
BLOCK
 67
     1
  8
0
  2
$PAPER_SPACE
 70
     0
 10
0.0
 20
0.0
 30
0.0
  3
$PAPER_SPACE
  1

  0
ENDBLK
  5
129
 67
     1
  8
0
  0
BLOCK
  8
0
  2
*D0
 70
     1
 10
0.0
 20
0.0
 30
0.0
  3
*D0
  1

  0
LINE
  5
AB
  8
0
  6
BYBLOCK
 62
     9
 10
4388.0
 20
4850.0
 30
0.0
 11
4491.0
 21
4850.0
 31
0.0
  0
LINE
  5
AC
  8
0
  6
BYBLOCK
 62
     9
 10
4010.0
 20
4000.0
 30
0.0
 11
4491.0
 21
4000.0
 31
0.0
  0
LINE
  5
AD
  8
0
  6
BYBLOCK
 62
     9
 10
4490.0
 20
4830.0
 30
0.0
 11
4490.0
 21
4483.76378
 31
0.0
  0
LINE
  5
AE
  8
0
  6
BYBLOCK
 62
     9
 10
4490.0
 20
4020.0
 30
0.0
 11
4490.0
 21
4366.23622
 31
0.0
  0
SOLID
  5
AF
  8
0
  6
BYBLOCK
 62
     9
 10
4486.666667
 20
4830.0
 30
0.0
 11
4493.333333
 21
4830.0
 31
0.0
 12
4490.0
 22
4850.0
 32
0.0
 13
4490.0
 23
4850.0
 33
0.0
  0
SOLID
  5
B0
  8
0
  6
BYBLOCK
 62
     9
 10
4486.666667
 20
4020.0
 30
0.0
 11
4493.333333
 21
4020.0
 31
0.0
 12
4490.0
 22
4000.0
 32
0.0
 13
4490.0
 23
4000.0
 33
0.0
  0
TEXT
  5
B1
  8
0
  6
BYBLOCK
 62
    11
 10
4507.5
 20
4375.98622
 30
0.0
 40
35.0
  1
~850
 50
90.0
  0
POINT
  5
B2
  8
DEFPOINTS
  6
BYBLOCK
 62
     0
 10
4378.0
 20
4850.0
 30
10.0
  0
POINT
  5
B3
  8
DEFPOINTS
  6
BYBLOCK
 62
     0
 10
4000.0
 20
4000.0
 30
0.0
  0
POINT
  5
B4
  8
DEFPOINTS
  6
BYBLOCK
 62
     0
 10
4490.0
 20
4000.0
 30
10.0
  0
ENDBLK
  5
B6
  8
0
  0
BLOCK
  8
0
  2
*D1
 70
     1
 10
0.0
 20
0.0
 30
0.0
  3
*D1
  1

  0
LINE
  5
31
  8
0
  6
BYBLOCK
 62
     9
 10
4089.0
 20
4600.0
 30
0.0
 11
4211.0
 21
4600.0
 31
0.0
  0
LINE
  5
32
  8
0
  6
BYBLOCK
 62
     9
 10
4200.0
 20
4000.0
 30
0.0
 11
4209.0
 21
4000.0
 31
0.0
  0
LINE
  5
33
  8
0
  6
BYBLOCK
 62
     9
 10
4210.0
 20
4580.0
 30
0.0
 11
4210.0
 21
4347.561024
 31
0.0
  0
LINE
  5
34
  8
0
  6
BYBLOCK
 62
     9
 10
4210.0
 20
4020.0
 30
0.0
 11
4210.0
 21
4252.438976
 31
0.0
  0
SOLID
  5
35
  8
0
  6
BYBLOCK
 62
     9
 10
4206.666667
 20
4580.0
 30
0.0
 11
4213.333333
 21
4580.0
 31
0.0
 12
4210.0
 22
4600.0
 32
0.0
 13
4210.0
 23
4600.0
 33
0.0
  0
SOLID
  5
36
  8
0
  6
BYBLOCK
 62
     9
 10
4206.666667
 20
4020.0
 30
0.0
 11
4213.333333
 21
4020.0
 31
0.0
 12
4210.0
 22
4000.0
 32
0.0
 13
4210.0
 23
4000.0
 33
0.0
  0
TEXT
  5
37
  8
0
  6
BYBLOCK
 62
    11
 10
4227.5
 20
4264.283465
 30
0.0
 40
35.0
  1
600
 50
90.0
  0
POINT
  5
38
  8
DEFPOINTS
  6
BYBLOCK
 62
     0
 10
4079.0
 20
4600.0
 30
10.0
  0
POINT
  5
39
  8
DEFPOINTS
  6
BYBLOCK
 62
     0
 10
4210.0
 20
4000.0
 30
20.0
  0
POINT
  5
3A
  8
DEFPOINTS
  6
BYBLOCK
 62
     0
 10
4210.0
 20
4000.0
 30
20.0
  0
ENDBLK
  5
3C
  8
0
  0
BLOCK
  8
0
  2
*D2
 70
     1
 10
0.0
 20
0.0
 30
0.0
  3
*D2
  1

  0
LINE
  5
9D
  8
0
  6
BYBLOCK
 62
     9
 10
4261.0
 20
4850.0
 30
0.0
 11
4440.877587
 21
4850.0
 31
0.0
  0
LINE
  5
9E
  8
0
  6
BYBLOCK
 62
     9
 10
4010.0
 20
4510.0
 30
0.0
 11
4440.877587
 21
4510.0
 31
0.0
  0
LINE
  5
9F
  8
0
  6
BYBLOCK
 62
     9
 10
4439.877587
 20
4830.0
 30
0.0
 11
4439.877587
 21
4728.26378
 31
0.0
  0
LINE
  5
A0
  8
0
  6
BYBLOCK
 62
     9
 10
4439.877587
 20
4530.0
 30
0.0
 11
4439.877587
 21
4631.73622
 31
0.0
  0
SOLID
  5
A1
  8
0
  6
BYBLOCK
 62
     9
 10
4436.544254
 20
4830.0
 30
0.0
 11
4443.210921
 21
4830.0
 31
0.0
 12
4439.877587
 22
4850.0
 32
0.0
 13
4439.877587
 23
4850.0
 33
0.0
  0
SOLID
  5
A2
  8
0
  6
BYBLOCK
 62
     9
 10
4436.544254
 20
4530.0
 30
0.0
 11
4443.210921
 21
4530.0
 31
0.0
 12
4439.877587
 22
4510.0
 32
0.0
 13
4439.877587
 23
4510.0
 33
0.0
  0
TEXT
  5
A3
  8
0
  6
BYBLOCK
 62
    11
 10
4457.377587
 20
4641.48622
 30
0.0
 40
35.0
  1
340
 50
90.0
  0
POINT
  5
A4
  8
DEFPOINTS
  6
BYBLOCK
 62
     0
 10
4251.0
 20
4850.0
 30
0.0
  0
POINT
  5
A5
  8
DEFPOINTS
  6
BYBLOCK
 62
     0
 10
4000.0
 20
4510.0
 30
0.0
  0
POINT
  5
A6
  8
DEFPOINTS
  6
BYBLOCK
 62
     0
 10
4439.877587
 20
4510.0
 30
0.0
  0
ENDBLK
  5
A8
  8
0
  0
BLOCK
  8
0
  2
*D3
 70
     1
 10
0.0
 20
0.0
 30
0.0
  3
*D3
  1

  0
LINE
  5
85
  8
0
  6
BYBLOCK
 62
     9
 10
4281.0
 20
4850.0
 30
0.0
 11
4386.0
 21
4850.0
 31
0.0
  0
LINE
  5
86
  8
0
  6
BYBLOCK
 62
     9
 10
4061.0
 20
4640.0
 30
0.0
 11
4386.0
 21
4640.0
 31
0.0
  0
LINE
  5
87
  8
0
  6
BYBLOCK
 62
     9
 10
4385.0
 20
4830.0
 30
0.0
 11
4385.0
 21
4788.458169
 31
0.0
  0
LINE
  5
88
  8
0
  6
BYBLOCK
 62
     9
 10
4385.0
 20
4660.0
 30
0.0
 11
4385.0
 21
4701.541831
 31
0.0
  0
SOLID
  5
89
  8
0
  6
BYBLOCK
 62
     9
 10
4381.666667
 20
4830.0
 30
0.0
 11
4388.333333
 21
4830.0
 31
0.0
 12
4385.0
 22
4850.0
 32
0.0
 13
4385.0
 23
4850.0
 33
0.0
  0
SOLID
  5
8A
  8
0
  6
BYBLOCK
 62
     9
 10
4381.666667
 20
4660.0
 30
0.0
 11
4388.333333
 21
4660.0
 31
0.0
 12
4385.0
 22
4640.0
 32
0.0
 13
4385.0
 23
4640.0
 33
0.0
  0
TEXT
  5
8B
  8
0
  6
BYBLOCK
 62
    11
 10
4402.5
 20
4712.18061
 30
0.0
 40
35.0
  1
210
 50
90.0
  0
POINT
  5
8C
  8
DEFPOINTS
  6
BYBLOCK
 62
     0
 10
4271.0
 20
4850.0
 30
10.0
  0
POINT
  5
8D
  8
DEFPOINTS
  6
BYBLOCK
 62
     0
 10
4051.0
 20
4640.0
 30
10.0
  0
POINT
  5
8E
  8
DEFPOINTS
  6
BYBLOCK
 62
     0
 10
4385.0
 20
4640.0
 30
10.0
  0
ENDBLK
  5
90
  8
0
  0
BLOCK
  8
0
  2
*D4
 70
     1
 10
0.0
 20
0.0
 30
0.0
  3
*D4
  1

  0
LINE
  5
77
  8
0
  6
BYBLOCK
 62
     9
 10
4051.0
 20
4510.0
 30
0.0
 11
4131.0
 21
4510.0
 31
0.0
  0
LINE
  5
78
  8
0
  6
BYBLOCK
 62
     9
 10
4140.0
 20
4000.0
 30
0.0
 11
4129.0
 21
4000.0
 31
0.0
  0
LINE
  5
79
  8
0
  6
BYBLOCK
 62
     9
 10
4130.0
 20
4490.0
 30
0.0
 11
4130.0
 21
4298.01378
 31
0.0
  0
LINE
  5
7A
  8
0
  6
BYBLOCK
 62
     9
 10
4130.0
 20
4020.0
 30
0.0
 11
4130.0
 21
4211.98622
 31
0.0
  0
SOLID
  5
7B
  8
0
  6
BYBLOCK
 62
     9
 10
4126.666667
 20
4490.0
 30
0.0
 11
4133.333333
 21
4490.0
 31
0.0
 12
4130.0
 22
4510.0
 32
0.0
 13
4130.0
 23
4510.0
 33
0.0
  0
SOLID
  5
7C
  8
0
  6
BYBLOCK
 62
     9
 10
4126.666667
 20
4020.0
 30
0.0
 11
4133.333333
 21
4020.0
 31
0.0
 12
4130.0
 22
4000.0
 32
0.0
 13
4130.0
 23
4000.0
 33
0.0
  0
TEXT
  5
7D
  8
0
  6
BYBLOCK
 62
    11
 10
4147.5
 20
4221.73622
 30
0.0
 40
35.0
  1
510
 50
90.0
  0
POINT
  5
7E
  8
DEFPOINTS
  6
BYBLOCK
 62
     0
 10
4041.0
 20
4510.0
 30
10.0
  0
POINT
  5
7F
  8
DEFPOINTS
  6
BYBLOCK
 62
     0
 10
4150.0
 20
4000.0
 30
10.0
  0
POINT
  5
80
  8
DEFPOINTS
  6
BYBLOCK
 62
     0
 10
4130.0
 20
4000.0
 30
10.0
  0
ENDBLK
  5
82
  8
0
  0
BLOCK
  8
0
  2
*D5
 70
     1
 10
0.0
 20
0.0
 30
0.0
  3
*D5
  1

  0
LINE
  5
22
  8
0
  6
BYBLOCK
 62
     9
 10
3940.0
 20
4560.0
 30
0.0
 11
3940.0
 21
4425.0
 31
0.0
  0
LINE
  5
23
  8
0
  6
BYBLOCK
 62
     9
 10
4060.0
 20
4560.0
 30
0.0
 11
4060.0
 21
4425.0
 31
0.0
  0
LINE
  5
24
  8
0
  6
BYBLOCK
 62
     9
 10
3960.0
 20
4426.0
 30
0.0
 11
3975.0
 21
4426.0
 31
0.0
  0
LINE
  5
25
  8
0
  6
BYBLOCK
 62
     9
 10
4040.0
 20
4426.0
 30
0.0
 11
4025.0
 21
4426.0
 31
0.0
  0
TEXT
  5
26
  8
0
  6
BYBLOCK
 62
    11
 10
3966.73622
 20
4408.5
 30
0.0
 40
35.0
  1
120
  0
SOLID
  5
27
  8
0
  6
BYBLOCK
 62
     9
 10
3960.0
 20
4429.333333
 30
0.0
 11
3960.0
 21
4422.666667
 31
0.0
 12
3940.0
 22
4426.0
 32
0.0
 13
3940.0
 23
4426.0
 33
0.0
  0
SOLID
  5
28
  8
0
  6
BYBLOCK
 62
     9
 10
4040.0
 20
4429.333333
 30
0.0
 11
4040.0
 21
4422.666667
 31
0.0
 12
4060.0
 22
4426.0
 32
0.0
 13
4060.0
 23
4426.0
 33
0.0
  0
POINT
  5
29
  8
DEFPOINTS
  6
BYBLOCK
 62
     0
 10
3940.0
 20
4570.0
 30
20.0
  0
POINT
  5
2B
  8
DEFPOINTS
  6
BYBLOCK
 62
     0
 10
4060.0
 20
4570.0
 30
20.0
  0
POINT
  5
2C
  8
DEFPOINTS
  6
BYBLOCK
 62
     0
 10
4060.0
 20
4426.0
 30
30.0
  0
ENDBLK
  5
2E
  8
0
  0
BLOCK
  8
0
  2
*D6
 70
     1
 10
0.0
 20
0.0
 30
0.0
  3
*D6
  1

  0
LINE
  5
68
  8
0
  6
BYBLOCK
 62
     9
 10
3739.0
 20
4850.0
 30
0.0
 11
3693.0
 21
4850.0
 31
0.0
  0
LINE
  5
69
  8
0
  6
BYBLOCK
 62
     9
 10
3727.678745
 20
4819.0
 30
0.0
 11
3693.0
 21
4819.0
 31
0.0
  0
LINE
  5
6A
  8
0
  6
BYBLOCK
 62
     9
 10
3694.0
 20
4870.0
 30
0.0
 11
3694.0
 21
4890.0
 31
0.0
  0
LINE
  5
6B
  8
0
  6
BYBLOCK
 62
     9
 10
3694.0
 20
4799.0
 30
0.0
 11
3694.0
 21
4779.0
 31
0.0
  0
TEXT
  5
6C
  8
0
  6
BYBLOCK
 62
    11
 10
3676.5
 20
4755.48622
 30
0.0
 40
35.0
  1
30
 50
90.0
  0
LINE
  5
6D
  8
0
  6
BYBLOCK
 62
     9
 10
3694.0
 20
4850.0
 30
0.0
 11
3694.0
 21
4819.0
 31
0.0
  0
SOLID
  5
6E
  8
0
  6
BYBLOCK
 62
     9
 10
3690.666667
 20
4870.0
 30
0.0
 11
3697.333333
 21
4870.0
 31
0.0
 12
3694.0
 22
4850.0
 32
0.0
 13
3694.0
 23
4850.0
 33
0.0
  0
SOLID
  5
6F
  8
0
  6
BYBLOCK
 62
     9
 10
3690.666667
 20
4799.0
 30
0.0
 11
3697.333333
 21
4799.0
 31
0.0
 12
3694.0
 22
4819.0
 32
0.0
 13
3694.0
 23
4819.0
 33
0.0
  0
POINT
  5
70
  8
DEFPOINTS
  6
BYBLOCK
 62
     0
 10
3749.0
 20
4850.0
 30
10.0
  0
POINT
  5
71
  8
DEFPOINTS
  6
BYBLOCK
 62
     0
 10
3737.678745
 20
4819.0
 30
10.0
  0
POINT
  5
72
  8
DEFPOINTS
  6
BYBLOCK
 62
     0
 10
3694.0
 20
4819.0
 30
10.0
  0
ENDBLK
  5
74
  8
0
  0
ENDSEC
  0
SECTION
  2
ENTITIES
  0
DIMENSION
  5
20
  8
TEAM-MAS
  2
*D5
 10
60.0
 20
426.0
 30
10.0
 11
0.0
 21
426.0
 31
-20.0
 12
-4000.0
 22
-4000.0
 32
-20.0
 70
   128
 13
-60.0
 23
570.0
 33
0.0
 14
60.0
 24
570.0
 34
0.0
1001
ACAD
1000
DSTYLE
1002
{
1070
    40
1040
1.0
1002
}
  0
DIMENSION
  5
2F
  8
TEAM-MAS
  2
*D1
 10
210.0
 20
0.0
 30
10.0
 11
210.0
 21
300.0
 31
-10.0
 12
-4000.0
 22
-4000.0
 32
-10.0
 13
79.0
 23
600.0
 33
0.0
 14
210.0
 24
0.0
 34
10.0
 50
90.0
1001
ACAD
1000
DSTYLE
1002
{
1070
    40
1040
1.0
1002
}
  0
LINE
  5
3D
  8
TEAM-BODY
 10
260.0
 20
819.0
 30
0.0
 11
260.0
 21
809.0
 31
0.0
  0
LINE
  5
3F
  8
TEAM-BODY
 10
251.0
 20
819.0
 30
0.0
 11
251.0
 21
850.0
 31
0.0
  0
LINE
  5
40
  8
TEAM-HIDE
 10
321.0
 20
850.0
 30
0.0
 11
321.0
 21
752.0
 31
0.0
  0
ARC
  5
43
  8
TEAM-BODY
 10
180.864965
 20
827.395724
 30
0.0
 40
69.642955
 50
335.033274
 51
353.075934
  0
ARC
  5
44
  8
TEAM-BODY
 10
107.374913
 20
871.392232
 30
0.0
 40
155.089762
 50
306.672149
 51
331.756208
  0
CIRCLE
  5
45
  8
TEAM-INSP
 10
0.0
 20
0.0
 30
0.0
 40
10.0
  0
LINE
  5
47
  8
TEAM-BODY
 10
-260.0
 20
809.0
 30
0.0
 11
-31.0
 21
809.0
 31
0.0
  0
LINE
  5
48
  8
TEAM-BODY
 10
-260.0
 20
819.0
 30
0.0
 11
-31.0
 21
819.0
 31
0.0
  0
LINE
  5
49
  8
TEAM-HIDE
 10
-380.0
 20
850.0
 30
0.0
 11
-31.0
 21
850.0
 31
0.0
  0
LINE
  5
4A
  8
TEAM-BODY
 10
-251.0
 20
819.0
 30
0.0
 11
-31.0
 21
819.0
 31
0.0
  0
ARC
  5
4B
  8
TEAM-BODY
 10
110.784195
 20
1219.012056
 30
0.0
 40
565.139095
 50
236.638123
 51
255.050854
  0
LINE
  5
4C
  8
TEAM-AXE
 10
-380.0
 20
855.056353
 30
0.0
 11
-380.0
 21
740.0
 31
0.0
  0
LINE
  5
4F
  8
TEAM-BODY
 10
-260.0
 20
819.0
 30
0.0
 11
-260.0
 21
809.0
 31
0.0
  0
LINE
  5
50
  8
TEAM-BODY
 10
-251.0
 20
850.0
 30
0.0
 11
-251.0
 21
819.0
 31
0.0
  0
ARC
  5
51
  8
TEAM-BODY
 10
-180.864965
 20
827.395724
 30
0.0
 40
69.642955
 50
186.924066
 51
204.966726
  0
ARC
  5
52
  8
TEAM-BODY
 10
-107.374913
 20
871.392232
 30
0.0
 40
155.089762
 50
208.243792
 51
233.327851
  0
LINE
  5
53
  8
TEAM-BODY
 10
-20.0
 20
652.0
 30
0.0
 11
20.0
 21
652.0
 31
0.0
  0
LINE
  5
54
  8
TEAM-BODY
 10
-35.0
 20
640.0
 30
0.0
 11
35.0
 21
640.0
 31
0.0
  0
LINE
  5
55
  8
TEAM-AXE
 10
32.0
 20
510.0
 30
0.0
 11
-29.0
 21
510.0
 31
0.0
  0
LINE
  5
56
  8
TEAM-AXE
 10
0.0
 20
465.0
 30
0.0
 11
0.0
 21
575.0
 31
0.0
  0
CIRCLE
  5
57
  8
TEAM-KAN
 10
0.0
 20
510.0
 30
0.0
 40
20.0
  0
LINE
  5
59
  8
TEAM-AXE
 10
0.0
 20
607.0
 30
0.0
 11
0.0
 21
868.0
 31
0.0
  0
LINE
  5
5A
  8
TEAM-BODY
 10
35.0
 20
640.0
 30
0.0
 11
35.0
 21
673.0
 31
0.0
  0
LINE
  5
5B
  8
TEAM-BODY
 10
-35.0
 20
673.0
 30
0.0
 11
-35.0
 21
640.0
 31
0.0
  0
LINE
  5
5C
  8
TEAM-BODY
 10
20.0
 20
652.0
 30
0.0
 11
30.0
 21
819.0
 31
0.0
  0
LINE
  5
5D
  8
TEAM-BODY
 10
-20.0
 20
652.0
 30
0.0
 11
-31.0
 21
819.0
 31
0.0
  0
LINE
  5
5E
  8
TEAM-AXE
 10
60.0
 20
570.0
 30
0.0
 11
60.0
 21
626.0
 31
0.0
  0
LINE
  5
5F
  8
TEAM-AXE
 10
79.0
 20
600.0
 30
0.0
 11
35.0
 21
600.0
 31
0.0
  0
CIRCLE
  5
60
  8
TEAM-COLD
 10
60.0
 20
599.0
 30
0.0
 40
10.0
  0
LINE
  5
62
  8
TEAM-AXE
 10
-60.0
 20
570.0
 30
0.0
 11
-60.0
 21
626.0
 31
0.0
  0
LINE
  5
63
  8
TEAM-AXE
 10
-33.0
 20
600.0
 30
0.0
 11
-82.0
 21
600.0
 31
0.0
  0
CIRCLE
  5
64
  8
TEAM-WARM
 10
-60.0
 20
599.0
 30
0.0
 40
10.0
  0
DIMENSION
  5
66
  8
TEAM-MAS
  2
*D6
 10
-306.0
 20
819.0
 30
10.0
 11
-341.0
 21
780.0
 31
0.0
 12
-4000.0
 22
-4000.0
 32
0.0
 70
   128
  1
30
 13
-251.0
 23
850.0
 33
10.0
 14
-262.321255
 24
819.0
 34
10.0
 50
90.0
1001
ACAD
1000
DSTYLE
1002
{
1070
    40
1040
1.0
1002
}
  0
DIMENSION
  5
75
  8
TEAM-MAS
  2
*D4
 10
130.0
 20
0.0
 30
10.0
 11
130.0
 21
255.0
 31
0.0
 12
-4000.0
 22
-4000.0
 32
0.0
 13
41.0
 23
510.0
 33
10.0
 14
150.0
 24
0.0
 34
10.0
 50
90.0
1001
ACAD
1000
DSTYLE
1002
{
1070
    40
1040
1.0
1002
}
  0
DIMENSION
  5
83
  8
TEAM-MAS
  2
*D3
 10
385.0
 20
640.0
 30
10.0
 11
385.0
 21
745.0
 31
0.0
 12
-4000.0
 22
-4000.0
 32
0.0
 13
271.0
 23
850.0
 33
10.0
 14
51.0
 24
640.0
 34
10.0
 50
90.0
1001
ACAD
1000
DSTYLE
1002
{
1070
    40
1040
1.0
1002
}
  0
ARC
  5
91
  8
TEAM-BODY
 10
-110.784195
 20
1219.012056
 30
0.0
 40
565.139095
 50
284.949146
 51
303.361877
  0
LINE
  5
92
  8
TEAM-BODY
 10
30.0
 20
809.0
 30
0.0
 11
260.0
 21
809.0
 31
0.0
  0
LINE
  5
93
  8
TEAM-BODY
 10
30.0
 20
819.0
 30
0.0
 11
260.0
 21
819.0
 31
0.0
  0
LINE
  5
94
  8
TEAM-HIDE
 10
30.0
 20
850.0
 30
0.0
 11
321.0
 21
850.0
 31
0.0
  0
LINE
  5
95
  8
TEAM-BODY
 10
30.0
 20
819.0
 30
0.0
 11
251.0
 21
819.0
 31
0.0
  0
TEXT
  5
96
  8
TEAM-TXT
 10
39.472886
 20
758.946632
 30
0.0
 40
30.0
  1
team 231003
 41
0.8
 51
15.0
  7
TEAM
  0
LINE
  5
99
  8
TEAM-BODY
 10
251.0
 20
850.0
 30
0.0
 11
-251.0
 21
850.0
 31
0.0
  0
LINE
  5
9A
  8
TEAM-HIDE
 10
321.0
 20
752.0
 30
0.0
 11
-379.0
 21
752.0
 31
0.0
  0
DIMENSION
  5
9B
  8
TEAM-MAS
  2
*D2
 10
439.877587
 20
510.0
 30
0.0
 11
439.877587
 21
680.0
 31
0.0
 12
-4000.0
 22
-4000.0
 32
0.0
 13
251.0
 23
850.0
 33
0.0
 14
0.0
 24
510.0
 34
0.0
 50
90.0
1001
ACAD
1000
DSTYLE
1002
{
1070
    40
1040
1.0
1002
}
  0
DIMENSION
  5
A9
  8
TEAM-MAS
  2
*D0
 10
490.0
 20
0.0
 30
10.0
 11
490.0
 21
425.0
 31
0.0
 12
-4000.0
 22
-4000.0
 32
0.0
  1
~850
 13
378.0
 23
850.0
 33
10.0
 14
0.0
 24
0.0
 34
0.0
 50
90.0
1001
ACAD
1000
DSTYLE
1002
{
1070
    40
1040
1.0
1002
}
  0
ENDSEC
  0
EOF
