  0
SECTION
  2
HEADER
  9
$ACADVER
  1
AC1009
  9
$INSBASE
 10
0.0
 20
0.0
 30
0.0
  9
$EXTMIN
 10
-384.557968
 20
-495.468358
 30
0.0
  9
$EXTMAX
 10
275.449164
 20
204.584825
 30
0.0
  9
$LIMMIN
 10
-384.557968
 20
-495.468358
  9
$LIMMAX
 10
275.449164
 20
204.584825
  9
$ORTHOMODE
 70
     1
  9
$REGENMODE
 70
     1
  9
$FILLMODE
 70
     1
  9
$QTEXTMODE
 70
     0
  9
$MIRRTEXT
 70
     0
  9
$DRAGMODE
 70
     2
  9
$LTSCALE
 40
25.0
  9
$OSMODE
 70
     0
  9
$ATTMODE
 70
     1
  9
$TEXTSIZE
 40
200.0
  9
$TRACEWID
 40
1.0
  9
$TEXTSTYLE
  7
STANDARD
  9
$CLAYER
  8
TEAM-MAS
  9
$CELTYPE
  6
BYLAYER
  9
$CECOLOR
 62
   256
  9
$DIMSCALE
 40
1.0
  9
$DIMASZ
 40
20.0
  9
$DIMEXO
 40
10.0
  9
$DIMDLI
 40
1.0
  9
$DIMRND
 40
0.0
  9
$DIMDLE
 40
0.0
  9
$DIMEXE
 40
1.0
  9
$DIMTP
 40
0.0
  9
$DIMTM
 40
0.0
  9
$DIMTXT
 40
35.0
  9
$DIMCEN
 40
1.0
  9
$DIMTSZ
 40
0.0
  9
$DIMTOL
 70
     0
  9
$DIMLIM
 70
     0
  9
$DIMTIH
 70
     0
  9
$DIMTOH
 70
     0
  9
$DIMSE1
 70
     0
  9
$DIMSE2
 70
     0
  9
$DIMTAD
 70
     0
  9
$DIMZIN
 70
     0
  9
$DIMBLK
  1

  9
$DIMASO
 70
     1
  9
$DIMSHO
 70
     0
  9
$DIMPOST
  1

  9
$DIMAPOST
  1

  9
$DIMALT
 70
     0
  9
$DIMALTD
 70
     2
  9
$DIMALTF
 40
25.4
  9
$DIMLFAC
 40
1.0
  9
$DIMTOFL
 70
     0
  9
$DIMTVP
 40
0.0
  9
$DIMTIX
 70
     0
  9
$DIMSOXD
 70
     0
  9
$DIMSAH
 70
     0
  9
$DIMBLK1
  1

  9
$DIMBLK2
  1

  9
$DIMSTYLE
  2
TEAM
  9
$DIMCLRD
 70
     9
  9
$DIMCLRE
 70
     9
  9
$DIMCLRT
 70
    11
  9
$DIMTFAC
 40
1.0
  9
$DIMGAP
 40
15.0
  9
$LUNITS
 70
     2
  9
$LUPREC
 70
     1
  9
$SKETCHINC
 40
1.0
  9
$FILLETRAD
 40
50.0
  9
$AUNITS
 70
     0
  9
$AUPREC
 70
     0
  9
$MENU
  1
ROPLANS
  9
$ELEVATION
 40
0.0
  9
$PELEVATION
 40
0.0
  9
$THICKNESS
 40
0.0
  9
$LIMCHECK
 70
     0
  9
$BLIPMODE
 70
     1
  9
$CHAMFERA
 40
0.0
  9
$CHAMFERB
 40
0.0
  9
$SKPOLY
 70
     0
  9
$TDCREATE
 40
2450392.957851
  9
$TDUPDATE
 40
2455505.473099
  9
$TDINDWG
 40
2.023557
  9
$TDUSRTIMER
 40
2.023557
  9
$USRTIMER
 70
     1
  9
$ANGBASE
 50
0.0
  9
$ANGDIR
 70
     0
  9
$PDMODE
 70
     0
  9
$PDSIZE
 40
0.0
  9
$PLINEWID
 40
0.0
  9
$COORDS
 70
     2
  9
$SPLFRAME
 70
     0
  9
$SPLINETYPE
 70
     6
  9
$SPLINESEGS
 70
     8
  9
$ATTDIA
 70
     0
  9
$ATTREQ
 70
     0
  9
$HANDLING
 70
     1
  9
$HANDSEED
  5
EC
  9
$SURFTAB1
 70
    24
  9
$SURFTAB2
 70
    24
  9
$SURFTYPE
 70
     6
  9
$SURFU
 70
     6
  9
$SURFV
 70
     6
  9
$UCSNAME
  2

  9
$UCSORG
 10
0.0
 20
0.0
 30
0.0
  9
$UCSXDIR
 10
1.0
 20
0.0
 30
0.0
  9
$UCSYDIR
 10
0.0
 20
1.0
 30
0.0
  9
$PUCSNAME
  2

  9
$PUCSORG
 10
0.0
 20
0.0
 30
0.0
  9
$PUCSXDIR
 10
1.0
 20
0.0
 30
0.0
  9
$PUCSYDIR
 10
0.0
 20
1.0
 30
0.0
  9
$USERI1
 70
     0
  9
$USERI2
 70
     0
  9
$USERI3
 70
     0
  9
$USERI4
 70
     0
  9
$USERI5
 70
     0
  9
$USERR1
 40
0.0
  9
$USERR2
 40
0.0
  9
$USERR3
 40
0.0
  9
$USERR4
 40
0.0
  9
$USERR5
 40
0.0
  9
$WORLDVIEW
 70
     1
  9
$SHADEDGE
 70
     0
  9
$SHADEDIF
 70
    70
  9
$TILEMODE
 70
     1
  9
$MAXACTVP
 70
    16
  9
$PLIMCHECK
 70
     0
  9
$PEXTMIN
 10
-0.805942
 20
0.005011
 30
0.0
  9
$PEXTMAX
 10
20.250094
 20
11.356329
 30
0.0
  9
$PLIMMIN
 10
0.0
 20
0.0
  9
$PLIMMAX
 10
12.0
 20
9.0
  9
$UNITMODE
 70
     0
  9
$VISRETAIN
 70
     0
  9
$PLINEGEN
 70
     0
  9
$PSLTSCALE
 70
     0
  0
ENDSEC
  0
SECTION
  2
TABLES
  0
TABLE
  2
VPORT
 70
     2
  0
VPORT
  2
*ACTIVE
 70
     0
 10
0.0
 20
0.0
 11
1.0
 21
1.0
 12
-54.554402
 22
-145.441766
 13
0.0
 23
0.0
 14
1.0
 24
1.0
 15
50.0
 25
50.0
 16
0.0
 26
0.0
 36
1.0
 17
0.0
 27
0.0
 37
0.0
 40
704.352384
 41
1.865779
 42
50.0
 43
0.0
 44
0.0
 50
0.0
 51
0.0
 71
     0
 72
   100
 73
     1
 74
     1
 75
     0
 76
     0
 77
     0
 78
     0
  0
ENDTAB
  0
TABLE
  2
LTYPE
 70
     3
  0
LTYPE
  2
CONTINUOUS
 70
     0
  3
Solid Line
 72
    65
 73
     0
 40
0.0
  0
LTYPE
  2
31
 70
     0
  3

 72
    65
 73
     4
 40
2.1
 49
1.5
 49
-0.3
 49
0.0
 49
-0.3
  0
LTYPE
  2
22
 70
     0
  3

 72
    65
 73
     2
 40
1.4
 49
1.2
 49
-0.2
  0
ENDTAB
  0
TABLE
  2
LAYER
 70
     9
  0
LAYER
  2
0
 70
     0
 62
     7
  6
CONTINUOUS
  0
LAYER
  2
DEFPOINTS
 70
     0
 62
     7
  6
CONTINUOUS
  0
LAYER
  2
TEAM-BODY
 70
     0
 62
     2
  6
CONTINUOUS
  0
LAYER
  2
TEAM-AXE
 70
     0
 62
    10
  6
31
  0
LAYER
  2
TEAM-MAS
 70
     0
 62
     9
  6
CONTINUOUS
  0
LAYER
  2
TEAM-TXT
 70
     0
 62
    11
  6
CONTINUOUS
  0
LAYER
  2
TEAM-DET1
 70
     0
 62
     4
  6
CONTINUOUS
  0
LAYER
  2
TEAM-HIDE
 70
     0
 62
     8
  6
22
  0
LAYER
  2
TEAM-INSP
 70
     0
 62
     5
  6
CONTINUOUS
  0
ENDTAB
  0
TABLE
  2
STYLE
 70
     2
  0
STYLE
  2
STANDARD
 70
     0
 40
0.0
 41
1.0
 50
0.0
 71
     0
 42
200.0
  3
txt
  4

  0
STYLE
  2
TEAM
 70
     0
 40
0.0
 41
0.8
 50
15.0
 71
     0
 42
7.0
  3
ROMANS.shx
  4

  0
ENDTAB
  0
TABLE
  2
VIEW
 70
     0
  0
ENDTAB
  0
TABLE
  2
UCS
 70
     0
  0
ENDTAB
  0
TABLE
  2
APPID
 70
     1
  0
APPID
  2
ACAD
 70
     0
  0
ENDTAB
  0
TABLE
  2
DIMSTYLE
 70
     1
  0
DIMSTYLE
  2
TEAM
 70
     0
  3

  4

  5

  6

  7

 40
1.0
 41
20.0
 42
10.0
 43
1.0
 44
1.0
 45
0.0
 46
0.0
 47
0.0
 48
0.0
140
35.0
141
1.0
142
0.0
143
25.4
144
1.0
145
0.0
146
1.0
147
15.0
 71
     0
 72
     0
 73
     0
 74
     0
 75
     0
 76
     0
 77
     0
 78
     0
170
     0
171
     2
172
     0
173
     0
174
     0
175
     0
176
     9
177
     9
178
    11
  0
ENDTAB
  0
ENDSEC
  0
SECTION
  2
BLOCKS
  0
BLOCK
  8
0
  2
$MODEL_SPACE
 70
     0
 10
0.0
 20
0.0
 30
0.0
  3
$MODEL_SPACE
  1

  0
ENDBLK
  5
E5
  8
0
  0
BLOCK
 67
     1
  8
0
  2
$PAPER_SPACE
 70
     0
 10
0.0
 20
0.0
 30
0.0
  3
$PAPER_SPACE
  1

  0
ENDBLK
  5
E3
 67
     1
  8
0
  0
BLOCK
  8
0
  2
*D0
 70
     1
 10
0.0
 20
0.0
 30
0.0
  3
*D0
  1

  0
LINE
  5
66
  8
0
  6
BYBLOCK
 62
     9
 10
7897.845569
 20
19537.500059
 30
0.0
 11
7630.231306
 21
19537.500059
 31
0.0
  0
LINE
  5
67
  8
0
  6
BYBLOCK
 62
     9
 10
7884.512924
 20
20022.500041
 30
0.0
 11
7630.231306
 21
20022.500041
 31
0.0
  0
LINE
  5
68
  8
0
  6
BYBLOCK
 62
     9
 10
7631.231306
 20
19557.500059
 30
0.0
 11
7631.231306
 21
19731.025176
 31
0.0
  0
LINE
  5
69
  8
0
  6
BYBLOCK
 62
     9
 10
7631.231306
 20
20002.500041
 30
0.0
 11
7631.231306
 21
19828.974924
 31
0.0
  0
SOLID
  5
6A
  8
0
  6
BYBLOCK
 62
     9
 10
7627.897973
 20
19557.500059
 30
0.0
 11
7634.56464
 21
19557.500059
 31
0.0
 12
7631.231306
 22
19537.500059
 32
0.0
 13
7631.231306
 23
19537.500059
 33
0.0
  0
SOLID
  5
6B
  8
0
  6
BYBLOCK
 62
     9
 10
7627.897973
 20
20002.500041
 30
0.0
 11
7634.56464
 21
20002.500041
 31
0.0
 12
7631.231306
 22
20022.500041
 32
0.0
 13
7631.231306
 23
20022.500041
 33
0.0
  0
TEXT
  5
6C
  8
0
  6
BYBLOCK
 62
    11
 10
7648.731306
 20
19740.775176
 30
0.0
 40
35.0
  1
485
 50
90.0
  0
POINT
  5
6D
  8
DEFPOINTS
  6
BYBLOCK
 62
     0
 10
7907.845569
 20
19537.500059
 30
0.0
  0
POINT
  5
6E
  8
DEFPOINTS
  6
BYBLOCK
 62
     0
 10
7894.512924
 20
20022.500041
 30
0.0
  0
POINT
  5
6F
  8
DEFPOINTS
  6
BYBLOCK
 62
     0
 10
7631.231306
 20
20022.500041
 30
0.0
  0
ENDBLK
  5
71
  8
0
  0
BLOCK
  8
0
  2
*D1
 70
     1
 10
0.0
 20
0.0
 30
0.0
  3
*D1
  1

  0
LINE
  5
58
  8
0
  6
BYBLOCK
 62
     9
 10
7921.99191
 20
19560.0
 30
0.0
 11
7684.89503
 21
19560.0
 31
0.0
  0
LINE
  5
59
  8
0
  6
BYBLOCK
 62
     9
 10
7908.659265
 20
20000.0
 30
0.0
 11
7684.89503
 21
20000.0
 31
0.0
  0
LINE
  5
5A
  8
0
  6
BYBLOCK
 62
     9
 10
7685.89503
 20
19580.0
 30
0.0
 11
7685.89503
 21
19729.98622
 31
0.0
  0
LINE
  5
5B
  8
0
  6
BYBLOCK
 62
     9
 10
7685.89503
 20
19980.0
 30
0.0
 11
7685.89503
 21
19830.01378
 31
0.0
  0
SOLID
  5
5C
  8
0
  6
BYBLOCK
 62
     9
 10
7682.561697
 20
19580.0
 30
0.0
 11
7689.228364
 21
19580.0
 31
0.0
 12
7685.89503
 22
19560.0
 32
0.0
 13
7685.89503
 23
19560.0
 33
0.0
  0
SOLID
  5
5D
  8
0
  6
BYBLOCK
 62
     9
 10
7682.561697
 20
19980.0
 30
0.0
 11
7689.228364
 21
19980.0
 31
0.0
 12
7685.89503
 22
20000.0
 32
0.0
 13
7685.89503
 23
20000.0
 33
0.0
  0
TEXT
  5
5E
  8
0
  6
BYBLOCK
 62
    11
 10
7703.39503
 20
19739.73622
 30
0.0
 40
35.0
  1
440
 50
90.0
  0
POINT
  5
5F
  8
DEFPOINTS
  6
BYBLOCK
 62
     0
 10
7931.99191
 20
19560.0
 30
0.0
  0
POINT
  5
60
  8
DEFPOINTS
  6
BYBLOCK
 62
     0
 10
7918.659265
 20
20000.0
 30
0.0
  0
POINT
  5
61
  8
DEFPOINTS
  6
BYBLOCK
 62
     0
 10
7685.89503
 20
20000.0
 30
0.0
  0
ENDBLK
  5
63
  8
0
  0
BLOCK
  8
0
  2
*D2
 70
     1
 10
0.0
 20
0.0
 30
0.0
  3
*D2
  1

  0
LINE
  5
38
  8
0
  6
BYBLOCK
 62
     9
 10
7757.500059
 20
19892.852536
 30
0.0
 11
7757.500059
 21
20189.793103
 31
0.0
  0
LINE
  5
39
  8
0
  6
BYBLOCK
 62
     9
 10
8242.500041
 20
19880.85588
 30
0.0
 11
8242.500041
 21
20189.793103
 31
0.0
  0
LINE
  5
3A
  8
0
  6
BYBLOCK
 62
     9
 10
7777.500059
 20
20188.793103
 30
0.0
 11
7951.025176
 21
20188.793103
 31
0.0
  0
LINE
  5
3B
  8
0
  6
BYBLOCK
 62
     9
 10
8222.500041
 20
20188.793103
 30
0.0
 11
8048.974924
 21
20188.793103
 31
0.0
  0
SOLID
  5
3C
  8
0
  6
BYBLOCK
 62
     9
 10
7777.500059
 20
20192.126436
 30
0.0
 11
7777.500059
 21
20185.45977
 31
0.0
 12
7757.500059
 22
20188.793103
 32
0.0
 13
7757.500059
 23
20188.793103
 33
0.0
  0
SOLID
  5
3D
  8
0
  6
BYBLOCK
 62
     9
 10
8222.500041
 20
20192.126436
 30
0.0
 11
8222.500041
 21
20185.45977
 31
0.0
 12
8242.500041
 22
20188.793103
 32
0.0
 13
8242.500041
 23
20188.793103
 33
0.0
  0
TEXT
  5
3E
  8
0
  6
BYBLOCK
 62
    11
 10
7960.775176
 20
20171.293103
 30
0.0
 40
35.0
  1
485
  0
POINT
  5
3F
  8
DEFPOINTS
  6
BYBLOCK
 62
     0
 10
7757.500059
 20
19882.852536
 30
0.0
  0
POINT
  5
40
  8
DEFPOINTS
  6
BYBLOCK
 62
     0
 10
8242.500041
 20
19870.85588
 30
0.0
  0
POINT
  5
41
  8
DEFPOINTS
  6
BYBLOCK
 62
     0
 10
8242.500041
 20
20188.793103
 30
0.0
  0
ENDBLK
  5
43
  8
0
  0
BLOCK
  8
0
  2
*D3
 70
     1
 10
0.0
 20
0.0
 30
0.0
  3
*D3
  1

  0
LINE
  5
29
  8
0
  6
BYBLOCK
 62
     9
 10
7780.0
 20
19868.706195
 30
0.0
 11
7780.0
 21
20132.475766
 31
0.0
  0
LINE
  5
2A
  8
0
  6
BYBLOCK
 62
     9
 10
8220.0
 20
19856.709539
 30
0.0
 11
8220.0
 21
20132.475766
 31
0.0
  0
LINE
  5
2B
  8
0
  6
BYBLOCK
 62
     9
 10
7800.0
 20
20131.475766
 30
0.0
 11
7949.98622
 21
20131.475766
 31
0.0
  0
LINE
  5
2C
  8
0
  6
BYBLOCK
 62
     9
 10
8200.0
 20
20131.475766
 30
0.0
 11
8050.01378
 21
20131.475766
 31
0.0
  0
SOLID
  5
2D
  8
0
  6
BYBLOCK
 62
     9
 10
7800.0
 20
20134.8091
 30
0.0
 11
7800.0
 21
20128.142433
 31
0.0
 12
7780.0
 22
20131.475766
 32
0.0
 13
7780.0
 23
20131.475766
 33
0.0
  0
SOLID
  5
2E
  8
0
  6
BYBLOCK
 62
     9
 10
8200.0
 20
20134.8091
 30
0.0
 11
8200.0
 21
20128.142433
 31
0.0
 12
8220.0
 22
20131.475766
 32
0.0
 13
8220.0
 23
20131.475766
 33
0.0
  0
TEXT
  5
2F
  8
0
  6
BYBLOCK
 62
    11
 10
7959.73622
 20
20113.975766
 30
0.0
 40
35.0
  1
440
  0
POINT
  5
30
  8
DEFPOINTS
  6
BYBLOCK
 62
     0
 10
7780.0
 20
19858.706195
 30
0.0
  0
POINT
  5
32
  8
DEFPOINTS
  6
BYBLOCK
 62
     0
 10
8220.0
 20
19846.709539
 30
0.0
  0
POINT
  5
33
  8
DEFPOINTS
  6
BYBLOCK
 62
     0
 10
8220.0
 20
20131.475766
 30
0.0
  0
ENDBLK
  5
35
  8
0
  0
ENDSEC
  0
SECTION
  2
ENTITIES
  0
LINE
  5
20
  8
TEAM-HIDE
 10
73.180487
 20
22.500041
 30
0.0
 11
-73.180487
 21
22.500041
 31
0.0
  0
LINE
  5
23
  8
TEAM-BODY
 10
-129.923551
 20
-105.365452
 30
0.0
 11
129.923551
 21
-105.365452
 31
0.0
  0
LINE
  5
25
  8
TEAM-DET1
 10
-129.923551
 20
-116.097159
 30
0.0
 11
129.923551
 21
-116.097159
 31
0.0
  0
DIMENSION
  5
27
  8
TEAM-MAS
  2
*D3
 10
220.0
 20
131.475766
 30
0.0
 11
0.0
 21
131.475766
 31
0.0
 12
-8000.0
 22
-20000.0
 32
0.0
 13
-220.0
 23
-141.293805
 33
0.0
 14
220.0
 24
-153.290461
 34
0.0
1001
ACAD
1000
DSTYLE
1002
{
1070
    40
1040
1.0
1002
}
  0
DIMENSION
  5
36
  8
TEAM-MAS
  2
*D2
 10
242.500041
 20
188.793103
 30
0.0
 11
0.00005
 21
188.793103
 31
0.0
 12
-8000.0
 22
-20000.0
 32
0.0
 13
-242.499941
 23
-117.147464
 33
0.0
 14
242.500041
 24
-129.14412
 34
0.0
1001
ACAD
1000
DSTYLE
1002
{
1070
    40
1040
1.0
1002
}
  0
LINE
  5
44
  8
TEAM-HIDE
 10
-73.180487
 20
-462.499941
 30
0.0
 11
73.180487
 21
-462.499941
 31
0.0
  0
TEXT
  5
45
  8
TEAM-TXT
 10
-111.284001
 20
-307.535216
 30
0.0
 40
32.195122
  1
team 231021
 41
0.8
 51
15.0
  7
TEAM
  0
CIRCLE
  5
48
  8
TEAM-BODY
 10
0.0
 20
-220.0
 30
0.0
 40
220.0
  0
ARC
  5
49
  8
TEAM-DET1
 10
0.0
 20
-220.0
 30
0.0
 40
209.268293
 50
167.547497
 51
12.452503
  0
ARC
  5
4A
  8
TEAM-BODY
 10
-129.047087
 20
-193.711107
 30
0.0
 40
88.350003
 50
90.568404
 51
166.054387
  0
ARC
  5
4B
  8
TEAM-DET1
 10
-129.047087
 20
-193.711107
 30
0.0
 40
77.618296
 50
90.568404
 51
166.054387
  0
ARC
  5
4C
  8
TEAM-HIDE
 10
-65.537391
 20
-154.462505
 30
0.0
 40
177.127524
 50
92.473095
 51
177.526939
  0
LINE
  5
4D
  8
TEAM-AXE
 10
0.0
 20
-87.952459
 30
0.0
 11
0.0
 21
-23.562215
 31
0.0
  0
LINE
  5
50
  8
TEAM-AXE
 10
-42.926829
 20
-167.499959
 30
0.0
 11
42.926829
 21
-167.499959
 31
0.0
  0
CIRCLE
  5
51
  8
TEAM-DET1
 10
0.0
 20
-55.757337
 30
0.0
 40
21.463415
  0
LINE
  5
52
  8
TEAM-AXE
 10
-32.195122
 20
-55.757337
 30
0.0
 11
32.195122
 21
-55.757337
 31
0.0
  0
CIRCLE
  5
53
  8
TEAM-INSP
 10
0.0
 20
0.0
 30
0.0
 40
10.0
  0
ARC
  5
55
  8
TEAM-HIDE
 10
-65.537482
 20
-285.537482
 30
0.0
 40
177.127433
 50
182.473067
 51
267.526933
  0
DIMENSION
  5
56
  8
TEAM-MAS
  2
*D1
 10
-314.10497
 20
0.0
 30
0.0
 11
-314.10497
 21
-220.0
 31
0.0
 12
-8000.0
 22
-20000.0
 32
0.0
 13
-68.00809
 23
-440.0
 33
0.0
 14
-81.340735
 24
0.0
 34
0.0
 50
90.0
1001
ACAD
1000
DSTYLE
1002
{
1070
    40
1040
1.0
1002
}
  0
DIMENSION
  5
64
  8
TEAM-MAS
  2
*D0
 10
-368.768694
 20
22.500041
 30
0.0
 11
-368.768694
 21
-219.99995
 31
0.0
 12
-8000.0
 22
-20000.0
 32
0.0
 13
-92.154431
 23
-462.499941
 33
0.0
 14
-105.487076
 24
22.500041
 34
0.0
 50
90.0
1001
ACAD
1000
DSTYLE
1002
{
1070
    40
1040
1.0
1002
}
  0
LINE
  5
72
  8
TEAM-HIDE
 10
-242.499941
 20
-146.819513
 30
0.0
 11
-242.499941
 21
-293.180487
 31
0.0
  0
LINE
  5
73
  8
TEAM-AXE
 10
0.0
 20
-210.426788
 30
0.0
 11
0.0
 21
-124.573129
 31
0.0
  0
CIRCLE
  5
74
  8
TEAM-BODY
 10
0.0
 20
-167.499959
 30
0.0
 40
21.463415
  0
CIRCLE
  5
75
  8
TEAM-DET1
 10
0.0
 20
-167.499959
 30
0.0
 40
32.195122
  0
ARC
  5
76
  8
TEAM-BODY
 10
129.047087
 20
-193.711107
 30
0.0
 40
88.350003
 50
13.945613
 51
89.431596
  0
ARC
  5
77
  8
TEAM-DET1
 10
129.047087
 20
-193.711107
 30
0.0
 40
77.618296
 50
13.945613
 51
89.431596
  0
ARC
  5
78
  8
TEAM-HIDE
 10
65.537404
 20
-154.462596
 30
0.0
 40
177.127615
 50
2.473089
 51
87.526911
  0
ARC
  5
79
  8
TEAM-HIDE
 10
65.537495
 20
-285.537391
 30
0.0
 40
177.127524
 50
272.473061
 51
357.526905
  0
LINE
  5
7A
  8
TEAM-HIDE
 10
242.500041
 20
-293.180487
 30
0.0
 11
242.500041
 21
-146.819513
 31
0.0
  0
ENDSEC
  0
EOF
