  0
SECTION
  2
HEADER
  9
$ACADVER
  1
AC1009
  9
$INSBASE
 10
0.0
 20
0.0
 30
0.0
  9
$EXTMIN
 10
-312.328479
 20
-10.03244
 30
-20.000922
  9
$EXTMAX
 10
401.875748
 20
890.045009
 30
10.002181
  9
$LIMMIN
 10
-312.328479
 20
-10.03244
  9
$LIMMAX
 10
401.875748
 20
890.045009
  9
$ORTHOMODE
 70
     1
  9
$REGENMODE
 70
     1
  9
$FILLMODE
 70
     1
  9
$QTEXTMODE
 70
     0
  9
$MIRRTEXT
 70
     0
  9
$DRAGMODE
 70
     2
  9
$LTSCALE
 40
25.0
  9
$OSMODE
 70
     0
  9
$ATTMODE
 70
     1
  9
$TEXTSIZE
 40
200.0
  9
$TRACEWID
 40
1.0
  9
$TEXTSTYLE
  7
STANDARD
  9
$CLAYER
  8
TEAM-MAS
  9
$CELTYPE
  6
BYLAYER
  9
$CECOLOR
 62
   256
  9
$DIMSCALE
 40
1.0
  9
$DIMASZ
 40
20.0
  9
$DIMEXO
 40
10.0
  9
$DIMDLI
 40
1.0
  9
$DIMRND
 40
0.0
  9
$DIMDLE
 40
0.0
  9
$DIMEXE
 40
1.0
  9
$DIMTP
 40
0.0
  9
$DIMTM
 40
0.0
  9
$DIMTXT
 40
35.0
  9
$DIMCEN
 40
1.0
  9
$DIMTSZ
 40
0.0
  9
$DIMTOL
 70
     0
  9
$DIMLIM
 70
     0
  9
$DIMTIH
 70
     0
  9
$DIMTOH
 70
     0
  9
$DIMSE1
 70
     0
  9
$DIMSE2
 70
     0
  9
$DIMTAD
 70
     0
  9
$DIMZIN
 70
     0
  9
$DIMBLK
  1

  9
$DIMASO
 70
     1
  9
$DIMSHO
 70
     0
  9
$DIMPOST
  1

  9
$DIMAPOST
  1

  9
$DIMALT
 70
     0
  9
$DIMALTD
 70
     2
  9
$DIMALTF
 40
25.4
  9
$DIMLFAC
 40
1.0
  9
$DIMTOFL
 70
     0
  9
$DIMTVP
 40
0.0
  9
$DIMTIX
 70
     0
  9
$DIMSOXD
 70
     0
  9
$DIMSAH
 70
     0
  9
$DIMBLK1
  1

  9
$DIMBLK2
  1

  9
$DIMSTYLE
  2
TEAM
  9
$DIMCLRD
 70
     9
  9
$DIMCLRE
 70
     9
  9
$DIMCLRT
 70
    11
  9
$DIMTFAC
 40
1.0
  9
$DIMGAP
 40
15.0
  9
$LUNITS
 70
     2
  9
$LUPREC
 70
     1
  9
$SKETCHINC
 40
1.0
  9
$FILLETRAD
 40
50.0
  9
$AUNITS
 70
     0
  9
$AUPREC
 70
     0
  9
$MENU
  1
ROPLANS
  9
$ELEVATION
 40
0.0
  9
$PELEVATION
 40
0.0
  9
$THICKNESS
 40
0.0
  9
$LIMCHECK
 70
     0
  9
$BLIPMODE
 70
     1
  9
$CHAMFERA
 40
0.0
  9
$CHAMFERB
 40
0.0
  9
$SKPOLY
 70
     0
  9
$TDCREATE
 40
2450392.957851
  9
$TDUPDATE
 40
2455505.473099
  9
$TDINDWG
 40
2.023557
  9
$TDUSRTIMER
 40
2.023557
  9
$USRTIMER
 70
     1
  9
$ANGBASE
 50
0.0
  9
$ANGDIR
 70
     0
  9
$PDMODE
 70
     0
  9
$PDSIZE
 40
0.0
  9
$PLINEWID
 40
0.0
  9
$COORDS
 70
     2
  9
$SPLFRAME
 70
     0
  9
$SPLINETYPE
 70
     6
  9
$SPLINESEGS
 70
     8
  9
$ATTDIA
 70
     0
  9
$ATTREQ
 70
     0
  9
$HANDLING
 70
     1
  9
$HANDSEED
  5
11C
  9
$SURFTAB1
 70
    24
  9
$SURFTAB2
 70
    24
  9
$SURFTYPE
 70
     6
  9
$SURFU
 70
     6
  9
$SURFV
 70
     6
  9
$UCSNAME
  2

  9
$UCSORG
 10
0.0
 20
0.0
 30
0.0
  9
$UCSXDIR
 10
1.0
 20
0.0
 30
0.0
  9
$UCSYDIR
 10
0.0
 20
1.0
 30
0.0
  9
$PUCSNAME
  2

  9
$PUCSORG
 10
0.0
 20
0.0
 30
0.0
  9
$PUCSXDIR
 10
1.0
 20
0.0
 30
0.0
  9
$PUCSYDIR
 10
0.0
 20
1.0
 30
0.0
  9
$USERI1
 70
     0
  9
$USERI2
 70
     0
  9
$USERI3
 70
     0
  9
$USERI4
 70
     0
  9
$USERI5
 70
     0
  9
$USERR1
 40
0.0
  9
$USERR2
 40
0.0
  9
$USERR3
 40
0.0
  9
$USERR4
 40
0.0
  9
$USERR5
 40
0.0
  9
$WORLDVIEW
 70
     1
  9
$SHADEDGE
 70
     0
  9
$SHADEDIF
 70
    70
  9
$TILEMODE
 70
     1
  9
$MAXACTVP
 70
    16
  9
$PLIMCHECK
 70
     0
  9
$PEXTMIN
 10
-0.805942
 20
0.005011
 30
0.0
  9
$PEXTMAX
 10
20.250094
 20
11.356329
 30
0.0
  9
$PLIMMIN
 10
0.0
 20
0.0
  9
$PLIMMAX
 10
12.0
 20
9.0
  9
$UNITMODE
 70
     0
  9
$VISRETAIN
 70
     0
  9
$PLINEGEN
 70
     0
  9
$PSLTSCALE
 70
     0
  0
ENDSEC
  0
SECTION
  2
TABLES
  0
TABLE
  2
VPORT
 70
     2
  0
VPORT
  2
*ACTIVE
 70
     0
 10
0.0
 20
0.0
 11
1.0
 21
1.0
 12
44.773635
 22
440.006285
 13
0.0
 23
0.0
 14
1.0
 24
1.0
 15
50.0
 25
50.0
 16
0.0
 26
0.0
 36
1.0
 17
0.0
 27
0.0
 37
0.0
 40
905.605049
 41
1.865779
 42
50.0
 43
0.0
 44
0.0
 50
0.0
 51
0.0
 71
     0
 72
   100
 73
     1
 74
     1
 75
     0
 76
     0
 77
     0
 78
     0
  0
ENDTAB
  0
TABLE
  2
LTYPE
 70
     2
  0
LTYPE
  2
CONTINUOUS
 70
     0
  3
Solid Line
 72
    65
 73
     0
 40
0.0
  0
LTYPE
  2
31
 70
     0
  3

 72
    65
 73
     4
 40
2.1
 49
1.5
 49
-0.3
 49
0.0
 49
-0.3
  0
ENDTAB
  0
TABLE
  2
LAYER
 70
    10
  0
LAYER
  2
0
 70
     0
 62
     7
  6
CONTINUOUS
  0
LAYER
  2
DEFPOINTS
 70
     0
 62
     7
  6
CONTINUOUS
  0
LAYER
  2
TEAM-BODY
 70
     0
 62
     2
  6
CONTINUOUS
  0
LAYER
  2
TEAM-AXE
 70
     0
 62
    10
  6
31
  0
LAYER
  2
TEAM-MAS
 70
     0
 62
     9
  6
CONTINUOUS
  0
LAYER
  2
TEAM-TXT
 70
     0
 62
    11
  6
CONTINUOUS
  0
LAYER
  2
TEAM-COLD
 70
     0
 62
     3
  6
CONTINUOUS
  0
LAYER
  2
TEAM-KAN
 70
     0
 62
     6
  6
CONTINUOUS
  0
LAYER
  2
TEAM-WARM
 70
     0
 62
     1
  6
CONTINUOUS
  0
LAYER
  2
TEAM-INSP
 70
     0
 62
     5
  6
CONTINUOUS
  0
ENDTAB
  0
TABLE
  2
STYLE
 70
     2
  0
STYLE
  2
STANDARD
 70
     0
 40
0.0
 41
1.0
 50
0.0
 71
     0
 42
200.0
  3
txt
  4

  0
STYLE
  2
TEAM
 70
     0
 40
0.0
 41
0.8
 50
15.0
 71
     0
 42
7.0
  3
ROMANS.shx
  4

  0
ENDTAB
  0
TABLE
  2
VIEW
 70
     0
  0
ENDTAB
  0
TABLE
  2
UCS
 70
     0
  0
ENDTAB
  0
TABLE
  2
APPID
 70
     1
  0
APPID
  2
ACAD
 70
     0
  0
ENDTAB
  0
TABLE
  2
DIMSTYLE
 70
     1
  0
DIMSTYLE
  2
TEAM
 70
     0
  3

  4

  5

  6

  7

 40
1.0
 41
20.0
 42
10.0
 43
1.0
 44
1.0
 45
0.0
 46
0.0
 47
0.0
 48
0.0
140
35.0
141
1.0
142
0.0
143
25.4
144
1.0
145
0.0
146
1.0
147
15.0
 71
     0
 72
     0
 73
     0
 74
     0
 75
     0
 76
     0
 77
     0
 78
     0
170
     0
171
     2
172
     0
173
     0
174
     0
175
     0
176
     9
177
     9
178
    11
  0
ENDTAB
  0
ENDSEC
  0
SECTION
  2
BLOCKS
  0
BLOCK
  8
0
  2
$MODEL_SPACE
 70
     0
 10
0.0
 20
0.0
 30
0.0
  3
$MODEL_SPACE
  1

  0
ENDBLK
  5
115
  8
0
  0
BLOCK
 67
     1
  8
0
  2
$PAPER_SPACE
 70
     0
 10
0.0
 20
0.0
 30
0.0
  3
$PAPER_SPACE
  1

  0
ENDBLK
  5
113
 67
     1
  8
0
  0
BLOCK
  8
0
  2
*D0
 70
     1
 10
0.0
 20
0.0
 30
0.0
  3
*D0
  1

  0
LINE
  5
4D
  8
0
  6
BYBLOCK
 62
     9
 10
11960.0
 20
20562.0
 30
0.0
 11
11960.0
 21
20407.824829
 31
0.0
  0
LINE
  5
4E
  8
0
  6
BYBLOCK
 62
     9
 10
12040.0
 20
20562.0
 30
0.0
 11
12040.0
 21
20407.824829
 31
0.0
  0
LINE
  5
4F
  8
0
  6
BYBLOCK
 62
     9
 10
11980.0
 20
20408.824829
 30
0.0
 11
12020.0
 21
20408.824829
 31
0.0
  0
TEXT
  5
50
  8
0
  6
BYBLOCK
 62
    11
 10
12045.702316
 20
20391.324829
 30
0.0
 40
35.0
  1
80-120
  0
SOLID
  5
51
  8
0
  6
BYBLOCK
 62
     9
 10
11980.0
 20
20412.158162
 30
0.0
 11
11980.0
 21
20405.491496
 31
0.0
 12
11960.0
 22
20408.824829
 32
0.0
 13
11960.0
 23
20408.824829
 33
0.0
  0
SOLID
  5
52
  8
0
  6
BYBLOCK
 62
     9
 10
12020.0
 20
20412.158162
 30
0.0
 11
12020.0
 21
20405.491496
 31
0.0
 12
12040.0
 22
20408.824829
 32
0.0
 13
12040.0
 23
20408.824829
 33
0.0
  0
POINT
  5
53
  8
DEFPOINTS
  6
BYBLOCK
 62
     0
 10
11960.0
 20
20572.0
 30
20.0
  0
POINT
  5
54
  8
DEFPOINTS
  6
BYBLOCK
 62
     0
 10
12040.0
 20
20572.0
 30
20.0
  0
POINT
  5
55
  8
DEFPOINTS
  6
BYBLOCK
 62
     0
 10
12040.0
 20
20408.824829
 30
30.0
  0
ENDBLK
  5
57
  8
0
  0
BLOCK
  8
0
  2
*D1
 70
     1
 10
0.0
 20
0.0
 30
0.0
  3
*D1
  1

  0
LINE
  5
3F
  8
0
  6
BYBLOCK
 62
     9
 10
12069.0
 20
20600.0
 30
0.0
 11
12244.181136
 21
20600.0
 31
0.0
  0
LINE
  5
40
  8
0
  6
BYBLOCK
 62
     9
 10
12018.680289
 20
20000.0
 30
0.0
 11
12244.181136
 21
20000.0
 31
0.0
  0
LINE
  5
41
  8
0
  6
BYBLOCK
 62
     9
 10
12243.181136
 20
20580.0
 30
0.0
 11
12243.181136
 21
20347.561024
 31
0.0
  0
LINE
  5
42
  8
0
  6
BYBLOCK
 62
     9
 10
12243.181136
 20
20020.0
 30
0.0
 11
12243.181136
 21
20252.438976
 31
0.0
  0
SOLID
  5
43
  8
0
  6
BYBLOCK
 62
     9
 10
12239.847803
 20
20580.0
 30
0.0
 11
12246.514469
 21
20580.0
 31
0.0
 12
12243.181136
 22
20600.0
 32
0.0
 13
12243.181136
 23
20600.0
 33
0.0
  0
SOLID
  5
44
  8
0
  6
BYBLOCK
 62
     9
 10
12239.847803
 20
20020.0
 30
0.0
 11
12246.514469
 21
20020.0
 31
0.0
 12
12243.181136
 22
20000.0
 32
0.0
 13
12243.181136
 23
20000.0
 33
0.0
  0
TEXT
  5
45
  8
0
  6
BYBLOCK
 62
    11
 10
12260.681136
 20
20264.283465
 30
0.0
 40
35.0
  1
600
 50
90.0
  0
POINT
  5
46
  8
DEFPOINTS
  6
BYBLOCK
 62
     0
 10
12059.0
 20
20600.0
 30
10.0
  0
POINT
  5
47
  8
DEFPOINTS
  6
BYBLOCK
 62
     0
 10
12008.680289
 20
20000.0
 30
20.0
  0
POINT
  5
48
  8
DEFPOINTS
  6
BYBLOCK
 62
     0
 10
12243.181136
 20
20000.0
 30
20.0
  0
ENDBLK
  5
4A
  8
0
  0
BLOCK
  8
0
  2
*D2
 70
     1
 10
0.0
 20
0.0
 30
0.0
  3
*D2
  1

  0
LINE
  5
98
  8
0
  6
BYBLOCK
 62
     9
 10
11769.0
 20
20850.0
 30
0.0
 11
11743.468819
 21
20850.0
 31
0.0
  0
LINE
  5
99
  8
0
  6
BYBLOCK
 62
     9
 10
11781.0
 20
20821.0
 30
0.0
 11
11743.468819
 21
20821.0
 31
0.0
  0
LINE
  5
9A
  8
0
  6
BYBLOCK
 62
     9
 10
11744.468819
 20
20870.0
 30
0.0
 11
11744.468819
 21
20890.0
 31
0.0
  0
LINE
  5
9B
  8
0
  6
BYBLOCK
 62
     9
 10
11744.468819
 20
20801.0
 30
0.0
 11
11744.468819
 21
20781.0
 31
0.0
  0
TEXT
  5
9C
  8
0
  6
BYBLOCK
 62
    11
 10
11720.968819
 20
20810.98622
 30
0.0
 40
35.0
  1
30
 50
90.0
  0
LINE
  5
9D
  8
0
  6
BYBLOCK
 62
     9
 10
11744.468819
 20
20850.0
 30
0.0
 11
11744.468819
 21
20821.0
 31
0.0
  0
SOLID
  5
9E
  8
0
  6
BYBLOCK
 62
     9
 10
11741.135486
 20
20870.0
 30
0.0
 11
11747.802153
 21
20870.0
 31
0.0
 12
11744.468819
 22
20850.0
 32
0.0
 13
11744.468819
 23
20850.0
 33
0.0
  0
SOLID
  5
9F
  8
0
  6
BYBLOCK
 62
     9
 10
11741.135486
 20
20801.0
 30
0.0
 11
11747.802153
 21
20801.0
 31
0.0
 12
11744.468819
 22
20821.0
 32
0.0
 13
11744.468819
 23
20821.0
 33
0.0
  0
POINT
  5
A0
  8
DEFPOINTS
  6
BYBLOCK
 62
     0
 10
11779.0
 20
20850.0
 30
10.0
  0
POINT
  5
A1
  8
DEFPOINTS
  6
BYBLOCK
 62
     0
 10
11791.0
 20
20821.0
 30
10.0
  0
POINT
  5
A2
  8
DEFPOINTS
  6
BYBLOCK
 62
     0
 10
11744.468819
 20
20821.0
 30
10.0
  0
ENDBLK
  5
A4
  8
0
  0
BLOCK
  8
0
  2
*D3
 70
     1
 10
0.0
 20
0.0
 30
0.0
  3
*D3
  1

  0
LINE
  5
8A
  8
0
  6
BYBLOCK
 62
     9
 10
12045.0
 20
20645.0
 30
0.0
 11
12290.45014
 21
20645.0
 31
0.0
  0
LINE
  5
8B
  8
0
  6
BYBLOCK
 62
     9
 10
12240.615117
 20
20850.0
 30
0.0
 11
12290.45014
 21
20850.0
 31
0.0
  0
LINE
  5
8C
  8
0
  6
BYBLOCK
 62
     9
 10
12289.45014
 20
20665.0
 30
0.0
 11
12289.45014
 21
20699.830737
 31
0.0
  0
LINE
  5
8D
  8
0
  6
BYBLOCK
 62
     9
 10
12289.45014
 20
20830.0
 30
0.0
 11
12289.45014
 21
20795.169263
 31
0.0
  0
SOLID
  5
8E
  8
0
  6
BYBLOCK
 62
     9
 10
12286.116807
 20
20665.0
 30
0.0
 11
12292.783474
 21
20665.0
 31
0.0
 12
12289.45014
 22
20645.0
 32
0.0
 13
12289.45014
 23
20645.0
 33
0.0
  0
SOLID
  5
8F
  8
0
  6
BYBLOCK
 62
     9
 10
12286.116807
 20
20830.0
 30
0.0
 11
12292.783474
 21
20830.0
 31
0.0
 12
12289.45014
 22
20850.0
 32
0.0
 13
12289.45014
 23
20850.0
 33
0.0
  0
TEXT
  5
90
  8
0
  6
BYBLOCK
 62
    11
 10
12306.95014
 20
20710.469516
 30
0.0
 40
35.0
  1
205
 50
90.0
  0
POINT
  5
91
  8
DEFPOINTS
  6
BYBLOCK
 62
     0
 10
12035.0
 20
20645.0
 30
10.0
  0
POINT
  5
92
  8
DEFPOINTS
  6
BYBLOCK
 62
     0
 10
12230.615117
 20
20850.0
 30
10.0
  0
POINT
  5
93
  8
DEFPOINTS
  6
BYBLOCK
 62
     0
 10
12289.45014
 20
20850.0
 30
10.0
  0
ENDBLK
  5
95
  8
0
  0
BLOCK
  8
0
  2
*D4
 70
     1
 10
0.0
 20
0.0
 30
0.0
  3
*D4
  1

  0
LINE
  5
7C
  8
0
  6
BYBLOCK
 62
     9
 10
12250.615117
 20
20850.0
 30
0.0
 11
12385.66892
 21
20850.0
 31
0.0
  0
LINE
  5
7D
  8
0
  6
BYBLOCK
 62
     9
 10
12018.680289
 20
20000.0
 30
0.0
 11
12385.66892
 21
20000.0
 31
0.0
  0
LINE
  5
7E
  8
0
  6
BYBLOCK
 62
     9
 10
12384.66892
 20
20830.0
 30
0.0
 11
12384.66892
 21
20471.51378
 31
0.0
  0
LINE
  5
7F
  8
0
  6
BYBLOCK
 62
     9
 10
12384.66892
 20
20020.0
 30
0.0
 11
12384.66892
 21
20378.48622
 31
0.0
  0
SOLID
  5
80
  8
0
  6
BYBLOCK
 62
     9
 10
12381.335587
 20
20830.0
 30
0.0
 11
12388.002253
 21
20830.0
 31
0.0
 12
12384.66892
 22
20850.0
 32
0.0
 13
12384.66892
 23
20850.0
 33
0.0
  0
SOLID
  5
81
  8
0
  6
BYBLOCK
 62
     9
 10
12381.335587
 20
20020.0
 30
0.0
 11
12388.002253
 21
20020.0
 31
0.0
 12
12384.66892
 22
20000.0
 32
0.0
 13
12384.66892
 23
20000.0
 33
0.0
  0
TEXT
  5
82
  8
0
  6
BYBLOCK
 62
    11
 10
12402.16892
 20
20388.23622
 30
0.0
 40
35.0
  1
850
 50
90.0
  0
POINT
  5
83
  8
DEFPOINTS
  6
BYBLOCK
 62
     0
 10
12240.615117
 20
20850.0
 30
10.0
  0
POINT
  5
84
  8
DEFPOINTS
  6
BYBLOCK
 62
     0
 10
12008.680289
 20
20000.0
 30
10.0
  0
POINT
  5
85
  8
DEFPOINTS
  6
BYBLOCK
 62
     0
 10
12384.66892
 20
20000.0
 30
10.0
  0
ENDBLK
  5
87
  8
0
  0
BLOCK
  8
0
  2
*D5
 70
     1
 10
0.0
 20
0.0
 30
0.0
  3
*D5
  1

  0
LINE
  5
31
  8
0
  6
BYBLOCK
 62
     9
 10
12049.0
 20
20510.0
 30
0.0
 11
12335.271997
 21
20510.0
 31
0.0
  0
LINE
  5
32
  8
0
  6
BYBLOCK
 62
     9
 10
12318.348522
 20
20850.0
 30
0.0
 11
12335.271997
 21
20850.0
 31
0.0
  0
LINE
  5
33
  8
0
  6
BYBLOCK
 62
     9
 10
12334.271997
 20
20530.0
 30
0.0
 11
12334.271997
 21
20631.73622
 31
0.0
  0
LINE
  5
34
  8
0
  6
BYBLOCK
 62
     9
 10
12334.271997
 20
20830.0
 30
0.0
 11
12334.271997
 21
20728.26378
 31
0.0
  0
SOLID
  5
35
  8
0
  6
BYBLOCK
 62
     9
 10
12330.938663
 20
20530.0
 30
0.0
 11
12337.60533
 21
20530.0
 31
0.0
 12
12334.271997
 22
20510.0
 32
0.0
 13
12334.271997
 23
20510.0
 33
0.0
  0
SOLID
  5
36
  8
0
  6
BYBLOCK
 62
     9
 10
12330.938663
 20
20830.0
 30
0.0
 11
12337.60533
 21
20830.0
 31
0.0
 12
12334.271997
 22
20850.0
 32
0.0
 13
12334.271997
 23
20850.0
 33
0.0
  0
TEXT
  5
37
  8
0
  6
BYBLOCK
 62
    11
 10
12351.771997
 20
20641.48622
 30
0.0
 40
35.0
  1
340
 50
90.0
  0
POINT
  5
38
  8
DEFPOINTS
  6
BYBLOCK
 62
     0
 10
12039.0
 20
20510.0
 30
10.0
  0
POINT
  5
39
  8
DEFPOINTS
  6
BYBLOCK
 62
     0
 10
12308.348522
 20
20850.0
 30
20.0
  0
POINT
  5
3A
  8
DEFPOINTS
  6
BYBLOCK
 62
     0
 10
12334.271997
 20
20850.0
 30
20.0
  0
ENDBLK
  5
3C
  8
0
  0
BLOCK
  8
0
  2
*D6
 70
     1
 10
0.0
 20
0.0
 30
0.0
  3
*D6
  1

  0
LINE
  5
22
  8
0
  6
BYBLOCK
 62
     9
 10
12049.0
 20
20510.0
 30
0.0
 11
12197.437759
 21
20510.0
 31
0.0
  0
LINE
  5
23
  8
0
  6
BYBLOCK
 62
     9
 10
12010.0
 20
20000.0
 30
0.0
 11
12197.437759
 21
20000.0
 31
0.0
  0
LINE
  5
24
  8
0
  6
BYBLOCK
 62
     9
 10
12196.437759
 20
20490.0
 30
0.0
 11
12196.437759
 21
20298.01378
 31
0.0
  0
LINE
  5
25
  8
0
  6
BYBLOCK
 62
     9
 10
12196.437759
 20
20020.0
 30
0.0
 11
12196.437759
 21
20211.98622
 31
0.0
  0
SOLID
  5
26
  8
0
  6
BYBLOCK
 62
     9
 10
12193.104426
 20
20490.0
 30
0.0
 11
12199.771093
 21
20490.0
 31
0.0
 12
12196.437759
 22
20510.0
 32
0.0
 13
12196.437759
 23
20510.0
 33
0.0
  0
SOLID
  5
27
  8
0
  6
BYBLOCK
 62
     9
 10
12193.104426
 20
20020.0
 30
0.0
 11
12199.771093
 21
20020.0
 31
0.0
 12
12196.437759
 22
20000.0
 32
0.0
 13
12196.437759
 23
20000.0
 33
0.0
  0
TEXT
  5
28
  8
0
  6
BYBLOCK
 62
    11
 10
12213.937759
 20
20221.73622
 30
0.0
 40
35.0
  1
510
 50
90.0
  0
POINT
  5
29
  8
DEFPOINTS
  6
BYBLOCK
 62
     0
 10
12039.0
 20
20510.0
 30
10.0
  0
POINT
  5
2B
  8
DEFPOINTS
  6
BYBLOCK
 62
     0
 10
12000.0
 20
20000.0
 30
10.0
  0
POINT
  5
2C
  8
DEFPOINTS
  6
BYBLOCK
 62
     0
 10
12196.437759
 20
20000.0
 30
0.0
  0
ENDBLK
  5
2E
  8
0
  0
ENDSEC
  0
SECTION
  2
ENTITIES
  0
DIMENSION
  5
20
  8
TEAM-MAS
  2
*D6
 10
196.437759
 20
0.0
 30
-10.0
 11
196.437759
 21
255.0
 31
-10.0
 12
-12000.0
 22
-20000.0
 32
-10.0
 13
39.0
 23
510.0
 33
0.0
 14
0.0
 24
0.0
 34
0.0
 50
90.0
1001
ACAD
1000
DSTYLE
1002
{
1070
    40
1040
1.0
1002
}
  0
DIMENSION
  5
2F
  8
TEAM-MAS
  2
*D5
 10
334.271997
 20
850.0
 30
10.0
 11
334.271997
 21
680.0
 31
-10.0
 12
-12000.0
 22
-20000.0
 32
-10.0
 13
39.0
 23
510.0
 33
0.0
 14
308.348522
 24
850.0
 34
10.0
 50
90.0
1001
ACAD
1000
DSTYLE
1002
{
1070
    40
1040
1.0
1002
}
  0
DIMENSION
  5
3D
  8
TEAM-MAS
  2
*D1
 10
243.181136
 20
0.0
 30
10.0
 11
243.181136
 21
300.0
 31
-10.0
 12
-12000.0
 22
-20000.0
 32
-10.0
 13
59.0
 23
600.0
 33
0.0
 14
8.680289
 24
0.0
 34
10.0
 50
90.0
1001
ACAD
1000
DSTYLE
1002
{
1070
    40
1040
1.0
1002
}
  0
DIMENSION
  5
4B
  8
TEAM-MAS
  2
*D0
 10
40.0
 20
408.824829
 30
10.0
 11
115.716095
 21
408.824829
 31
-20.0
 12
-12000.0
 22
-20000.0
 32
-20.0
 70
   128
  1
<>-120
 13
-40.0
 23
572.0
 33
0.0
 14
40.0
 24
572.0
 34
0.0
1001
ACAD
1000
DSTYLE
1002
{
1070
    40
1040
1.0
1002
}
  0
LINE
  5
58
  8
TEAM-BODY
 10
220.0
 20
821.0
 30
0.0
 11
220.0
 21
850.0
 31
0.0
  0
ARC
  5
5A
  8
TEAM-BODY
 10
-37.637755
 20
927.362141
 30
0.0
 40
274.086425
 50
316.750354
 51
331.837378
  0
ARC
  5
5B
  8
TEAM-BODY
 10
-61.594503
 20
863.65684
 30
0.0
 40
273.589584
 50
346.114465
 51
351.030107
  0
LINE
  5
5C
  8
TEAM-BODY
 10
-35.0
 20
645.0
 30
0.0
 11
-35.0
 21
677.132479
 31
0.0
  0
LINE
  5
5D
  8
TEAM-BODY
 10
35.0
 20
645.0
 30
0.0
 11
35.0
 21
677.132479
 31
0.0
  0
LINE
  5
5E
  8
TEAM-AXE
 10
0.0
 20
625.0
 30
0.0
 11
0.0
 21
861.0
 31
0.0
  0
CIRCLE
  5
61
  8
TEAM-KAN
 10
0.0
 20
511.0
 30
0.0
 40
25.0
  0
LINE
  5
63
  8
TEAM-AXE
 10
-39.0
 20
510.0
 30
0.0
 11
39.0
 21
510.0
 31
0.0
  0
LINE
  5
64
  8
TEAM-AXE
 10
0.0
 20
476.06599
 30
0.0
 11
0.0
 21
543.088201
 31
0.0
  0
LINE
  5
65
  8
TEAM-BODY
 10
-35.0
 20
645.0
 30
0.0
 11
35.0
 21
645.0
 31
0.0
  0
ARC
  5
66
  8
TEAM-BODY
 10
13.078524
 20
926.51044
 30
0.0
 40
252.848907
 50
227.112683
 51
267.035072
  0
ARC
  5
67
  8
TEAM-BODY
 10
64.594503
 20
863.65684
 30
0.0
 40
273.589584
 50
188.969893
 51
193.885535
  0
LINE
  5
68
  8
TEAM-BODY
 10
-220.0
 20
821.0
 30
0.0
 11
-220.0
 21
850.0
 31
0.0
  0
ARC
  5
69
  8
TEAM-BODY
 10
-3.368855
 20
900.346693
 30
0.0
 40
222.559913
 50
207.378158
 51
225.630932
  0
CIRCLE
  5
6A
  8
TEAM-INSP
 10
0.0
 20
0.0
 30
0.0
 40
10.0
  0
LINE
  5
6C
  8
TEAM-AXE
 10
40.0
 20
572.0
 30
0.0
 11
40.0
 21
627.0
 31
0.0
  0
LINE
  5
6D
  8
TEAM-AXE
 10
59.0
 20
600.0
 30
0.0
 11
15.0
 21
600.0
 31
0.0
  0
CIRCLE
  5
6E
  8
TEAM-COLD
 10
40.0
 20
599.0
 30
0.0
 40
10.0
  0
LINE
  5
70
  8
TEAM-AXE
 10
-40.0
 20
572.0
 30
0.0
 11
-40.0
 21
627.0
 31
0.0
  0
LINE
  5
71
  8
TEAM-AXE
 10
-13.0
 20
600.0
 30
0.0
 11
-62.0
 21
600.0
 31
0.0
  0
CIRCLE
  5
72
  8
TEAM-WARM
 10
-40.0
 20
599.0
 30
0.0
 40
10.0
  0
LINE
  5
74
  8
TEAM-BODY
 10
220.0
 20
850.0
 30
0.0
 11
-220.0
 21
850.0
 31
0.0
  0
LINE
  5
75
  8
TEAM-BODY
 10
-239.0
 20
821.0
 30
0.0
 11
242.0
 21
821.0
 31
0.0
  0
TEXT
  5
76
  8
TEAM-TXT
 10
-108.558051
 20
771.151065
 30
0.0
 40
30.0
  1
team 231021
 41
0.8
 51
15.0
  7
TEAM
  0
ARC
  5
79
  8
TEAM-BODY
 10
-17.92769
 20
951.219222
 30
0.0
 40
277.798306
 50
273.70015
 51
310.3678
  0
DIMENSION
  5
7A
  8
TEAM-MAS
  2
*D4
 10
384.66892
 20
0.0
 30
10.0
 11
384.66892
 21
425.0
 31
0.0
 12
-12000.0
 22
-20000.0
 32
0.0
 13
240.615117
 23
850.0
 33
10.0
 14
8.680289
 24
0.0
 34
10.0
 50
90.0
1001
ACAD
1000
DSTYLE
1002
{
1070
    40
1040
1.0
1002
}
  0
DIMENSION
  5
88
  8
TEAM-MAS
  2
*D3
 10
289.45014
 20
850.0
 30
10.0
 11
289.45014
 21
747.5
 31
0.0
 12
-12000.0
 22
-20000.0
 32
0.0
 13
35.0
 23
645.0
 33
10.0
 14
230.615117
 24
850.0
 34
10.0
 50
90.0
1001
ACAD
1000
DSTYLE
1002
{
1070
    40
1040
1.0
1002
}
  0
DIMENSION
  5
96
  8
TEAM-MAS
  2
*D2
 10
-255.531181
 20
821.0
 30
10.0
 11
-296.531181
 21
835.5
 31
0.0
 12
-12000.0
 22
-20000.0
 32
0.0
  1
30
 13
-221.0
 23
850.0
 33
10.0
 14
-209.0
 24
821.0
 34
10.0
 50
90.0
1001
ACAD
1000
DSTYLE
1002
{
1070
    40
1040
1.0
1002
}
  0
ENDSEC
  0
EOF
