  0
SECTION
  2
HEADER
  9
$ACADVER
  1
AC1009
  9
$INSBASE
 10
0.0
 20
0.0
 30
0.0
  9
$EXTMIN
 10
-335.951862
 20
-494.370661
 30
0.0
  9
$EXTMAX
 10
409.095801
 20
40.019611
 30
0.0
  9
$LIMMIN
 10
-335.951862
 20
-494.370661
  9
$LIMMAX
 10
409.095801
 20
40.019611
  9
$ORTHOMODE
 70
     1
  9
$REGENMODE
 70
     1
  9
$FILLMODE
 70
     1
  9
$QTEXTMODE
 70
     0
  9
$MIRRTEXT
 70
     0
  9
$DRAGMODE
 70
     2
  9
$LTSCALE
 40
25.0
  9
$OSMODE
 70
     0
  9
$ATTMODE
 70
     1
  9
$TEXTSIZE
 40
200.0
  9
$TRACEWID
 40
1.0
  9
$TEXTSTYLE
  7
STANDARD
  9
$CLAYER
  8
TEAM-MAS
  9
$CELTYPE
  6
BYLAYER
  9
$CECOLOR
 62
   256
  9
$DIMSCALE
 40
0.0
  9
$DIMASZ
 40
20.0
  9
$DIMEXO
 40
10.0
  9
$DIMDLI
 40
1.0
  9
$DIMRND
 40
0.0
  9
$DIMDLE
 40
0.0
  9
$DIMEXE
 40
1.0
  9
$DIMTP
 40
0.0
  9
$DIMTM
 40
0.0
  9
$DIMTXT
 40
35.0
  9
$DIMCEN
 40
1.0
  9
$DIMTSZ
 40
0.0
  9
$DIMTOL
 70
     0
  9
$DIMLIM
 70
     0
  9
$DIMTIH
 70
     0
  9
$DIMTOH
 70
     0
  9
$DIMSE1
 70
     0
  9
$DIMSE2
 70
     0
  9
$DIMTAD
 70
     0
  9
$DIMZIN
 70
     0
  9
$DIMBLK
  1

  9
$DIMASO
 70
     1
  9
$DIMSHO
 70
     0
  9
$DIMPOST
  1

  9
$DIMAPOST
  1

  9
$DIMALT
 70
     0
  9
$DIMALTD
 70
     2
  9
$DIMALTF
 40
25.4
  9
$DIMLFAC
 40
1.0
  9
$DIMTOFL
 70
     0
  9
$DIMTVP
 40
0.0
  9
$DIMTIX
 70
     0
  9
$DIMSOXD
 70
     0
  9
$DIMSAH
 70
     0
  9
$DIMBLK1
  1

  9
$DIMBLK2
  1

  9
$DIMSTYLE
  2
TEAM
  9
$DIMCLRD
 70
     9
  9
$DIMCLRE
 70
     9
  9
$DIMCLRT
 70
    11
  9
$DIMTFAC
 40
1.0
  9
$DIMGAP
 40
15.0
  9
$LUNITS
 70
     2
  9
$LUPREC
 70
     1
  9
$SKETCHINC
 40
1.0
  9
$FILLETRAD
 40
50.0
  9
$AUNITS
 70
     0
  9
$AUPREC
 70
     0
  9
$MENU
  1
ROPLANS
  9
$ELEVATION
 40
0.0
  9
$PELEVATION
 40
0.0
  9
$THICKNESS
 40
0.0
  9
$LIMCHECK
 70
     0
  9
$BLIPMODE
 70
     1
  9
$CHAMFERA
 40
0.0
  9
$CHAMFERB
 40
0.0
  9
$SKPOLY
 70
     0
  9
$TDCREATE
 40
2450392.957851
  9
$TDUPDATE
 40
2455523.639254
  9
$TDINDWG
 40
2.095041
  9
$TDUSRTIMER
 40
2.095041
  9
$USRTIMER
 70
     1
  9
$ANGBASE
 50
0.0
  9
$ANGDIR
 70
     0
  9
$PDMODE
 70
     0
  9
$PDSIZE
 40
0.0
  9
$PLINEWID
 40
0.0
  9
$COORDS
 70
     2
  9
$SPLFRAME
 70
     0
  9
$SPLINETYPE
 70
     6
  9
$SPLINESEGS
 70
     8
  9
$ATTDIA
 70
     0
  9
$ATTREQ
 70
     0
  9
$HANDLING
 70
     1
  9
$HANDSEED
  5
F6
  9
$SURFTAB1
 70
    24
  9
$SURFTAB2
 70
    24
  9
$SURFTYPE
 70
     6
  9
$SURFU
 70
     6
  9
$SURFV
 70
     6
  9
$UCSNAME
  2

  9
$UCSORG
 10
0.0
 20
0.0
 30
0.0
  9
$UCSXDIR
 10
1.0
 20
0.0
 30
0.0
  9
$UCSYDIR
 10
0.0
 20
1.0
 30
0.0
  9
$PUCSNAME
  2

  9
$PUCSORG
 10
0.0
 20
0.0
 30
0.0
  9
$PUCSXDIR
 10
1.0
 20
0.0
 30
0.0
  9
$PUCSYDIR
 10
0.0
 20
1.0
 30
0.0
  9
$USERI1
 70
     0
  9
$USERI2
 70
     0
  9
$USERI3
 70
     0
  9
$USERI4
 70
     0
  9
$USERI5
 70
     0
  9
$USERR1
 40
0.0
  9
$USERR2
 40
0.0
  9
$USERR3
 40
0.0
  9
$USERR4
 40
0.0
  9
$USERR5
 40
0.0
  9
$WORLDVIEW
 70
     1
  9
$SHADEDGE
 70
     0
  9
$SHADEDIF
 70
    70
  9
$TILEMODE
 70
     1
  9
$MAXACTVP
 70
    16
  9
$PLIMCHECK
 70
     0
  9
$PEXTMIN
 10
-0.805942
 20
0.005011
 30
0.0
  9
$PEXTMAX
 10
20.392854
 20
13.725274
 30
0.0
  9
$PLIMMIN
 10
0.0
 20
0.0
  9
$PLIMMAX
 10
12.0
 20
9.0
  9
$UNITMODE
 70
     0
  9
$VISRETAIN
 70
     0
  9
$PLINEGEN
 70
     0
  9
$PSLTSCALE
 70
     0
  0
ENDSEC
  0
SECTION
  2
TABLES
  0
TABLE
  2
VPORT
 70
     2
  0
VPORT
  2
*ACTIVE
 70
     0
 10
0.0
 20
0.0
 11
1.0
 21
1.0
 12
36.57197
 22
-227.175525
 13
0.0
 23
0.0
 14
1.0
 24
1.0
 15
50.0
 25
50.0
 16
0.0
 26
0.0
 36
1.0
 17
0.0
 27
0.0
 37
0.0
 40
537.672096
 41
1.865779
 42
50.0
 43
0.0
 44
0.0
 50
0.0
 51
0.0
 71
     0
 72
   100
 73
     1
 74
     1
 75
     0
 76
     0
 77
     0
 78
     0
  0
ENDTAB
  0
TABLE
  2
LTYPE
 70
     2
  0
LTYPE
  2
CONTINUOUS
 70
     0
  3
Solid Line
 72
    65
 73
     0
 40
0.0
  0
LTYPE
  2
31
 70
     0
  3

 72
    65
 73
     4
 40
2.1
 49
1.5
 49
-0.3
 49
0.0
 49
-0.3
  0
ENDTAB
  0
TABLE
  2
LAYER
 70
     8
  0
LAYER
  2
0
 70
     0
 62
     7
  6
CONTINUOUS
  0
LAYER
  2
DEFPOINTS
 70
     0
 62
     7
  6
CONTINUOUS
  0
LAYER
  2
TEAM-BODY
 70
     0
 62
     2
  6
CONTINUOUS
  0
LAYER
  2
TEAM-AXE
 70
     0
 62
    10
  6
31
  0
LAYER
  2
TEAM-MAS
 70
     0
 62
     9
  6
CONTINUOUS
  0
LAYER
  2
TEAM-TXT
 70
     0
 62
    11
  6
CONTINUOUS
  0
LAYER
  2
TEAM-DET1
 70
     0
 62
     4
  6
CONTINUOUS
  0
LAYER
  2
TEAM-INSP
 70
     0
 62
     5
  6
CONTINUOUS
  0
ENDTAB
  0
TABLE
  2
STYLE
 70
     2
  0
STYLE
  2
STANDARD
 70
     0
 40
0.0
 41
1.0
 50
0.0
 71
     0
 42
200.0
  3
txt
  4

  0
STYLE
  2
TEAM
 70
     0
 40
0.0
 41
0.8
 50
15.0
 71
     0
 42
7.0
  3
ROMANS.shx
  4

  0
ENDTAB
  0
TABLE
  2
VIEW
 70
     0
  0
ENDTAB
  0
TABLE
  2
UCS
 70
     0
  0
ENDTAB
  0
TABLE
  2
APPID
 70
     1
  0
APPID
  2
ACAD
 70
     0
  0
ENDTAB
  0
TABLE
  2
DIMSTYLE
 70
     1
  0
DIMSTYLE
  2
TEAM
 70
     0
  3

  4

  5

  6

  7

 40
0.0
 41
20.0
 42
10.0
 43
1.0
 44
1.0
 45
0.0
 46
0.0
 47
0.0
 48
0.0
140
35.0
141
1.0
142
0.0
143
25.4
144
1.0
145
0.0
146
1.0
147
15.0
 71
     0
 72
     0
 73
     0
 74
     0
 75
     0
 76
     0
 77
     0
 78
     0
170
     0
171
     2
172
     0
173
     0
174
     0
175
     0
176
     9
177
     9
178
    11
  0
ENDTAB
  0
ENDSEC
  0
SECTION
  2
BLOCKS
  0
BLOCK
  8
0
  2
$MODEL_SPACE
 70
     0
 10
0.0
 20
0.0
 30
0.0
  3
$MODEL_SPACE
  1

  0
ENDBLK
  5
EF
  8
0
  0
BLOCK
 67
     1
  8
0
  2
$PAPER_SPACE
 70
     0
 10
0.0
 20
0.0
 30
0.0
  3
$PAPER_SPACE
  1

  0
ENDBLK
  5
ED
 67
     1
  8
0
  0
BLOCK
  8
0
  2
*D0
 70
     1
 10
0.0
 20
0.0
 30
0.0
  3
*D0
  1

  0
LINE
  5
5C
  8
0
  6
BYBLOCK
 62
     9
 10
7757.5
 20
84000.0
 30
0.0
 11
7678.884219
 21
84000.0
 31
0.0
  0
LINE
  5
5D
  8
0
  6
BYBLOCK
 62
     9
 10
7950.0
 20
83910.0
 30
0.0
 11
7678.884219
 21
83910.0
 31
0.0
  0
LINE
  5
5E
  8
0
  6
BYBLOCK
 62
     9
 10
7679.884219
 20
84020.0
 30
0.0
 11
7679.884219
 21
84040.0
 31
0.0
  0
LINE
  5
5F
  8
0
  6
BYBLOCK
 62
     9
 10
7679.884219
 20
83890.0
 30
0.0
 11
7679.884219
 21
83870.0
 31
0.0
  0
SOLID
  5
60
  8
0
  6
BYBLOCK
 62
     9
 10
7676.550886
 20
84020.0
 30
0.0
 11
7683.217552
 21
84020.0
 31
0.0
 12
7679.884219
 22
84000.0
 32
0.0
 13
7679.884219
 23
84000.0
 33
0.0
  0
SOLID
  5
61
  8
0
  6
BYBLOCK
 62
     9
 10
7676.550886
 20
83890.0
 30
0.0
 11
7683.217552
 21
83890.0
 31
0.0
 12
7679.884219
 22
83910.0
 32
0.0
 13
7679.884219
 23
83910.0
 33
0.0
  0
TEXT
  5
62
  8
0
  6
BYBLOCK
 62
    11
 10
7697.384219
 20
83928.75
 30
0.0
 40
35.0
  1
90
 50
90.0
  0
POINT
  5
63
  8
DEFPOINTS
  6
BYBLOCK
 62
     0
 10
7767.5
 20
84000.0
 30
0.0
  0
POINT
  5
64
  8
DEFPOINTS
  6
BYBLOCK
 62
     0
 10
7960.0
 20
83910.0
 30
0.0
  0
POINT
  5
65
  8
DEFPOINTS
  6
BYBLOCK
 62
     0
 10
7679.884219
 20
83910.0
 30
0.0
  0
ENDBLK
  5
67
  8
0
  0
BLOCK
  8
0
  2
*D1
 70
     1
 10
0.0
 20
0.0
 30
0.0
  3
*D1
  1

  0
LINE
  5
42
  8
0
  6
BYBLOCK
 62
     9
 10
7757.5
 20
83665.0
 30
0.0
 11
7757.5
 21
83581.148595
 31
0.0
  0
LINE
  5
43
  8
0
  6
BYBLOCK
 62
     9
 10
8242.5
 20
83665.0
 30
0.0
 11
8242.5
 21
83581.148595
 31
0.0
  0
LINE
  5
44
  8
0
  6
BYBLOCK
 62
     9
 10
7777.5
 20
83582.148595
 30
0.0
 11
7938.333333
 21
83582.148595
 31
0.0
  0
LINE
  5
45
  8
0
  6
BYBLOCK
 62
     9
 10
8222.5
 20
83582.148595
 30
0.0
 11
8061.666667
 21
83582.148595
 31
0.0
  0
SOLID
  5
46
  8
0
  6
BYBLOCK
 62
     9
 10
7777.5
 20
83585.481928
 30
0.0
 11
7777.5
 21
83578.815261
 31
0.0
 12
7757.5
 22
83582.148595
 32
0.0
 13
7757.5
 23
83582.148595
 33
0.0
  0
SOLID
  5
47
  8
0
  6
BYBLOCK
 62
     9
 10
8222.5
 20
83585.481928
 30
0.0
 11
8222.5
 21
83578.815261
 31
0.0
 12
8242.5
 22
83582.148595
 32
0.0
 13
8242.5
 23
83582.148595
 33
0.0
  0
TEXT
  5
48
  8
0
  6
BYBLOCK
 62
    11
 10
7953.333333
 20
83564.648595
 30
0.0
 40
35.0
  1
485
  0
POINT
  5
49
  8
DEFPOINTS
  6
BYBLOCK
 62
     0
 10
7757.5
 20
83675.0
 30
0.0
  0
POINT
  5
4A
  8
DEFPOINTS
  6
BYBLOCK
 62
     0
 10
8242.5
 20
83675.0
 30
0.0
  0
POINT
  5
4B
  8
DEFPOINTS
  6
BYBLOCK
 62
     0
 10
8242.5
 20
83582.148595
 30
0.0
  0
ENDBLK
  5
4D
  8
0
  0
BLOCK
  8
0
  2
*D2
 70
     1
 10
0.0
 20
0.0
 30
0.0
  3
*D2
  1

  0
LINE
  5
34
  8
0
  6
BYBLOCK
 62
     9
 10
7737.5
 20
83665.0
 30
0.0
 11
7737.5
 21
83521.843154
 31
0.0
  0
LINE
  5
35
  8
0
  6
BYBLOCK
 62
     9
 10
8262.5
 20
83665.0
 30
0.0
 11
8262.5
 21
83521.843154
 31
0.0
  0
LINE
  5
36
  8
0
  6
BYBLOCK
 62
     9
 10
7757.5
 20
83522.843154
 30
0.0
 11
7938.333333
 21
83522.843154
 31
0.0
  0
LINE
  5
37
  8
0
  6
BYBLOCK
 62
     9
 10
8242.5
 20
83522.843154
 30
0.0
 11
8061.666667
 21
83522.843154
 31
0.0
  0
SOLID
  5
38
  8
0
  6
BYBLOCK
 62
     9
 10
7757.5
 20
83526.176487
 30
0.0
 11
7757.5
 21
83519.50982
 31
0.0
 12
7737.5
 22
83522.843154
 32
0.0
 13
7737.5
 23
83522.843154
 33
0.0
  0
SOLID
  5
39
  8
0
  6
BYBLOCK
 62
     9
 10
8242.5
 20
83526.176487
 30
0.0
 11
8242.5
 21
83519.50982
 31
0.0
 12
8262.5
 22
83522.843154
 32
0.0
 13
8262.5
 23
83522.843154
 33
0.0
  0
TEXT
  5
3A
  8
0
  6
BYBLOCK
 62
    11
 10
7953.333333
 20
83505.343154
 30
0.0
 40
35.0
  1
525
  0
POINT
  5
3B
  8
DEFPOINTS
  6
BYBLOCK
 62
     0
 10
7737.5
 20
83675.0
 30
0.0
  0
POINT
  5
3C
  8
DEFPOINTS
  6
BYBLOCK
 62
     0
 10
8262.5
 20
83675.0
 30
0.0
  0
POINT
  5
3D
  8
DEFPOINTS
  6
BYBLOCK
 62
     0
 10
8262.5
 20
83522.843154
 30
0.0
  0
ENDBLK
  5
3F
  8
0
  0
BLOCK
  8
0
  2
*D3
 70
     1
 10
0.0
 20
0.0
 30
0.0
  3
*D3
  1

  0
LINE
  5
22
  8
0
  6
BYBLOCK
 62
     9
 10
8242.5
 20
83645.0
 30
0.0
 11
8392.894429
 21
83645.0
 31
0.0
  0
LINE
  5
23
  8
0
  6
BYBLOCK
 62
     9
 10
8010.0
 20
84000.0
 30
0.0
 11
8392.894429
 21
84000.0
 31
0.0
  0
LINE
  5
24
  8
0
  6
BYBLOCK
 62
     9
 10
8391.894429
 20
83665.0
 30
0.0
 11
8391.894429
 21
83760.833333
 31
0.0
  0
LINE
  5
25
  8
0
  6
BYBLOCK
 62
     9
 10
8391.894429
 20
83980.0
 30
0.0
 11
8391.894429
 21
83884.166667
 31
0.0
  0
SOLID
  5
26
  8
0
  6
BYBLOCK
 62
     9
 10
8388.561095
 20
83665.0
 30
0.0
 11
8395.227762
 21
83665.0
 31
0.0
 12
8391.894429
 22
83645.0
 32
0.0
 13
8391.894429
 23
83645.0
 33
0.0
  0
SOLID
  5
27
  8
0
  6
BYBLOCK
 62
     9
 10
8388.561095
 20
83980.0
 30
0.0
 11
8395.227762
 21
83980.0
 31
0.0
 12
8391.894429
 22
84000.0
 32
0.0
 13
8391.894429
 23
84000.0
 33
0.0
  0
TEXT
  5
28
  8
0
  6
BYBLOCK
 62
    11
 10
8409.394429
 20
83775.833333
 30
0.0
 40
35.0
  1
355
 50
90.0
  0
POINT
  5
29
  8
DEFPOINTS
  6
BYBLOCK
 62
     0
 10
8232.5
 20
83645.0
 30
0.0
  0
POINT
  5
2B
  8
DEFPOINTS
  6
BYBLOCK
 62
     0
 10
8000.0
 20
84000.0
 30
0.0
  0
POINT
  5
2C
  8
DEFPOINTS
  6
BYBLOCK
 62
     0
 10
8391.894429
 20
84000.0
 30
0.0
  0
ENDBLK
  5
2E
  8
0
  0
BLOCK
  8
0
  2
*D4
 70
     1
 10
0.0
 20
0.0
 30
0.0
  3
*D4
  1

  0
LINE
  5
75
  8
0
  6
BYBLOCK
 62
     9
 10
8242.5
 20
83980.0
 30
0.0
 11
8327.160154
 21
83980.0
 31
0.0
  0
LINE
  5
76
  8
0
  6
BYBLOCK
 62
     9
 10
8242.5
 20
83665.0
 30
0.0
 11
8327.160154
 21
83665.0
 31
0.0
  0
LINE
  5
77
  8
0
  6
BYBLOCK
 62
     9
 10
8326.160154
 20
83960.0
 30
0.0
 11
8326.160154
 21
83875.833333
 31
0.0
  0
LINE
  5
78
  8
0
  6
BYBLOCK
 62
     9
 10
8326.160154
 20
83685.0
 30
0.0
 11
8326.160154
 21
83764.166667
 31
0.0
  0
TEXT
  5
79
  8
0
  6
BYBLOCK
 62
    11
 10
8343.660154
 20
83779.166667
 30
0.0
 40
35.0
  1
315
 50
90.0
  0
SOLID
  5
7A
  8
0
  6
BYBLOCK
 62
     9
 10
8322.826821
 20
83960.0
 30
0.0
 11
8329.493488
 21
83960.0
 31
0.0
 12
8326.160154
 22
83980.0
 32
0.0
 13
8326.160154
 23
83980.0
 33
0.0
  0
SOLID
  5
7B
  8
0
  6
BYBLOCK
 62
     9
 10
8322.826821
 20
83685.0
 30
0.0
 11
8329.493488
 21
83685.0
 31
0.0
 12
8326.160154
 22
83665.0
 32
0.0
 13
8326.160154
 23
83665.0
 33
0.0
  0
POINT
  5
7C
  8
DEFPOINTS
  6
BYBLOCK
 62
     0
 10
8232.5
 20
83980.0
 30
0.0
  0
POINT
  5
7D
  8
DEFPOINTS
  6
BYBLOCK
 62
     0
 10
8232.5
 20
83665.0
 30
0.0
  0
POINT
  5
7E
  8
DEFPOINTS
  6
BYBLOCK
 62
     0
 10
8326.160154
 20
83665.0
 30
0.0
  0
ENDBLK
  5
80
  8
0
  0
ENDSEC
  0
SECTION
  2
ENTITIES
  0
DIMENSION
  5
20
  8
TEAM-MAS
  2
*D3
 10
391.894429
 20
0.0
 30
0.0
 11
391.894429
 21
-177.5
 31
0.0
 12
-8000.0
 22
-84000.0
 32
0.0
 13
232.5
 23
-355.0
 33
0.0
 14
0.0
 24
0.0
 34
0.0
 50
90.0
1001
ACAD
1000
DSTYLE
1002
{
1070
    40
1040
1.0
1002
}
  0
TEXT
  5
2F
  8
TEAM-TXT
 10
-186.254015
 20
-249.542078
 30
0.0
 40
30.0
  1
team 231025
 41
0.8
 51
15.0
  7
TEAM
  0
DIMENSION
  5
32
  8
TEAM-MAS
  2
*D2
 10
262.5
 20
-477.156846
 30
0.0
 11
0.0
 21
-477.156846
 31
0.0
 12
-8000.0
 22
-84000.0
 32
0.0
 13
-262.5
 23
-325.0
 33
0.0
 14
262.5
 24
-325.0
 34
0.0
1001
ACAD
1000
DSTYLE
1002
{
1070
    40
1040
1.0
1002
}
  0
DIMENSION
  5
40
  8
TEAM-MAS
  2
*D1
 10
242.5
 20
-417.851405
 30
0.0
 11
0.0
 21
-417.851405
 31
0.0
 12
-8000.0
 22
-84000.0
 32
0.0
 13
-242.5
 23
-325.0
 33
0.0
 14
242.5
 24
-325.0
 34
0.0
1001
ACAD
1000
DSTYLE
1002
{
1070
    40
1040
1.0
1002
}
  0
LINE
  5
4E
  8
TEAM-BODY
 10
-232.5
 20
-335.0
 30
0.0
 11
232.5
 21
-335.0
 31
0.0
  0
LINE
  5
50
  8
TEAM-BODY
 10
-232.5
 20
-355.0
 30
0.0
 11
232.5
 21
-355.0
 31
0.0
  0
LINE
  5
51
  8
TEAM-BODY
 10
232.5
 20
-20.0
 30
0.0
 11
-232.5
 21
-20.0
 31
0.0
  0
LINE
  5
52
  8
TEAM-BODY
 10
232.5
 20
0.0
 30
0.0
 11
-232.5
 21
0.0
 31
0.0
  0
LINE
  5
53
  8
TEAM-BODY
 10
-242.5
 20
-30.0
 30
0.0
 11
-242.5
 21
-325.0
 31
0.0
  0
LINE
  5
54
  8
TEAM-BODY
 10
-262.5
 20
-30.0
 30
0.0
 11
-262.5
 21
-325.0
 31
0.0
  0
LINE
  5
55
  8
TEAM-BODY
 10
-30.0
 20
-360.0
 30
0.0
 11
-35.0
 21
-355.0
 31
0.0
  0
LINE
  5
56
  8
TEAM-BODY
 10
30.0
 20
-360.0
 30
0.0
 11
35.0
 21
-355.0
 31
0.0
  0
LINE
  5
57
  8
TEAM-BODY
 10
-30.0
 20
-360.0
 30
0.0
 11
30.0
 21
-360.0
 31
0.0
  0
ARC
  5
58
  8
TEAM-BODY
 10
-232.5
 20
-325.0
 30
0.0
 40
10.0
 50
180.0
 51
270.0
  0
ARC
  5
59
  8
TEAM-BODY
 10
-232.5
 20
-325.0
 30
0.0
 40
30.0
 50
180.0
 51
270.0
  0
DIMENSION
  5
5A
  8
TEAM-MAS
  2
*D0
 10
-320.115781
 20
-90.0
 30
0.0
 11
-320.115781
 21
-45.0
 31
0.0
 12
-8000.0
 22
-84000.0
 32
0.0
 13
-232.5
 23
0.0
 33
0.0
 14
-40.0
 24
-90.0
 34
0.0
 50
90.0
1001
ACAD
1000
DSTYLE
1002
{
1070
    40
1040
1.0
1002
}
  0
ARC
  5
68
  8
TEAM-BODY
 10
-232.5
 20
-30.0
 30
0.0
 40
10.0
 50
90.0
 51
180.0
  0
ARC
  5
69
  8
TEAM-BODY
 10
-232.5
 20
-30.0
 30
0.0
 40
30.0
 50
90.0
 51
180.0
  0
CIRCLE
  5
6A
  8
TEAM-INSP
 10
0.0
 20
0.0
 30
0.0
 40
10.0
  0
CIRCLE
  5
6C
  8
TEAM-DET1
 10
0.0
 20
-90.0
 30
0.0
 40
30.0
  0
LINE
  5
6E
  8
TEAM-AXE
 10
-40.0
 20
-90.0
 30
0.0
 11
40.0
 21
-90.0
 31
0.0
  0
LINE
  5
71
  8
TEAM-AXE
 10
0.0
 20
-130.0
 30
0.0
 11
0.0
 21
-50.0
 31
0.0
  0
CIRCLE
  5
72
  8
TEAM-BODY
 10
0.0
 20
-90.0
 30
0.0
 40
20.0
  0
DIMENSION
  5
73
  8
TEAM-MAS
  2
*D4
 10
326.160154
 20
-335.0
 30
0.0
 11
326.160154
 21
-180.0
 31
0.0
 12
-8000.0
 22
-84000.0
 32
0.0
 70
   128
 13
232.5
 23
-20.0
 33
0.0
 14
232.5
 24
-335.0
 34
0.0
 50
90.0
1001
ACAD
1000
DSTYLE
1002
{
1070
    40
1040
1.0
1002
}
  0
LINE
  5
81
  8
TEAM-BODY
 10
242.5
 20
-325.0
 30
0.0
 11
242.5
 21
-30.0
 31
0.0
  0
LINE
  5
82
  8
TEAM-BODY
 10
262.5
 20
-325.0
 30
0.0
 11
262.5
 21
-30.0
 31
0.0
  0
ARC
  5
83
  8
TEAM-BODY
 10
232.5
 20
-325.0
 30
0.0
 40
10.0
 50
270.0
 51
0.0
  0
ARC
  5
84
  8
TEAM-BODY
 10
232.5
 20
-325.0
 30
0.0
 40
30.0
 50
270.0
 51
0.0
  0
ARC
  5
85
  8
TEAM-BODY
 10
232.5
 20
-30.0
 30
0.0
 40
10.0
 50
0.0
 51
90.0
  0
ARC
  5
86
  8
TEAM-BODY
 10
232.5
 20
-30.0
 30
0.0
 40
30.0
 50
0.0
 51
90.0
  0
ENDSEC
  0
EOF
