  0
SECTION
  2
HEADER
  9
$ACADVER
  1
AC1009
  9
$INSBASE
 10
0.0
 20
0.0
 30
0.0
  9
$EXTMIN
 10
-262.539224
 20
-10.039409
 30
-20.001464
  9
$EXTMAX
 10
602.275011
 20
924.498162
 30
20.002605
  9
$LIMMIN
 10
-262.539224
 20
-10.039409
  9
$LIMMAX
 10
602.275011
 20
924.498162
  9
$ORTHOMODE
 70
     1
  9
$REGENMODE
 70
     1
  9
$FILLMODE
 70
     1
  9
$QTEXTMODE
 70
     0
  9
$MIRRTEXT
 70
     0
  9
$DRAGMODE
 70
     2
  9
$LTSCALE
 40
25.0
  9
$OSMODE
 70
     0
  9
$ATTMODE
 70
     1
  9
$TEXTSIZE
 40
200.0
  9
$TRACEWID
 40
1.0
  9
$TEXTSTYLE
  7
STANDARD
  9
$CLAYER
  8
TEAM-MAS
  9
$CELTYPE
  6
BYLAYER
  9
$CECOLOR
 62
   256
  9
$DIMSCALE
 40
0.0
  9
$DIMASZ
 40
20.0
  9
$DIMEXO
 40
10.0
  9
$DIMDLI
 40
1.0
  9
$DIMRND
 40
0.0
  9
$DIMDLE
 40
0.0
  9
$DIMEXE
 40
1.0
  9
$DIMTP
 40
0.0
  9
$DIMTM
 40
0.0
  9
$DIMTXT
 40
35.0
  9
$DIMCEN
 40
1.0
  9
$DIMTSZ
 40
0.0
  9
$DIMTOL
 70
     0
  9
$DIMLIM
 70
     0
  9
$DIMTIH
 70
     0
  9
$DIMTOH
 70
     0
  9
$DIMSE1
 70
     0
  9
$DIMSE2
 70
     0
  9
$DIMTAD
 70
     0
  9
$DIMZIN
 70
     0
  9
$DIMBLK
  1

  9
$DIMASO
 70
     1
  9
$DIMSHO
 70
     0
  9
$DIMPOST
  1

  9
$DIMAPOST
  1

  9
$DIMALT
 70
     0
  9
$DIMALTD
 70
     2
  9
$DIMALTF
 40
25.4
  9
$DIMLFAC
 40
1.0
  9
$DIMTOFL
 70
     0
  9
$DIMTVP
 40
0.0
  9
$DIMTIX
 70
     0
  9
$DIMSOXD
 70
     0
  9
$DIMSAH
 70
     0
  9
$DIMBLK1
  1

  9
$DIMBLK2
  1

  9
$DIMSTYLE
  2
TEAM
  9
$DIMCLRD
 70
     9
  9
$DIMCLRE
 70
     9
  9
$DIMCLRT
 70
    11
  9
$DIMTFAC
 40
1.0
  9
$DIMGAP
 40
15.0
  9
$LUNITS
 70
     2
  9
$LUPREC
 70
     1
  9
$SKETCHINC
 40
1.0
  9
$FILLETRAD
 40
50.0
  9
$AUNITS
 70
     0
  9
$AUPREC
 70
     0
  9
$MENU
  1
ROPLANS
  9
$ELEVATION
 40
0.0
  9
$PELEVATION
 40
0.0
  9
$THICKNESS
 40
0.0
  9
$LIMCHECK
 70
     0
  9
$BLIPMODE
 70
     1
  9
$CHAMFERA
 40
0.0
  9
$CHAMFERB
 40
0.0
  9
$SKPOLY
 70
     0
  9
$TDCREATE
 40
2450392.957851
  9
$TDUPDATE
 40
2455523.639254
  9
$TDINDWG
 40
2.095041
  9
$TDUSRTIMER
 40
2.095041
  9
$USRTIMER
 70
     1
  9
$ANGBASE
 50
0.0
  9
$ANGDIR
 70
     0
  9
$PDMODE
 70
     0
  9
$PDSIZE
 40
0.0
  9
$PLINEWID
 40
0.0
  9
$COORDS
 70
     2
  9
$SPLFRAME
 70
     0
  9
$SPLINETYPE
 70
     6
  9
$SPLINESEGS
 70
     8
  9
$ATTDIA
 70
     0
  9
$ATTREQ
 70
     0
  9
$HANDLING
 70
     1
  9
$HANDSEED
  5
146
  9
$SURFTAB1
 70
    24
  9
$SURFTAB2
 70
    24
  9
$SURFTYPE
 70
     6
  9
$SURFU
 70
     6
  9
$SURFV
 70
     6
  9
$UCSNAME
  2

  9
$UCSORG
 10
0.0
 20
0.0
 30
0.0
  9
$UCSXDIR
 10
1.0
 20
0.0
 30
0.0
  9
$UCSYDIR
 10
0.0
 20
1.0
 30
0.0
  9
$PUCSNAME
  2

  9
$PUCSORG
 10
0.0
 20
0.0
 30
0.0
  9
$PUCSXDIR
 10
1.0
 20
0.0
 30
0.0
  9
$PUCSYDIR
 10
0.0
 20
1.0
 30
0.0
  9
$USERI1
 70
     0
  9
$USERI2
 70
     0
  9
$USERI3
 70
     0
  9
$USERI4
 70
     0
  9
$USERI5
 70
     0
  9
$USERR1
 40
0.0
  9
$USERR2
 40
0.0
  9
$USERR3
 40
0.0
  9
$USERR4
 40
0.0
  9
$USERR5
 40
0.0
  9
$WORLDVIEW
 70
     1
  9
$SHADEDGE
 70
     0
  9
$SHADEDIF
 70
    70
  9
$TILEMODE
 70
     1
  9
$MAXACTVP
 70
    16
  9
$PLIMCHECK
 70
     0
  9
$PEXTMIN
 10
-0.805942
 20
0.005011
 30
0.0
  9
$PEXTMAX
 10
20.392854
 20
13.725274
 30
0.0
  9
$PLIMMIN
 10
0.0
 20
0.0
  9
$PLIMMAX
 10
12.0
 20
9.0
  9
$UNITMODE
 70
     0
  9
$VISRETAIN
 70
     0
  9
$PLINEGEN
 70
     0
  9
$PSLTSCALE
 70
     0
  0
ENDSEC
  0
SECTION
  2
TABLES
  0
TABLE
  2
VPORT
 70
     2
  0
VPORT
  2
*ACTIVE
 70
     0
 10
0.0
 20
0.0
 11
1.0
 21
1.0
 12
169.867893
 22
457.229376
 13
0.0
 23
0.0
 14
1.0
 24
1.0
 15
50.0
 25
50.0
 16
0.0
 26
0.0
 36
1.0
 17
0.0
 27
0.0
 37
0.0
 40
940.276799
 41
1.865779
 42
50.0
 43
0.0
 44
0.0
 50
0.0
 51
0.0
 71
     0
 72
   100
 73
     1
 74
     1
 75
     0
 76
     0
 77
     0
 78
     0
  0
ENDTAB
  0
TABLE
  2
LTYPE
 70
     2
  0
LTYPE
  2
CONTINUOUS
 70
     0
  3
Solid Line
 72
    65
 73
     0
 40
0.0
  0
LTYPE
  2
31
 70
     0
  3

 72
    65
 73
     4
 40
2.1
 49
1.5
 49
-0.3
 49
0.0
 49
-0.3
  0
ENDTAB
  0
TABLE
  2
LAYER
 70
    10
  0
LAYER
  2
0
 70
     0
 62
     7
  6
CONTINUOUS
  0
LAYER
  2
DEFPOINTS
 70
     0
 62
     7
  6
CONTINUOUS
  0
LAYER
  2
TEAM-BODY
 70
     0
 62
     2
  6
CONTINUOUS
  0
LAYER
  2
TEAM-AXE
 70
     0
 62
    10
  6
31
  0
LAYER
  2
TEAM-MAS
 70
     0
 62
     9
  6
CONTINUOUS
  0
LAYER
  2
TEAM-TXT
 70
     0
 62
    11
  6
CONTINUOUS
  0
LAYER
  2
TEAM-COLD
 70
     0
 62
     3
  6
CONTINUOUS
  0
LAYER
  2
TEAM-KAN
 70
     0
 62
     6
  6
CONTINUOUS
  0
LAYER
  2
TEAM-WARM
 70
     0
 62
     1
  6
CONTINUOUS
  0
LAYER
  2
TEAM-INSP
 70
     0
 62
     5
  6
CONTINUOUS
  0
ENDTAB
  0
TABLE
  2
STYLE
 70
     2
  0
STYLE
  2
STANDARD
 70
     0
 40
0.0
 41
1.0
 50
0.0
 71
     0
 42
200.0
  3
txt
  4

  0
STYLE
  2
TEAM
 70
     0
 40
0.0
 41
0.8
 50
15.0
 71
     0
 42
7.0
  3
ROMANS.shx
  4

  0
ENDTAB
  0
TABLE
  2
VIEW
 70
     0
  0
ENDTAB
  0
TABLE
  2
UCS
 70
     0
  0
ENDTAB
  0
TABLE
  2
APPID
 70
     1
  0
APPID
  2
ACAD
 70
     0
  0
ENDTAB
  0
TABLE
  2
DIMSTYLE
 70
     1
  0
DIMSTYLE
  2
TEAM
 70
     0
  3

  4

  5

  6

  7

 40
0.0
 41
20.0
 42
10.0
 43
1.0
 44
1.0
 45
0.0
 46
0.0
 47
0.0
 48
0.0
140
35.0
141
1.0
142
0.0
143
25.4
144
1.0
145
0.0
146
1.0
147
15.0
 71
     0
 72
     0
 73
     0
 74
     0
 75
     0
 76
     0
 77
     0
 78
     0
170
     0
171
     2
172
     0
173
     0
174
     0
175
     0
176
     9
177
     9
178
    11
  0
ENDTAB
  0
ENDSEC
  0
SECTION
  2
BLOCKS
  0
BLOCK
  8
0
  2
$MODEL_SPACE
 70
     0
 10
0.0
 20
0.0
 30
0.0
  3
$MODEL_SPACE
  1

  0
ENDBLK
  5
13F
  8
0
  0
BLOCK
 67
     1
  8
0
  2
$PAPER_SPACE
 70
     0
 10
0.0
 20
0.0
 30
0.0
  3
$PAPER_SPACE
  1

  0
ENDBLK
  5
13D
 67
     1
  8
0
  0
BLOCK
  8
0
  2
*D0
 70
     1
 10
0.0
 20
0.0
 30
0.0
  3
*D0
  1

  0
LINE
  5
5B
  8
0
  6
BYBLOCK
 62
     9
 10
12094.949874
 20
84600.0
 30
0.0
 11
12473.441448
 21
84600.0
 31
0.0
  0
LINE
  5
5C
  8
0
  6
BYBLOCK
 62
     9
 10
12010.0
 20
84000.0
 30
0.0
 11
12473.441448
 21
84000.0
 31
0.0
  0
LINE
  5
5D
  8
0
  6
BYBLOCK
 62
     9
 10
12472.441448
 20
84580.0
 30
0.0
 11
12472.441448
 21
84355.833333
 31
0.0
  0
LINE
  5
5E
  8
0
  6
BYBLOCK
 62
     9
 10
12472.441448
 20
84020.0
 30
0.0
 11
12472.441448
 21
84244.166667
 31
0.0
  0
SOLID
  5
5F
  8
0
  6
BYBLOCK
 62
     9
 10
12469.108114
 20
84580.0
 30
0.0
 11
12475.774781
 21
84580.0
 31
0.0
 12
12472.441448
 22
84600.0
 32
0.0
 13
12472.441448
 23
84600.0
 33
0.0
  0
SOLID
  5
60
  8
0
  6
BYBLOCK
 62
     9
 10
12469.108114
 20
84020.0
 30
0.0
 11
12475.774781
 21
84020.0
 31
0.0
 12
12472.441448
 22
84000.0
 32
0.0
 13
12472.441448
 23
84000.0
 33
0.0
  0
TEXT
  5
61
  8
0
  6
BYBLOCK
 62
    11
 10
12489.941448
 20
84259.166667
 30
0.0
 40
35.0
  1
600
 50
90.0
  0
POINT
  5
62
  8
DEFPOINTS
  6
BYBLOCK
 62
     0
 10
12084.949874
 20
84600.0
 30
0.0
  0
POINT
  5
63
  8
DEFPOINTS
  6
BYBLOCK
 62
     0
 10
12000.0
 20
84000.0
 30
0.0
  0
POINT
  5
64
  8
DEFPOINTS
  6
BYBLOCK
 62
     0
 10
12472.441448
 20
84000.0
 30
20.0
  0
ENDBLK
  5
66
  8
0
  0
BLOCK
  8
0
  2
*D1
 70
     1
 10
0.0
 20
0.0
 30
0.0
  3
*D1
  1

  0
LINE
  5
4D
  8
0
  6
BYBLOCK
 62
     9
 10
12010.0
 20
84850.0
 30
0.0
 11
12414.983236
 21
84850.0
 31
0.0
  0
LINE
  5
4E
  8
0
  6
BYBLOCK
 62
     9
 10
12045.0
 20
84690.0
 30
0.0
 11
12414.983236
 21
84690.0
 31
0.0
  0
LINE
  5
4F
  8
0
  6
BYBLOCK
 62
     9
 10
12413.983236
 20
84870.0
 30
0.0
 11
12413.983236
 21
84890.0
 31
0.0
  0
LINE
  5
50
  8
0
  6
BYBLOCK
 62
     9
 10
12413.983236
 20
84670.0
 30
0.0
 11
12413.983236
 21
84650.0
 31
0.0
  0
SOLID
  5
51
  8
0
  6
BYBLOCK
 62
     9
 10
12410.649903
 20
84870.0
 30
0.0
 11
12417.316569
 21
84870.0
 31
0.0
 12
12413.983236
 22
84850.0
 32
0.0
 13
12413.983236
 23
84850.0
 33
0.0
  0
SOLID
  5
52
  8
0
  6
BYBLOCK
 62
     9
 10
12410.649903
 20
84670.0
 30
0.0
 11
12417.316569
 21
84670.0
 31
0.0
 12
12413.983236
 22
84690.0
 32
0.0
 13
12413.983236
 23
84690.0
 33
0.0
  0
TEXT
  5
53
  8
0
  6
BYBLOCK
 62
    11
 10
12431.483236
 20
84732.083333
 30
0.0
 40
35.0
  1
160
 50
90.0
  0
POINT
  5
54
  8
DEFPOINTS
  6
BYBLOCK
 62
     0
 10
12000.0
 20
84850.0
 30
0.0
  0
POINT
  5
55
  8
DEFPOINTS
  6
BYBLOCK
 62
     0
 10
12035.0
 20
84690.0
 30
0.0
  0
POINT
  5
56
  8
DEFPOINTS
  6
BYBLOCK
 62
     0
 10
12413.983236
 20
84690.0
 30
10.0
  0
ENDBLK
  5
58
  8
0
  0
BLOCK
  8
0
  2
*D2
 70
     1
 10
0.0
 20
0.0
 30
0.0
  3
*D2
  1

  0
LINE
  5
B9
  8
0
  6
BYBLOCK
 62
     9
 10
12094.949874
 20
84600.0
 30
0.0
 11
12473.441448
 21
84600.0
 31
0.0
  0
LINE
  5
BA
  8
0
  6
BYBLOCK
 62
     9
 10
12010.0
 20
84850.0
 30
0.0
 11
12473.441448
 21
84850.0
 31
0.0
  0
LINE
  5
BB
  8
0
  6
BYBLOCK
 62
     9
 10
12472.441448
 20
84620.0
 30
0.0
 11
12472.441448
 21
84666.25
 31
0.0
  0
LINE
  5
BC
  8
0
  6
BYBLOCK
 62
     9
 10
12472.441448
 20
84830.0
 30
0.0
 11
12472.441448
 21
84783.75
 31
0.0
  0
SOLID
  5
BD
  8
0
  6
BYBLOCK
 62
     9
 10
12469.108114
 20
84620.0
 30
0.0
 11
12475.774781
 21
84620.0
 31
0.0
 12
12472.441448
 22
84600.0
 32
0.0
 13
12472.441448
 23
84600.0
 33
0.0
  0
SOLID
  5
BE
  8
0
  6
BYBLOCK
 62
     9
 10
12469.108114
 20
84830.0
 30
0.0
 11
12475.774781
 21
84830.0
 31
0.0
 12
12472.441448
 22
84850.0
 32
0.0
 13
12472.441448
 23
84850.0
 33
0.0
  0
TEXT
  5
BF
  8
0
  6
BYBLOCK
 62
    11
 10
12489.941448
 20
84681.25
 30
0.0
 40
35.0
  1
250
 50
90.0
  0
POINT
  5
C0
  8
DEFPOINTS
  6
BYBLOCK
 62
     0
 10
12084.949874
 20
84600.0
 30
0.0
  0
POINT
  5
C1
  8
DEFPOINTS
  6
BYBLOCK
 62
     0
 10
12000.0
 20
84850.0
 30
0.0
  0
POINT
  5
C2
  8
DEFPOINTS
  6
BYBLOCK
 62
     0
 10
12472.441448
 20
84850.0
 30
0.0
  0
ENDBLK
  5
C4
  8
0
  0
BLOCK
  8
0
  2
*D3
 70
     1
 10
0.0
 20
0.0
 30
0.0
  3
*D3
  1

  0
LINE
  5
AB
  8
0
  6
BYBLOCK
 62
     9
 10
11737.5
 20
84860.0
 30
0.0
 11
11737.5
 21
84907.967187
 31
0.0
  0
LINE
  5
AC
  8
0
  6
BYBLOCK
 62
     9
 10
12262.5
 20
84860.0
 30
0.0
 11
12262.5
 21
84907.967187
 31
0.0
  0
LINE
  5
AD
  8
0
  6
BYBLOCK
 62
     9
 10
11757.5
 20
84906.967187
 30
0.0
 11
11938.333333
 21
84906.967187
 31
0.0
  0
LINE
  5
AE
  8
0
  6
BYBLOCK
 62
     9
 10
12242.5
 20
84906.967187
 30
0.0
 11
12061.666667
 21
84906.967187
 31
0.0
  0
SOLID
  5
AF
  8
0
  6
BYBLOCK
 62
     9
 10
11757.5
 20
84910.300521
 30
0.0
 11
11757.5
 21
84903.633854
 31
0.0
 12
11737.5
 22
84906.967187
 32
0.0
 13
11737.5
 23
84906.967187
 33
0.0
  0
SOLID
  5
B0
  8
0
  6
BYBLOCK
 62
     9
 10
12242.5
 20
84910.300521
 30
0.0
 11
12242.5
 21
84903.633854
 31
0.0
 12
12262.5
 22
84906.967187
 32
0.0
 13
12262.5
 23
84906.967187
 33
0.0
  0
TEXT
  5
B1
  8
0
  6
BYBLOCK
 62
    11
 10
11953.333333
 20
84889.467187
 30
0.0
 40
35.0
  1
525
  0
POINT
  5
B2
  8
DEFPOINTS
  6
BYBLOCK
 62
     0
 10
11737.5
 20
84850.0
 30
0.0
  0
POINT
  5
B3
  8
DEFPOINTS
  6
BYBLOCK
 62
     0
 10
12262.5
 20
84850.0
 30
0.0
  0
POINT
  5
B4
  8
DEFPOINTS
  6
BYBLOCK
 62
     0
 10
12262.5
 20
84906.967187
 30
0.0
  0
ENDBLK
  5
B6
  8
0
  0
BLOCK
  8
0
  2
*D4
 70
     1
 10
0.0
 20
0.0
 30
0.0
  3
*D4
  1

  0
LINE
  5
3F
  8
0
  6
BYBLOCK
 62
     9
 10
12010.0
 20
84850.0
 30
0.0
 11
12532.577243
 21
84850.0
 31
0.0
  0
LINE
  5
40
  8
0
  6
BYBLOCK
 62
     9
 10
12030.0
 20
84585.0
 30
0.0
 11
12532.577243
 21
84585.0
 31
0.0
  0
LINE
  5
41
  8
0
  6
BYBLOCK
 62
     9
 10
12531.577243
 20
84830.0
 30
0.0
 11
12531.577243
 21
84779.166667
 31
0.0
  0
LINE
  5
42
  8
0
  6
BYBLOCK
 62
     9
 10
12531.577243
 20
84605.0
 30
0.0
 11
12531.577243
 21
84655.833333
 31
0.0
  0
SOLID
  5
43
  8
0
  6
BYBLOCK
 62
     9
 10
12528.24391
 20
84830.0
 30
0.0
 11
12534.910577
 21
84830.0
 31
0.0
 12
12531.577243
 22
84850.0
 32
0.0
 13
12531.577243
 23
84850.0
 33
0.0
  0
SOLID
  5
44
  8
0
  6
BYBLOCK
 62
     9
 10
12528.24391
 20
84605.0
 30
0.0
 11
12534.910577
 21
84605.0
 31
0.0
 12
12531.577243
 22
84585.0
 32
0.0
 13
12531.577243
 23
84585.0
 33
0.0
  0
TEXT
  5
45
  8
0
  6
BYBLOCK
 62
    11
 10
12549.077243
 20
84670.833333
 30
0.0
 40
35.0
  1
265
 50
90.0
  0
POINT
  5
46
  8
DEFPOINTS
  6
BYBLOCK
 62
     0
 10
12000.0
 20
84850.0
 30
10.0
  0
POINT
  5
47
  8
DEFPOINTS
  6
BYBLOCK
 62
     0
 10
12020.0
 20
84585.0
 30
10.0
  0
POINT
  5
48
  8
DEFPOINTS
  6
BYBLOCK
 62
     0
 10
12531.577243
 20
84585.0
 30
20.0
  0
ENDBLK
  5
4A
  8
0
  0
BLOCK
  8
0
  2
*D5
 70
     1
 10
0.0
 20
0.0
 30
0.0
  3
*D5
  1

  0
LINE
  5
69
  8
0
  6
BYBLOCK
 62
     9
 10
12030.0
 20
84585.0
 30
0.0
 11
12532.577243
 21
84585.0
 31
0.0
  0
LINE
  5
6A
  8
0
  6
BYBLOCK
 62
     9
 10
12010.0
 20
84000.0
 30
0.0
 11
12532.577243
 21
84000.0
 31
0.0
  0
LINE
  5
6B
  8
0
  6
BYBLOCK
 62
     9
 10
12531.577243
 20
84565.0
 30
0.0
 11
12531.577243
 21
84354.166667
 31
0.0
  0
LINE
  5
6C
  8
0
  6
BYBLOCK
 62
     9
 10
12531.577243
 20
84020.0
 30
0.0
 11
12531.577243
 21
84230.833333
 31
0.0
  0
SOLID
  5
6D
  8
0
  6
BYBLOCK
 62
     9
 10
12528.24391
 20
84565.0
 30
0.0
 11
12534.910577
 21
84565.0
 31
0.0
 12
12531.577243
 22
84585.0
 32
0.0
 13
12531.577243
 23
84585.0
 33
0.0
  0
SOLID
  5
6E
  8
0
  6
BYBLOCK
 62
     9
 10
12528.24391
 20
84020.0
 30
0.0
 11
12534.910577
 21
84020.0
 31
0.0
 12
12531.577243
 22
84000.0
 32
0.0
 13
12531.577243
 23
84000.0
 33
0.0
  0
TEXT
  5
6F
  8
0
  6
BYBLOCK
 62
    11
 10
12549.077243
 20
84245.833333
 30
0.0
 40
35.0
  1
585
 50
90.0
  0
POINT
  5
70
  8
DEFPOINTS
  6
BYBLOCK
 62
     0
 10
12020.0
 20
84585.0
 30
10.0
  0
POINT
  5
71
  8
DEFPOINTS
  6
BYBLOCK
 62
     0
 10
12000.0
 20
84000.0
 30
10.0
  0
POINT
  5
72
  8
DEFPOINTS
  6
BYBLOCK
 62
     0
 10
12531.577243
 20
84000.0
 30
10.0
  0
ENDBLK
  5
74
  8
0
  0
BLOCK
  8
0
  2
*D6
 70
     1
 10
0.0
 20
0.0
 30
0.0
  3
*D6
  1

  0
LINE
  5
31
  8
0
  6
BYBLOCK
 62
     9
 10
12010.0
 20
84850.0
 30
0.0
 11
12586.052479
 21
84850.0
 31
0.0
  0
LINE
  5
32
  8
0
  6
BYBLOCK
 62
     9
 10
12010.0
 20
84000.0
 30
0.0
 11
12586.052479
 21
84000.0
 31
0.0
  0
LINE
  5
33
  8
0
  6
BYBLOCK
 62
     9
 10
12585.052479
 20
84830.0
 30
0.0
 11
12585.052479
 21
84483.75
 31
0.0
  0
LINE
  5
34
  8
0
  6
BYBLOCK
 62
     9
 10
12585.052479
 20
84020.0
 30
0.0
 11
12585.052479
 21
84366.25
 31
0.0
  0
SOLID
  5
35
  8
0
  6
BYBLOCK
 62
     9
 10
12581.719146
 20
84830.0
 30
0.0
 11
12588.385812
 21
84830.0
 31
0.0
 12
12585.052479
 22
84850.0
 32
0.0
 13
12585.052479
 23
84850.0
 33
0.0
  0
SOLID
  5
36
  8
0
  6
BYBLOCK
 62
     9
 10
12581.719146
 20
84020.0
 30
0.0
 11
12588.385812
 21
84020.0
 31
0.0
 12
12585.052479
 22
84000.0
 32
0.0
 13
12585.052479
 23
84000.0
 33
0.0
  0
TEXT
  5
37
  8
0
  6
BYBLOCK
 62
    11
 10
12602.552479
 20
84381.25
 30
0.0
 40
35.0
  1
850
 50
90.0
  0
POINT
  5
38
  8
DEFPOINTS
  6
BYBLOCK
 62
     0
 10
12000.0
 20
84850.0
 30
0.0
  0
POINT
  5
39
  8
DEFPOINTS
  6
BYBLOCK
 62
     0
 10
12000.0
 20
84000.0
 30
0.0
  0
POINT
  5
3A
  8
DEFPOINTS
  6
BYBLOCK
 62
     0
 10
12585.052479
 20
84000.0
 30
10.0
  0
ENDBLK
  5
3C
  8
0
  0
BLOCK
  8
0
  2
*D7
 70
     1
 10
0.0
 20
0.0
 30
0.0
  3
*D7
  1

  0
LINE
  5
22
  8
0
  6
BYBLOCK
 62
     9
 10
11925.0
 20
84589.783522
 30
0.0
 11
11925.0
 21
84393.761843
 31
0.0
  0
LINE
  5
23
  8
0
  6
BYBLOCK
 62
     9
 10
12075.0
 20
84590.0
 30
0.0
 11
12075.0
 21
84393.761843
 31
0.0
  0
LINE
  5
24
  8
0
  6
BYBLOCK
 62
     9
 10
11945.0
 20
84394.761843
 30
0.0
 11
11960.0
 21
84394.761843
 31
0.0
  0
LINE
  5
25
  8
0
  6
BYBLOCK
 62
     9
 10
12055.0
 20
84394.761843
 30
0.0
 11
12040.0
 21
84394.761843
 31
0.0
  0
TEXT
  5
26
  8
0
  6
BYBLOCK
 62
    11
 10
11962.083333
 20
84377.261843
 30
0.0
 40
35.0
  1
150
  0
SOLID
  5
27
  8
0
  6
BYBLOCK
 62
     9
 10
11945.0
 20
84398.095176
 30
0.0
 11
11945.0
 21
84391.428509
 31
0.0
 12
11925.0
 22
84394.761843
 32
0.0
 13
11925.0
 23
84394.761843
 33
0.0
  0
SOLID
  5
28
  8
0
  6
BYBLOCK
 62
     9
 10
12055.0
 20
84398.095176
 30
0.0
 11
12055.0
 21
84391.428509
 31
0.0
 12
12075.0
 22
84394.761843
 32
0.0
 13
12075.0
 23
84394.761843
 33
0.0
  0
POINT
  5
29
  8
DEFPOINTS
  6
BYBLOCK
 62
     0
 10
11925.0
 20
84599.783522
 30
20.0
  0
POINT
  5
2B
  8
DEFPOINTS
  6
BYBLOCK
 62
     0
 10
12075.0
 20
84600.0
 30
20.0
  0
POINT
  5
2C
  8
DEFPOINTS
  6
BYBLOCK
 62
     0
 10
12075.0
 20
84394.761843
 30
30.0
  0
ENDBLK
  5
2E
  8
0
  0
BLOCK
  8
0
  2
*D8
 70
     1
 10
0.0
 20
0.0
 30
0.0
  3
*D8
  1

  0
LINE
  5
77
  8
0
  6
BYBLOCK
 62
     9
 10
12272.5
 20
84850.0
 30
0.0
 11
12350.84338
 21
84850.0
 31
0.0
  0
LINE
  5
78
  8
0
  6
BYBLOCK
 62
     9
 10
12272.5
 20
84815.0
 30
0.0
 11
12350.84338
 21
84815.0
 31
0.0
  0
LINE
  5
79
  8
0
  6
BYBLOCK
 62
     9
 10
12349.84338
 20
84870.0
 30
0.0
 11
12349.84338
 21
84890.0
 31
0.0
  0
LINE
  5
7A
  8
0
  6
BYBLOCK
 62
     9
 10
12349.84338
 20
84795.0
 30
0.0
 11
12349.84338
 21
84775.0
 31
0.0
  0
TEXT
  5
7B
  8
0
  6
BYBLOCK
 62
    11
 10
12367.34338
 20
84732.242005
 30
0.0
 40
35.0
  1
35
 50
90.0
  0
LINE
  5
7C
  8
0
  6
BYBLOCK
 62
     9
 10
12349.84338
 20
84850.0
 30
0.0
 11
12349.84338
 21
84815.0
 31
0.0
  0
SOLID
  5
7D
  8
0
  6
BYBLOCK
 62
     9
 10
12346.510046
 20
84870.0
 30
0.0
 11
12353.176713
 21
84870.0
 31
0.0
 12
12349.84338
 22
84850.0
 32
0.0
 13
12349.84338
 23
84850.0
 33
0.0
  0
SOLID
  5
7E
  8
0
  6
BYBLOCK
 62
     9
 10
12346.510046
 20
84795.0
 30
0.0
 11
12353.176713
 21
84795.0
 31
0.0
 12
12349.84338
 22
84815.0
 32
0.0
 13
12349.84338
 23
84815.0
 33
0.0
  0
POINT
  5
7F
  8
DEFPOINTS
  6
BYBLOCK
 62
     0
 10
12262.5
 20
84850.0
 30
0.0
  0
POINT
  5
80
  8
DEFPOINTS
  6
BYBLOCK
 62
     0
 10
12262.5
 20
84815.0
 30
0.0
  0
POINT
  5
81
  8
DEFPOINTS
  6
BYBLOCK
 62
     0
 10
12349.84338
 20
84815.0
 30
0.0
  0
ENDBLK
  5
83
  8
0
  0
ENDSEC
  0
SECTION
  2
ENTITIES
  0
DIMENSION
  5
20
  8
TEAM-MAS
  2
*D7
 10
75.0
 20
394.761843
 30
10.0
 11
0.0
 21
394.761843
 31
-20.0
 12
-12000.0
 22
-84000.0
 32
-20.0
 70
   128
 13
-75.0
 23
599.783522
 33
0.0
 14
75.0
 24
600.0
 34
0.0
1001
ACAD
1000
DSTYLE
1002
{
1070
    40
1040
1.0
1002
}
  0
DIMENSION
  5
2F
  8
TEAM-MAS
  2
*D6
 10
585.052479
 20
0.0
 30
10.0
 11
585.052479
 21
425.0
 31
0.0
 12
-12000.0
 22
-84000.0
 32
0.0
 13
0.0
 23
850.0
 33
0.0
 14
0.0
 24
0.0
 34
0.0
 50
90.0
1001
ACAD
1000
DSTYLE
1002
{
1070
    40
1040
1.0
1002
}
  0
DIMENSION
  5
3D
  8
TEAM-MAS
  2
*D4
 10
531.577243
 20
585.0
 30
10.0
 11
531.577243
 21
717.5
 31
-10.0
 12
-12000.0
 22
-84000.0
 32
-10.0
 13
0.0
 23
850.0
 33
0.0
 14
20.0
 24
585.0
 34
0.0
 50
90.0
1001
ACAD
1000
DSTYLE
1002
{
1070
    40
1040
1.0
1002
}
  0
DIMENSION
  5
4B
  8
TEAM-MAS
  2
*D1
 10
413.983236
 20
690.0
 30
10.0
 11
413.983236
 21
770.0
 31
0.0
 12
-12000.0
 22
-84000.0
 32
0.0
 13
0.0
 23
850.0
 33
0.0
 14
35.0
 24
690.0
 34
0.0
 50
90.0
1001
ACAD
1000
DSTYLE
1002
{
1070
    40
1040
1.0
1002
}
  0
DIMENSION
  5
59
  8
TEAM-MAS
  2
*D0
 10
472.441448
 20
0.0
 30
20.0
 11
472.441448
 21
300.0
 31
0.0
 12
-12000.0
 22
-84000.0
 32
0.0
 13
84.949874
 23
600.0
 33
0.0
 14
0.0
 24
0.0
 34
0.0
 50
90.0
1001
ACAD
1000
DSTYLE
1002
{
1070
    40
1040
1.0
1002
}
  0
DIMENSION
  5
67
  8
TEAM-MAS
  2
*D5
 10
531.577243
 20
0.0
 30
0.0
 11
531.577243
 21
292.5
 31
-10.0
 12
-12000.0
 22
-84000.0
 32
-10.0
 13
20.0
 23
585.0
 33
0.0
 14
0.0
 24
0.0
 34
0.0
 50
90.0
1001
ACAD
1000
DSTYLE
1002
{
1070
    40
1040
1.0
1002
}
  0
DIMENSION
  5
75
  8
TEAM-MAS
  2
*D8
 10
349.84338
 20
815.0
 30
0.0
 11
349.84338
 21
761.408672
 31
0.0
 12
-12000.0
 22
-84000.0
 32
0.0
 70
   128
 13
262.5
 23
850.0
 33
0.0
 14
262.5
 24
815.0
 34
0.0
 50
90.0
1001
ACAD
1000
DSTYLE
1002
{
1070
    40
1040
1.0
1002
}
  0
LINE
  5
84
  8
TEAM-BODY
 10
262.519293
 20
850.0
 30
0.0
 11
262.5
 21
815.0
 31
0.0
  0
LINE
  5
86
  8
TEAM-BODY
 10
218.367886
 20
749.655246
 30
0.0
 11
262.519293
 21
850.0
 31
0.0
  0
ARC
  5
87
  8
TEAM-BODY
 10
208.37383
 20
750.0
 30
0.0
 40
10.0
 50
270.0
 51
358.024311
  0
LINE
  5
88
  8
TEAM-AXE
 10
75.0
 20
590.0
 30
0.0
 11
75.0
 21
610.0
 31
0.0
  0
CIRCLE
  5
8B
  8
TEAM-COLD
 10
75.0
 20
600.0
 30
0.0
 40
10.0
  0
LINE
  5
8D
  8
TEAM-AXE
 10
84.949874
 20
600.0
 30
0.0
 11
65.050126
 21
600.0
 31
0.0
  0
CIRCLE
  5
8E
  8
TEAM-INSP
 10
0.0
 20
0.0
 30
0.0
 40
10.0
  0
LINE
  5
90
  8
TEAM-BODY
 10
30.990666
 20
720.0
 30
0.0
 11
48.250314
 21
720.0
 31
0.0
  0
LINE
  5
91
  8
TEAM-BODY
 10
28.298123
 20
695.0
 30
0.0
 11
44.991891
 21
850.0
 31
0.0
  0
LINE
  5
92
  8
TEAM-BODY
 10
-28.298123
 20
695.0
 30
0.0
 11
28.298123
 21
695.0
 31
0.0
  0
LINE
  5
93
  8
TEAM-BODY
 10
-28.298123
 20
695.0
 30
0.0
 11
-44.991891
 21
850.0
 31
0.0
  0
LINE
  5
94
  8
TEAM-BODY
 10
-262.5
 20
850.0
 30
0.0
 11
-262.5
 21
815.0
 31
0.0
  0
LINE
  5
95
  8
TEAM-BODY
 10
-262.5
 20
815.0
 30
0.0
 11
-41.22233
 21
815.0
 31
0.0
  0
ARC
  5
96
  8
TEAM-BODY
 10
48.269607
 20
714.0
 30
0.0
 40
6.0
 50
90.0
 51
173.947515
  0
LINE
  5
97
  8
TEAM-BODY
 10
39.161089
 20
690.0
 30
0.0
 11
42.303052
 21
714.632637
 31
0.0
  0
LINE
  5
98
  8
TEAM-BODY
 10
-39.161089
 20
690.0
 30
0.0
 11
39.161089
 21
690.0
 31
0.0
  0
LINE
  5
99
  8
TEAM-BODY
 10
-42.303052
 20
714.632637
 30
0.0
 11
-39.161089
 21
690.0
 31
0.0
  0
ARC
  5
9A
  8
TEAM-BODY
 10
-48.269607
 20
714.0
 30
0.0
 40
6.0
 50
6.052485
 51
90.0
  0
LINE
  5
9B
  8
TEAM-BODY
 10
-208.335245
 20
740.0
 30
0.0
 11
-48.269607
 21
720.0
 31
0.0
  0
ARC
  5
9C
  8
TEAM-BODY
 10
-208.335245
 20
750.0
 30
0.0
 40
10.0
 50
181.975689
 51
270.0
  0
LINE
  5
9D
  8
TEAM-BODY
 10
-262.480707
 20
850.0
 30
0.0
 11
-218.329301
 21
749.655246
 31
0.0
  0
LINE
  5
9E
  8
TEAM-AXE
 10
0.0
 20
688.977716
 30
0.0
 11
0.0
 21
850.0
 31
0.0
  0
LINE
  5
9F
  8
TEAM-AXE
 10
-75.0
 20
589.783522
 30
0.0
 11
-75.0
 21
609.783522
 31
0.0
  0
CIRCLE
  5
A0
  8
TEAM-WARM
 10
-75.0
 20
599.783522
 30
0.0
 40
10.0
  0
LINE
  5
A2
  8
TEAM-AXE
 10
-65.050126
 20
599.783522
 30
0.0
 11
-84.949874
 21
599.783522
 31
0.0
  0
LINE
  5
A3
  8
TEAM-AXE
 10
0.0
 20
744.450347
 30
0.0
 11
0.0
 21
669.59579
 31
0.0
  0
LINE
  5
A4
  8
TEAM-BODY
 10
-48.288899
 20
720.0
 30
0.0
 11
-30.990666
 21
720.0
 31
0.0
  0
CIRCLE
  5
A5
  8
TEAM-KAN
 10
0.0
 20
585.0
 30
0.0
 40
20.0
  0
LINE
  5
A7
  8
TEAM-AXE
 10
20.0
 20
585.0
 30
0.0
 11
-20.0
 21
585.0
 31
0.0
  0
LINE
  5
A8
  8
TEAM-AXE
 10
0.0
 20
565.0
 30
0.0
 11
0.0
 21
605.0
 31
0.0
  0
DIMENSION
  5
A9
  8
TEAM-MAS
  2
*D3
 10
262.5
 20
906.967187
 30
0.0
 11
0.0
 21
906.967187
 31
0.0
 12
-12000.0
 22
-84000.0
 32
0.0
 13
-262.5
 23
850.0
 33
0.0
 14
262.5
 24
850.0
 34
0.0
1001
ACAD
1000
DSTYLE
1002
{
1070
    40
1040
1.0
1002
}
  0
DIMENSION
  5
B7
  8
TEAM-MAS
  2
*D2
 10
472.441448
 20
850.0
 30
0.0
 11
472.441448
 21
725.0
 31
0.0
 12
-12000.0
 22
-84000.0
 32
0.0
 13
84.949874
 23
600.0
 33
0.0
 14
0.0
 24
850.0
 34
0.0
 50
90.0
1001
ACAD
1000
DSTYLE
1002
{
1070
    40
1040
1.0
1002
}
  0
LINE
  5
C5
  8
TEAM-BODY
 10
41.22233
 20
815.0
 30
0.0
 11
262.5
 21
815.0
 31
0.0
  0
LINE
  5
C6
  8
TEAM-BODY
 10
48.269607
 20
720.0
 30
0.0
 11
208.37383
 21
740.0
 31
0.0
  0
LINE
  5
C7
  8
TEAM-BODY
 10
-262.5
 20
850.0
 30
0.0
 11
262.5
 21
850.0
 31
0.0
  0
TEXT
  5
C8
  8
TEAM-TXT
 10
-73.265763
 20
740.274426
 30
0.0
 40
30.0
  1
team 231025
 41
0.8
 51
15.0
  7
TEAM
  0
ENDSEC
  0
EOF
