  0
SECTION
  2
HEADER
  9
$ACADVER
  1
AC1009
  9
$INSBASE
 10
0.0
 20
0.0
 30
0.0
  9
$EXTMIN
 10
-414.452416
 20
-10.03244
 30
-0.000412
  9
$EXTMAX
 10
483.229797
 20
890.045009
 30
10.000114
  9
$LIMMIN
 10
-414.452416
 20
-10.03244
  9
$LIMMAX
 10
483.229797
 20
890.045009
  9
$ORTHOMODE
 70
     1
  9
$REGENMODE
 70
     1
  9
$FILLMODE
 70
     1
  9
$QTEXTMODE
 70
     0
  9
$MIRRTEXT
 70
     0
  9
$DRAGMODE
 70
     2
  9
$LTSCALE
 40
25.0
  9
$OSMODE
 70
     0
  9
$ATTMODE
 70
     1
  9
$TEXTSIZE
 40
200.0
  9
$TRACEWID
 40
1.0
  9
$TEXTSTYLE
  7
STANDARD
  9
$CLAYER
  8
TEAM-MAS
  9
$CELTYPE
  6
BYLAYER
  9
$CECOLOR
 62
   256
  9
$DIMSCALE
 40
1.0
  9
$DIMASZ
 40
20.0
  9
$DIMEXO
 40
10.0
  9
$DIMDLI
 40
1.0
  9
$DIMRND
 40
0.0
  9
$DIMDLE
 40
0.0
  9
$DIMEXE
 40
1.0
  9
$DIMTP
 40
0.0
  9
$DIMTM
 40
0.0
  9
$DIMTXT
 40
35.0
  9
$DIMCEN
 40
1.0
  9
$DIMTSZ
 40
0.0
  9
$DIMTOL
 70
     0
  9
$DIMLIM
 70
     0
  9
$DIMTIH
 70
     0
  9
$DIMTOH
 70
     0
  9
$DIMSE1
 70
     0
  9
$DIMSE2
 70
     0
  9
$DIMTAD
 70
     0
  9
$DIMZIN
 70
     0
  9
$DIMBLK
  1

  9
$DIMASO
 70
     1
  9
$DIMSHO
 70
     0
  9
$DIMPOST
  1

  9
$DIMAPOST
  1

  9
$DIMALT
 70
     0
  9
$DIMALTD
 70
     2
  9
$DIMALTF
 40
25.4
  9
$DIMLFAC
 40
1.0
  9
$DIMTOFL
 70
     0
  9
$DIMTVP
 40
0.0
  9
$DIMTIX
 70
     0
  9
$DIMSOXD
 70
     0
  9
$DIMSAH
 70
     0
  9
$DIMBLK1
  1

  9
$DIMBLK2
  1

  9
$DIMSTYLE
  2
TEAM
  9
$DIMCLRD
 70
     9
  9
$DIMCLRE
 70
     9
  9
$DIMCLRT
 70
    11
  9
$DIMTFAC
 40
1.0
  9
$DIMGAP
 40
15.0
  9
$LUNITS
 70
     2
  9
$LUPREC
 70
     1
  9
$SKETCHINC
 40
1.0
  9
$FILLETRAD
 40
50.0
  9
$AUNITS
 70
     0
  9
$AUPREC
 70
     0
  9
$MENU
  1
ROPLANS
  9
$ELEVATION
 40
0.0
  9
$PELEVATION
 40
0.0
  9
$THICKNESS
 40
0.0
  9
$LIMCHECK
 70
     0
  9
$BLIPMODE
 70
     1
  9
$CHAMFERA
 40
0.0
  9
$CHAMFERB
 40
0.0
  9
$SKPOLY
 70
     0
  9
$TDCREATE
 40
2450392.957851
  9
$TDUPDATE
 40
2455505.473099
  9
$TDINDWG
 40
2.023557
  9
$TDUSRTIMER
 40
2.023557
  9
$USRTIMER
 70
     1
  9
$ANGBASE
 50
0.0
  9
$ANGDIR
 70
     0
  9
$PDMODE
 70
     0
  9
$PDSIZE
 40
0.0
  9
$PLINEWID
 40
0.0
  9
$COORDS
 70
     2
  9
$SPLFRAME
 70
     0
  9
$SPLINETYPE
 70
     6
  9
$SPLINESEGS
 70
     8
  9
$ATTDIA
 70
     0
  9
$ATTREQ
 70
     0
  9
$HANDLING
 70
     1
  9
$HANDSEED
  5
1AF
  9
$SURFTAB1
 70
    24
  9
$SURFTAB2
 70
    24
  9
$SURFTYPE
 70
     6
  9
$SURFU
 70
     6
  9
$SURFV
 70
     6
  9
$UCSNAME
  2

  9
$UCSORG
 10
0.0
 20
0.0
 30
0.0
  9
$UCSXDIR
 10
1.0
 20
0.0
 30
0.0
  9
$UCSYDIR
 10
0.0
 20
1.0
 30
0.0
  9
$PUCSNAME
  2

  9
$PUCSORG
 10
0.0
 20
0.0
 30
0.0
  9
$PUCSXDIR
 10
1.0
 20
0.0
 30
0.0
  9
$PUCSYDIR
 10
0.0
 20
1.0
 30
0.0
  9
$USERI1
 70
     0
  9
$USERI2
 70
     0
  9
$USERI3
 70
     0
  9
$USERI4
 70
     0
  9
$USERI5
 70
     0
  9
$USERR1
 40
0.0
  9
$USERR2
 40
0.0
  9
$USERR3
 40
0.0
  9
$USERR4
 40
0.0
  9
$USERR5
 40
0.0
  9
$WORLDVIEW
 70
     1
  9
$SHADEDGE
 70
     0
  9
$SHADEDIF
 70
    70
  9
$TILEMODE
 70
     1
  9
$MAXACTVP
 70
    16
  9
$PLIMCHECK
 70
     0
  9
$PEXTMIN
 10
-0.805942
 20
0.005011
 30
0.0
  9
$PEXTMAX
 10
20.250094
 20
11.356329
 30
0.0
  9
$PLIMMIN
 10
0.0
 20
0.0
  9
$PLIMMAX
 10
12.0
 20
9.0
  9
$UNITMODE
 70
     0
  9
$VISRETAIN
 70
     0
  9
$PLINEGEN
 70
     0
  9
$PSLTSCALE
 70
     0
  0
ENDSEC
  0
SECTION
  2
TABLES
  0
TABLE
  2
VPORT
 70
     2
  0
VPORT
  2
*ACTIVE
 70
     0
 10
0.0
 20
0.0
 11
1.0
 21
1.0
 12
34.388691
 22
440.006285
 13
0.0
 23
0.0
 14
1.0
 24
1.0
 15
50.0
 25
50.0
 16
0.0
 26
0.0
 36
1.0
 17
0.0
 27
0.0
 37
0.0
 40
905.605049
 41
1.865779
 42
50.0
 43
0.0
 44
0.0
 50
0.0
 51
0.0
 71
     0
 72
   100
 73
     1
 74
     1
 75
     0
 76
     0
 77
     0
 78
     0
  0
ENDTAB
  0
TABLE
  2
LTYPE
 70
     3
  0
LTYPE
  2
CONTINUOUS
 70
     0
  3
Solid Line
 72
    65
 73
     0
 40
0.0
  0
LTYPE
  2
31
 70
     0
  3

 72
    65
 73
     4
 40
2.1
 49
1.5
 49
-0.3
 49
0.0
 49
-0.3
  0
LTYPE
  2
22
 70
     0
  3

 72
    65
 73
     2
 40
1.4
 49
1.2
 49
-0.2
  0
ENDTAB
  0
TABLE
  2
LAYER
 70
    12
  0
LAYER
  2
0
 70
     0
 62
     7
  6
CONTINUOUS
  0
LAYER
  2
DEFPOINTS
 70
     0
 62
     7
  6
CONTINUOUS
  0
LAYER
  2
TEAM-BODY
 70
     0
 62
     2
  6
CONTINUOUS
  0
LAYER
  2
TEAM-AXE
 70
     0
 62
    10
  6
31
  0
LAYER
  2
TEAM-MAS
 70
     0
 62
     9
  6
CONTINUOUS
  0
LAYER
  2
TEAM-TXT
 70
     0
 62
    11
  6
CONTINUOUS
  0
LAYER
  2
TEAM-DET1
 70
     0
 62
     4
  6
CONTINUOUS
  0
LAYER
  2
TEAM-COLD
 70
     0
 62
     3
  6
CONTINUOUS
  0
LAYER
  2
TEAM-HIDE
 70
     0
 62
     8
  6
22
  0
LAYER
  2
TEAM-KAN
 70
     0
 62
     6
  6
CONTINUOUS
  0
LAYER
  2
TEAM-WARM
 70
     0
 62
     1
  6
CONTINUOUS
  0
LAYER
  2
TEAM-INSP
 70
     0
 62
     5
  6
CONTINUOUS
  0
ENDTAB
  0
TABLE
  2
STYLE
 70
     2
  0
STYLE
  2
STANDARD
 70
     0
 40
0.0
 41
1.0
 50
0.0
 71
     0
 42
200.0
  3
txt
  4

  0
STYLE
  2
TEAM
 70
     0
 40
0.0
 41
0.8
 50
15.0
 71
     0
 42
7.0
  3
ROMANS.shx
  4

  0
ENDTAB
  0
TABLE
  2
VIEW
 70
     0
  0
ENDTAB
  0
TABLE
  2
UCS
 70
     0
  0
ENDTAB
  0
TABLE
  2
APPID
 70
     1
  0
APPID
  2
ACAD
 70
     0
  0
ENDTAB
  0
TABLE
  2
DIMSTYLE
 70
     1
  0
DIMSTYLE
  2
TEAM
 70
     0
  3

  4

  5

  6

  7

 40
1.0
 41
20.0
 42
10.0
 43
1.0
 44
1.0
 45
0.0
 46
0.0
 47
0.0
 48
0.0
140
35.0
141
1.0
142
0.0
143
25.4
144
1.0
145
0.0
146
1.0
147
15.0
 71
     0
 72
     0
 73
     0
 74
     0
 75
     0
 76
     0
 77
     0
 78
     0
170
     0
171
     2
172
     0
173
     0
174
     0
175
     0
176
     9
177
     9
178
    11
  0
ENDTAB
  0
ENDSEC
  0
SECTION
  2
BLOCKS
  0
BLOCK
  8
0
  2
$MODEL_SPACE
 70
     0
 10
0.0
 20
0.0
 30
0.0
  3
$MODEL_SPACE
  1

  0
ENDBLK
  5
190
  8
0
  0
BLOCK
 67
     1
  8
0
  2
$PAPER_SPACE
 70
     0
 10
0.0
 20
0.0
 30
0.0
  3
$PAPER_SPACE
  1

  0
ENDBLK
  5
18E
 67
     1
  8
0
  0
BLOCK
  8
0
  2
*D0
 70
     1
 10
0.0
 20
0.0
 30
0.0
  3
*D0
  1

  0
LINE
  5
AE
  8
0
  6
BYBLOCK
 62
     9
 10
4316.0
 20
28850.0
 30
0.0
 11
4424.303518
 21
28850.0
 31
0.0
  0
LINE
  5
AF
  8
0
  6
BYBLOCK
 62
     9
 10
4035.5
 20
28510.0
 30
0.0
 11
4424.303518
 21
28510.0
 31
0.0
  0
LINE
  5
B0
  8
0
  6
BYBLOCK
 62
     9
 10
4423.303518
 20
28830.0
 30
0.0
 11
4423.303518
 21
28728.26378
 31
0.0
  0
LINE
  5
B1
  8
0
  6
BYBLOCK
 62
     9
 10
4423.303518
 20
28530.0
 30
0.0
 11
4423.303518
 21
28631.73622
 31
0.0
  0
SOLID
  5
B2
  8
0
  6
BYBLOCK
 62
     9
 10
4419.970184
 20
28830.0
 30
0.0
 11
4426.636851
 21
28830.0
 31
0.0
 12
4423.303518
 22
28850.0
 32
0.0
 13
4423.303518
 23
28850.0
 33
0.0
  0
SOLID
  5
B3
  8
0
  6
BYBLOCK
 62
     9
 10
4419.970184
 20
28530.0
 30
0.0
 11
4426.636851
 21
28530.0
 31
0.0
 12
4423.303518
 22
28510.0
 32
0.0
 13
4423.303518
 23
28510.0
 33
0.0
  0
TEXT
  5
B4
  8
0
  6
BYBLOCK
 62
    11
 10
4440.803518
 20
28641.48622
 30
0.0
 40
35.0
  1
340
 50
90.0
  0
POINT
  5
B5
  8
DEFPOINTS
  6
BYBLOCK
 62
     0
 10
4306.0
 20
28850.0
 30
0.0
  0
POINT
  5
B6
  8
DEFPOINTS
  6
BYBLOCK
 62
     0
 10
4025.5
 20
28510.0
 30
0.0
  0
POINT
  5
B7
  8
DEFPOINTS
  6
BYBLOCK
 62
     0
 10
4423.303518
 20
28510.0
 30
0.0
  0
ENDBLK
  5
B9
  8
0
  0
BLOCK
  8
0
  2
*D1
 70
     1
 10
0.0
 20
0.0
 30
0.0
  3
*D1
  1

  0
LINE
  5
A0
  8
0
  6
BYBLOCK
 62
     9
 10
4326.0
 20
28850.0
 30
0.0
 11
4466.996916
 21
28850.0
 31
0.0
  0
LINE
  5
A1
  8
0
  6
BYBLOCK
 62
     9
 10
4021.421016
 20
28000.0
 30
0.0
 11
4466.996916
 21
28000.0
 31
0.0
  0
LINE
  5
A2
  8
0
  6
BYBLOCK
 62
     9
 10
4465.996916
 20
28830.0
 30
0.0
 11
4465.996916
 21
28471.51378
 31
0.0
  0
LINE
  5
A3
  8
0
  6
BYBLOCK
 62
     9
 10
4465.996916
 20
28020.0
 30
0.0
 11
4465.996916
 21
28378.48622
 31
0.0
  0
SOLID
  5
A4
  8
0
  6
BYBLOCK
 62
     9
 10
4462.663583
 20
28830.0
 30
0.0
 11
4469.330249
 21
28830.0
 31
0.0
 12
4465.996916
 22
28850.0
 32
0.0
 13
4465.996916
 23
28850.0
 33
0.0
  0
SOLID
  5
A5
  8
0
  6
BYBLOCK
 62
     9
 10
4462.663583
 20
28020.0
 30
0.0
 11
4469.330249
 21
28020.0
 31
0.0
 12
4465.996916
 22
28000.0
 32
0.0
 13
4465.996916
 23
28000.0
 33
0.0
  0
TEXT
  5
A6
  8
0
  6
BYBLOCK
 62
    11
 10
4483.496916
 20
28388.23622
 30
0.0
 40
35.0
  1
850
 50
90.0
  0
POINT
  5
A7
  8
DEFPOINTS
  6
BYBLOCK
 62
     0
 10
4316.0
 20
28850.0
 30
10.0
  0
POINT
  5
A8
  8
DEFPOINTS
  6
BYBLOCK
 62
     0
 10
4011.421016
 20
28000.0
 30
10.0
  0
POINT
  5
A9
  8
DEFPOINTS
  6
BYBLOCK
 62
     0
 10
4465.996916
 20
28000.0
 30
10.0
  0
ENDBLK
  5
AB
  8
0
  0
BLOCK
  8
0
  2
*D2
 70
     1
 10
0.0
 20
0.0
 30
0.0
  3
*D2
  1

  0
LINE
  5
8E
  8
0
  6
BYBLOCK
 62
     9
 10
4057.0
 20
28645.0
 30
0.0
 11
4380.450701
 21
28645.0
 31
0.0
  0
LINE
  5
8F
  8
0
  6
BYBLOCK
 62
     9
 10
4329.0
 20
28850.0
 30
0.0
 11
4380.450701
 21
28850.0
 31
0.0
  0
LINE
  5
90
  8
0
  6
BYBLOCK
 62
     9
 10
4379.450701
 20
28665.0
 30
0.0
 11
4379.450701
 21
28699.830737
 31
0.0
  0
LINE
  5
91
  8
0
  6
BYBLOCK
 62
     9
 10
4379.450701
 20
28830.0
 30
0.0
 11
4379.450701
 21
28795.169263
 31
0.0
  0
SOLID
  5
92
  8
0
  6
BYBLOCK
 62
     9
 10
4376.117368
 20
28665.0
 30
0.0
 11
4382.784034
 21
28665.0
 31
0.0
 12
4379.450701
 22
28645.0
 32
0.0
 13
4379.450701
 23
28645.0
 33
0.0
  0
SOLID
  5
93
  8
0
  6
BYBLOCK
 62
     9
 10
4376.117368
 20
28830.0
 30
0.0
 11
4382.784034
 21
28830.0
 31
0.0
 12
4379.450701
 22
28850.0
 32
0.0
 13
4379.450701
 23
28850.0
 33
0.0
  0
TEXT
  5
94
  8
0
  6
BYBLOCK
 62
    11
 10
4396.950701
 20
28710.469516
 30
0.0
 40
35.0
  1
205
 50
90.0
  0
POINT
  5
95
  8
DEFPOINTS
  6
BYBLOCK
 62
     0
 10
4047.0
 20
28645.0
 30
10.0
  0
POINT
  5
96
  8
DEFPOINTS
  6
BYBLOCK
 62
     0
 10
4319.0
 20
28850.0
 30
10.0
  0
POINT
  5
97
  8
DEFPOINTS
  6
BYBLOCK
 62
     0
 10
4379.450701
 20
28850.0
 30
10.0
  0
ENDBLK
  5
99
  8
0
  0
BLOCK
  8
0
  2
*D3
 70
     1
 10
0.0
 20
0.0
 30
0.0
  3
*D3
  1

  0
LINE
  5
7C
  8
0
  6
BYBLOCK
 62
     9
 10
3962.625408
 20
28568.438574
 30
0.0
 11
3962.625408
 21
28430.556951
 31
0.0
  0
LINE
  5
7D
  8
0
  6
BYBLOCK
 62
     9
 10
4037.324513
 20
28567.749068
 30
0.0
 11
4037.324513
 21
28430.556951
 31
0.0
  0
LINE
  5
7E
  8
0
  6
BYBLOCK
 62
     9
 10
3982.625408
 20
28431.556951
 30
0.0
 11
4017.324513
 21
28431.556951
 31
0.0
  0
TEXT
  5
7F
  8
0
  6
BYBLOCK
 62
    11
 10
4067.074513
 20
28414.056951
 30
0.0
 40
35.0
  1
80-120
  0
SOLID
  5
80
  8
0
  6
BYBLOCK
 62
     9
 10
3982.625408
 20
28434.890284
 30
0.0
 11
3982.625408
 21
28428.223617
 31
0.0
 12
3962.625408
 22
28431.556951
 32
0.0
 13
3962.625408
 23
28431.556951
 33
0.0
  0
SOLID
  5
81
  8
0
  6
BYBLOCK
 62
     9
 10
4017.324513
 20
28434.890284
 30
0.0
 11
4017.324513
 21
28428.223617
 31
0.0
 12
4037.324513
 22
28431.556951
 32
0.0
 13
4037.324513
 23
28431.556951
 33
0.0
  0
POINT
  5
82
  8
DEFPOINTS
  6
BYBLOCK
 62
     0
 10
3962.625408
 20
28578.438574
 30
10.0
  0
POINT
  5
83
  8
DEFPOINTS
  6
BYBLOCK
 62
     0
 10
4037.324513
 20
28577.749068
 30
10.0
  0
POINT
  5
84
  8
DEFPOINTS
  6
BYBLOCK
 62
     0
 10
4037.324513
 20
28431.556951
 30
10.0
  0
ENDBLK
  5
86
  8
0
  0
BLOCK
  8
0
  2
*D4
 70
     1
 10
0.0
 20
0.0
 30
0.0
  3
*D4
  1

  0
LINE
  5
6E
  8
0
  6
BYBLOCK
 62
     9
 10
4084.0
 20
28601.0
 30
0.0
 11
4381.450701
 21
28601.0
 31
0.0
  0
LINE
  5
6F
  8
0
  6
BYBLOCK
 62
     9
 10
4021.421016
 20
28000.0
 30
0.0
 11
4381.450701
 21
28000.0
 31
0.0
  0
LINE
  5
70
  8
0
  6
BYBLOCK
 62
     9
 10
4380.450701
 20
28581.0
 30
0.0
 11
4380.450701
 21
28348.061024
 31
0.0
  0
LINE
  5
71
  8
0
  6
BYBLOCK
 62
     9
 10
4380.450701
 20
28020.0
 30
0.0
 11
4380.450701
 21
28252.938976
 31
0.0
  0
SOLID
  5
72
  8
0
  6
BYBLOCK
 62
     9
 10
4377.117368
 20
28581.0
 30
0.0
 11
4383.784034
 21
28581.0
 31
0.0
 12
4380.450701
 22
28601.0
 32
0.0
 13
4380.450701
 23
28601.0
 33
0.0
  0
SOLID
  5
73
  8
0
  6
BYBLOCK
 62
     9
 10
4377.117368
 20
28020.0
 30
0.0
 11
4383.784034
 21
28020.0
 31
0.0
 12
4380.450701
 22
28000.0
 32
0.0
 13
4380.450701
 23
28000.0
 33
0.0
  0
TEXT
  5
74
  8
0
  6
BYBLOCK
 62
    11
 10
4397.950701
 20
28264.783465
 30
0.0
 40
35.0
  1
600
 50
90.0
  0
POINT
  5
75
  8
DEFPOINTS
  6
BYBLOCK
 62
     0
 10
4074.0
 20
28601.0
 30
10.0
  0
POINT
  5
76
  8
DEFPOINTS
  6
BYBLOCK
 62
     0
 10
4011.421016
 20
28000.0
 30
10.0
  0
POINT
  5
77
  8
DEFPOINTS
  6
BYBLOCK
 62
     0
 10
4380.450701
 20
28000.0
 30
10.0
  0
ENDBLK
  5
79
  8
0
  0
BLOCK
  8
0
  2
*D5
 70
     1
 10
0.0
 20
0.0
 30
0.0
  3
*D5
  1

  0
LINE
  5
5B
  8
0
  6
BYBLOCK
 62
     9
 10
4010.0
 20
28510.0
 30
0.0
 11
4341.659189
 21
28510.0
 31
0.0
  0
LINE
  5
5C
  8
0
  6
BYBLOCK
 62
     9
 10
4010.0
 20
28000.0
 30
0.0
 11
4341.659189
 21
28000.0
 31
0.0
  0
LINE
  5
5D
  8
0
  6
BYBLOCK
 62
     9
 10
4340.659189
 20
28490.0
 30
0.0
 11
4340.659189
 21
28298.01378
 31
0.0
  0
LINE
  5
5E
  8
0
  6
BYBLOCK
 62
     9
 10
4340.659189
 20
28020.0
 30
0.0
 11
4340.659189
 21
28211.98622
 31
0.0
  0
SOLID
  5
5F
  8
0
  6
BYBLOCK
 62
     9
 10
4337.325856
 20
28490.0
 30
0.0
 11
4343.992523
 21
28490.0
 31
0.0
 12
4340.659189
 22
28510.0
 32
0.0
 13
4340.659189
 23
28510.0
 33
0.0
  0
SOLID
  5
60
  8
0
  6
BYBLOCK
 62
     9
 10
4337.325856
 20
28020.0
 30
0.0
 11
4343.992523
 21
28020.0
 31
0.0
 12
4340.659189
 22
28000.0
 32
0.0
 13
4340.659189
 23
28000.0
 33
0.0
  0
TEXT
  5
61
  8
0
  6
BYBLOCK
 62
    11
 10
4358.159189
 20
28221.73622
 30
0.0
 40
35.0
  1
510
 50
90.0
  0
POINT
  5
62
  8
DEFPOINTS
  6
BYBLOCK
 62
     0
 10
4000.0
 20
28510.0
 30
0.0
  0
POINT
  5
63
  8
DEFPOINTS
  6
BYBLOCK
 62
     0
 10
4000.0
 20
28000.0
 30
0.0
  0
POINT
  5
64
  8
DEFPOINTS
  6
BYBLOCK
 62
     0
 10
4340.659189
 20
28000.0
 30
0.0
  0
ENDBLK
  5
66
  8
0
  0
BLOCK
  8
0
  2
*D6
 70
     1
 10
0.0
 20
0.0
 30
0.0
  3
*D6
  1

  0
LINE
  5
22
  8
0
  6
BYBLOCK
 62
     9
 10
3730.012491
 20
28850.0
 30
0.0
 11
3627.738354
 21
28850.0
 31
0.0
  0
LINE
  5
23
  8
0
  6
BYBLOCK
 62
     9
 10
3709.717149
 20
28821.0
 30
0.0
 11
3627.738354
 21
28821.0
 31
0.0
  0
LINE
  5
24
  8
0
  6
BYBLOCK
 62
     9
 10
3628.738354
 20
28870.0
 30
0.0
 11
3628.738354
 21
28890.0
 31
0.0
  0
LINE
  5
25
  8
0
  6
BYBLOCK
 62
     9
 10
3628.738354
 20
28801.0
 30
0.0
 11
3628.738354
 21
28781.0
 31
0.0
  0
TEXT
  5
26
  8
0
  6
BYBLOCK
 62
    11
 10
3618.827654
 20
28810.98622
 30
0.0
 40
35.0
  1
30
 50
90.0
  0
LINE
  5
27
  8
0
  6
BYBLOCK
 62
     9
 10
3628.738354
 20
28850.0
 30
0.0
 11
3628.738354
 21
28821.0
 31
0.0
  0
SOLID
  5
28
  8
0
  6
BYBLOCK
 62
     9
 10
3625.405021
 20
28870.0
 30
0.0
 11
3632.071688
 21
28870.0
 31
0.0
 12
3628.738354
 22
28850.0
 32
0.0
 13
3628.738354
 23
28850.0
 33
0.0
  0
SOLID
  5
29
  8
0
  6
BYBLOCK
 62
     9
 10
3625.405021
 20
28801.0
 30
0.0
 11
3632.071688
 21
28801.0
 31
0.0
 12
3628.738354
 22
28821.0
 32
0.0
 13
3628.738354
 23
28821.0
 33
0.0
  0
POINT
  5
2A
  8
DEFPOINTS
  6
BYBLOCK
 62
     0
 10
3740.012491
 20
28850.0
 30
10.0
  0
POINT
  5
2C
  8
DEFPOINTS
  6
BYBLOCK
 62
     0
 10
3719.717149
 20
28821.0
 30
10.0
  0
POINT
  5
2D
  8
DEFPOINTS
  6
BYBLOCK
 62
     0
 10
3628.738354
 20
28821.0
 30
10.0
  0
ENDBLK
  5
2F
  8
0
  0
ENDSEC
  0
SECTION
  2
ENTITIES
  0
DIMENSION
  5
20
  8
TEAM-MAS
  2
*D6
 10
-371.261646
 20
821.0
 30
10.0
 11
-398.672346
 21
835.5
 31
0.0
 12
-4000.0
 22
-28000.0
 32
0.0
 70
   128
  1
30
 13
-259.987509
 23
850.0
 33
10.0
 14
-280.282851
 24
821.0
 34
10.0
 50
90.0
1001
ACAD
1000
DSTYLE
1002
{
1070
    40
1040
1.0
1002
}
  0
CIRCLE
  5
30
  8
TEAM-INSP
 10
0.0
 20
0.0
 30
0.0
 40
10.0
  0
LINE
  5
32
  8
TEAM-HIDE
 10
306.0
 20
850.0
 30
0.0
 11
306.0
 21
752.0
 31
0.0
  0
LINE
  5
35
  8
TEAM-HIDE
 10
0.0
 20
850.0
 30
0.0
 11
306.0
 21
850.0
 31
0.0
  0
LINE
  5
36
  8
TEAM-AXE
 10
-307.275024
 20
850.0
 30
0.0
 11
-307.275024
 21
740.0
 31
0.0
  0
LINE
  5
39
  8
TEAM-HIDE
 10
306.0
 20
752.0
 30
0.0
 11
-306.275024
 21
752.0
 31
0.0
  0
TEXT
  5
3A
  8
TEAM-TXT
 10
-229.104811
 20
772.160852
 30
0.0
 40
30.0
  1
team 231027
 41
0.8
 51
15.0
  7
TEAM
  0
POLYLINE
  5
3D
  8
TEAM-DET1
 66
     1
 10
0.0
 20
0.0
 30
0.0
  0
VERTEX
  5
196
  8
TEAM-DET1
 10
-270.0
 20
817.0
 30
0.0
  0
VERTEX
  5
197
  8
TEAM-DET1
 10
0.0
 20
817.0
 30
0.0
  0
VERTEX
  5
198
  8
TEAM-DET1
 10
270.0
 20
817.0
 30
0.0
  0
SEQEND
  5
199
  8
TEAM-DET1
  0
LINE
  5
3F
  8
TEAM-AXE
 10
-37.5
 20
616.692294
 30
0.0
 11
-37.5
 21
611.192294
 31
0.0
  0
POINT
  5
40
  8
TEAM-AXE
 10
-37.5
 20
608.621254
 30
0.0
  0
POINT
  5
41
  8
TEAM-AXE
 10
-30.071041
 20
601.192294
 30
0.0
  0
LINE
  5
42
  8
TEAM-AXE
 10
-37.5
 20
606.192294
 30
0.0
 11
-37.5
 21
596.192294
 31
0.0
  0
POINT
  5
43
  8
TEAM-AXE
 10
-37.5
 20
593.763335
 30
0.0
  0
LINE
  5
44
  8
TEAM-AXE
 10
-37.5
 20
591.692294
 30
0.0
 11
-37.5
 21
585.692294
 31
0.0
  0
LINE
  5
45
  8
TEAM-AXE
 10
-27.5
 20
601.192294
 30
0.0
 11
-22.0
 21
601.192294
 31
0.0
  0
CIRCLE
  5
46
  8
TEAM-COLD
 10
37.5
 20
601.192294
 30
0.0
 40
12.5
  0
LINE
  5
48
  8
TEAM-AXE
 10
37.5
 20
616.692294
 30
0.0
 11
37.5
 21
611.192294
 31
0.0
  0
POINT
  5
49
  8
TEAM-AXE
 10
37.5
 20
608.621254
 30
0.0
  0
POINT
  5
4A
  8
TEAM-AXE
 10
44.928959
 20
601.192294
 30
0.0
  0
LINE
  5
4B
  8
TEAM-AXE
 10
53.0
 20
601.192294
 30
0.0
 11
47.5
 21
601.192294
 31
0.0
  0
LINE
  5
4C
  8
TEAM-AXE
 10
37.5
 20
606.192294
 30
0.0
 11
37.5
 21
596.192294
 31
0.0
  0
POINT
  5
4D
  8
TEAM-AXE
 10
37.5
 20
593.763335
 30
0.0
  0
POINT
  5
4E
  8
TEAM-AXE
 10
30.071041
 20
601.192294
 30
0.0
  0
LINE
  5
4F
  8
TEAM-AXE
 10
42.5
 20
601.192294
 30
0.0
 11
32.5
 21
601.192294
 31
0.0
  0
LINE
  5
50
  8
TEAM-AXE
 10
37.5
 20
591.692294
 30
0.0
 11
37.5
 21
585.692294
 31
0.0
  0
LINE
  5
51
  8
TEAM-AXE
 10
27.5
 20
601.192294
 30
0.0
 11
22.0
 21
601.192294
 31
0.0
  0
LINE
  5
52
  8
TEAM-AXE
 10
0.0
 20
535.5
 30
0.0
 11
0.0
 21
527.5
 31
0.0
  0
POINT
  5
53
  8
TEAM-AXE
 10
0.0
 20
524.428959
 30
0.0
  0
POINT
  5
54
  8
TEAM-AXE
 10
14.428959
 20
510.0
 30
0.0
  0
LINE
  5
55
  8
TEAM-AXE
 10
17.0
 20
510.0
 30
0.0
 11
25.5
 21
510.0
 31
0.0
  0
LINE
  5
56
  8
TEAM-AXE
 10
0.0
 20
493.0
 30
0.0
 11
0.0
 21
484.5
 31
0.0
  0
POINT
  5
57
  8
TEAM-AXE
 10
0.0
 20
495.571041
 30
0.0
  0
LINE
  5
58
  8
TEAM-AXE
 10
0.0
 20
522.0
 30
0.0
 11
0.0
 21
498.0
 31
0.0
  0
DIMENSION
  5
59
  8
TEAM-MAS
  2
*D5
 10
340.659189
 20
0.0
 30
0.0
 11
340.659189
 21
255.0
 31
0.0
 12
-4000.0
 22
-28000.0
 32
0.0
 13
0.0
 23
510.0
 33
0.0
 14
0.0
 24
0.0
 34
0.0
 50
90.0
1001
ACAD
1000
DSTYLE
1002
{
1070
    40
1040
1.0
1002
}
  0
POINT
  5
67
  8
TEAM-AXE
 10
-13.928959
 20
510.0
 30
0.0
  0
LINE
  5
68
  8
TEAM-AXE
 10
-25.5
 20
510.0
 30
0.0
 11
-16.5
 21
510.0
 31
0.0
  0
CIRCLE
  5
69
  8
TEAM-KAN
 10
0.0
 20
510.0
 30
0.0
 40
22.5
  0
LINE
  5
6B
  8
TEAM-AXE
 10
-11.5
 20
510.0
 30
0.0
 11
12.0
 21
510.0
 31
0.0
  0
DIMENSION
  5
6C
  8
TEAM-MAS
  2
*D4
 10
380.450701
 20
0.0
 30
10.0
 11
380.450701
 21
300.5
 31
0.0
 12
-4000.0
 22
-28000.0
 32
0.0
  1
600
 13
74.0
 23
601.0
 33
10.0
 14
11.421016
 24
0.0
 34
10.0
 50
90.0
1001
ACAD
1000
DSTYLE
1002
{
1070
    40
1040
1.0
1002
}
  0
DIMENSION
  5
7A
  8
TEAM-MAS
  2
*D3
 10
37.324513
 20
431.556951
 30
10.0
 11
137.088292
 21
431.556951
 31
0.0
 12
-4000.0
 22
-28000.0
 32
0.0
 70
   128
  1
80-120
 13
-37.374592
 23
578.438574
 33
10.0
 14
37.324513
 24
577.749068
 34
10.0
1001
ACAD
1000
DSTYLE
1002
{
1070
    40
1040
1.0
1002
}
  0
POINT
  5
87
  8
TEAM-AXE
 10
-44.928959
 20
601.192294
 30
0.0
  0
LINE
  5
88
  8
TEAM-AXE
 10
-53.0
 20
601.192294
 30
0.0
 11
-47.5
 21
601.192294
 31
0.0
  0
LINE
  5
89
  8
TEAM-AXE
 10
-42.5
 20
601.192294
 30
0.0
 11
-32.5
 21
601.192294
 31
0.0
  0
CIRCLE
  5
8A
  8
TEAM-WARM
 10
-37.5
 20
601.192294
 30
0.0
 40
12.5
  0
DIMENSION
  5
8C
  8
TEAM-MAS
  2
*D2
 10
379.450701
 20
850.0
 30
10.0
 11
379.450701
 21
747.5
 31
0.0
 12
-4000.0
 22
-28000.0
 32
0.0
 13
47.0
 23
645.0
 33
10.0
 14
319.0
 24
850.0
 34
10.0
 50
90.0
1001
ACAD
1000
DSTYLE
1002
{
1070
    40
1040
1.0
1002
}
  0
POLYLINE
  5
9A
  8
TEAM-BODY
 66
     1
 10
0.0
 20
0.0
 30
0.0
  0
VERTEX
  5
19A
  8
TEAM-BODY
 10
-46.302775
 20
677.705216
 30
0.0
 42
0.002482
  0
VERTEX
  5
19B
  8
TEAM-BODY
 10
-40.758263
 20
676.677377
 30
0.0
 42
-0.362894
  0
VERTEX
  5
19C
  8
TEAM-BODY
 10
-35.0
 20
669.788394
 30
0.0
  0
VERTEX
  5
19D
  8
TEAM-BODY
 10
-34.0
 20
645.670018
 30
0.0
  0
VERTEX
  5
19E
  8
TEAM-BODY
 10
34.0
 20
645.670018
 30
0.0
  0
VERTEX
  5
19F
  8
TEAM-BODY
 10
35.0
 20
669.788394
 30
0.0
 42
-0.362894
  0
VERTEX
  5
1A0
  8
TEAM-BODY
 10
40.758263
 20
676.677377
 30
0.0
 42
0.00205
  0
VERTEX
  5
1A1
  8
TEAM-BODY
 10
45.339114
 20
677.522483
 30
0.0
 42
0.00205
  0
SEQEND
  5
1A2
  8
TEAM-BODY
  0
POLYLINE
  5
9C
  8
TEAM-BODY
 66
     1
 10
0.0
 20
0.0
 30
0.0
 70
     1
  0
VERTEX
  5
1A3
  8
TEAM-BODY
 10
0.0
 20
675.0
 30
0.0
 42
0.173425
  0
VERTEX
  5
1A4
  8
TEAM-BODY
 10
206.0
 20
745.0
 30
0.0
 42
0.121016
  0
VERTEX
  5
1A5
  8
TEAM-BODY
 10
247.479667
 20
798.0
 30
0.0
 42
0.076866
  0
VERTEX
  5
1A6
  8
TEAM-BODY
 10
250.0
 20
818.0
 30
0.0
  0
VERTEX
  5
1A7
  8
TEAM-BODY
 10
250.0
 20
850.0
 30
0.0
  0
VERTEX
  5
1A8
  8
TEAM-BODY
 10
0.0
 20
850.0
 30
0.0
  0
VERTEX
  5
1A9
  8
TEAM-BODY
 10
-250.0
 20
850.0
 30
0.0
  0
VERTEX
  5
1AA
  8
TEAM-BODY
 10
-250.0
 20
818.0
 30
0.0
 42
0.076866
  0
VERTEX
  5
1AB
  8
TEAM-BODY
 10
-247.479667
 20
798.0
 30
0.0
 42
0.121016
  0
VERTEX
  5
1AC
  8
TEAM-BODY
 10
-206.0
 20
745.0
 30
0.0
 42
0.173425
  0
SEQEND
  5
1AD
  8
TEAM-BODY
  0
LINE
  5
9D
  8
TEAM-AXE
 10
0.0
 20
615.0
 30
0.0
 11
0.0
 21
861.0
 31
0.0
  0
DIMENSION
  5
9E
  8
TEAM-MAS
  2
*D1
 10
465.996916
 20
0.0
 30
10.0
 11
465.996916
 21
425.0
 31
0.0
 12
-4000.0
 22
-28000.0
 32
0.0
 13
316.0
 23
850.0
 33
10.0
 14
11.421016
 24
0.0
 34
10.0
 50
90.0
1001
ACAD
1000
DSTYLE
1002
{
1070
    40
1040
1.0
1002
}
  0
DIMENSION
  5
AC
  8
TEAM-MAS
  2
*D0
 10
423.303518
 20
510.0
 30
0.0
 11
423.303518
 21
680.0
 31
0.0
 12
-4000.0
 22
-28000.0
 32
0.0
 13
306.0
 23
850.0
 33
0.0
 14
25.5
 24
510.0
 34
0.0
 50
90.0
1001
ACAD
1000
DSTYLE
1002
{
1070
    40
1040
1.0
1002
}
  0
ENDSEC
  0
EOF
