  0
SECTION
  2
HEADER
  9
$ACADVER
  1
AC1009
  9
$INSBASE
 10
0.0
 20
0.0
 30
0.0
  9
$EXTMIN
 10
-160.071741
 20
-10.057572
 30
0.0
  9
$EXTMAX
 10
463.150275
 20
934.22622
 30
0.0
  9
$LIMMIN
 10
-160.071741
 20
-10.057572
  9
$LIMMAX
 10
463.150275
 20
934.22622
  9
$ORTHOMODE
 70
     1
  9
$REGENMODE
 70
     1
  9
$FILLMODE
 70
     1
  9
$QTEXTMODE
 70
     0
  9
$MIRRTEXT
 70
     0
  9
$DRAGMODE
 70
     2
  9
$LTSCALE
 40
25.0
  9
$OSMODE
 70
     0
  9
$ATTMODE
 70
     1
  9
$TEXTSIZE
 40
200.0
  9
$TRACEWID
 40
1.0
  9
$TEXTSTYLE
  7
STANDARD
  9
$CLAYER
  8
TEAM-MAS
  9
$CELTYPE
  6
BYLAYER
  9
$CECOLOR
 62
   256
  9
$DIMSCALE
 40
1.0
  9
$DIMASZ
 40
20.0
  9
$DIMEXO
 40
10.0
  9
$DIMDLI
 40
1.0
  9
$DIMRND
 40
0.0
  9
$DIMDLE
 40
0.0
  9
$DIMEXE
 40
1.0
  9
$DIMTP
 40
0.0
  9
$DIMTM
 40
0.0
  9
$DIMTXT
 40
35.0
  9
$DIMCEN
 40
1.0
  9
$DIMTSZ
 40
0.0
  9
$DIMTOL
 70
     0
  9
$DIMLIM
 70
     0
  9
$DIMTIH
 70
     0
  9
$DIMTOH
 70
     0
  9
$DIMSE1
 70
     0
  9
$DIMSE2
 70
     0
  9
$DIMTAD
 70
     0
  9
$DIMZIN
 70
     0
  9
$DIMBLK
  1

  9
$DIMASO
 70
     1
  9
$DIMSHO
 70
     0
  9
$DIMPOST
  1

  9
$DIMAPOST
  1

  9
$DIMALT
 70
     0
  9
$DIMALTD
 70
     2
  9
$DIMALTF
 40
25.4
  9
$DIMLFAC
 40
1.0
  9
$DIMTOFL
 70
     0
  9
$DIMTVP
 40
0.0
  9
$DIMTIX
 70
     0
  9
$DIMSOXD
 70
     0
  9
$DIMSAH
 70
     0
  9
$DIMBLK1
  1

  9
$DIMBLK2
  1

  9
$DIMSTYLE
  2
TEAM
  9
$DIMCLRD
 70
     9
  9
$DIMCLRE
 70
     9
  9
$DIMCLRT
 70
    11
  9
$DIMTFAC
 40
1.0
  9
$DIMGAP
 40
15.0
  9
$LUNITS
 70
     2
  9
$LUPREC
 70
     1
  9
$SKETCHINC
 40
1.0
  9
$FILLETRAD
 40
50.0
  9
$AUNITS
 70
     0
  9
$AUPREC
 70
     0
  9
$MENU
  1
ROPLANS
  9
$ELEVATION
 40
0.0
  9
$PELEVATION
 40
0.0
  9
$THICKNESS
 40
0.0
  9
$LIMCHECK
 70
     0
  9
$BLIPMODE
 70
     1
  9
$CHAMFERA
 40
0.0
  9
$CHAMFERB
 40
0.0
  9
$SKPOLY
 70
     0
  9
$TDCREATE
 40
2450392.957851
  9
$TDUPDATE
 40
2455505.473099
  9
$TDINDWG
 40
2.023557
  9
$TDUSRTIMER
 40
2.023557
  9
$USRTIMER
 70
     1
  9
$ANGBASE
 50
0.0
  9
$ANGDIR
 70
     0
  9
$PDMODE
 70
     0
  9
$PDSIZE
 40
0.0
  9
$PLINEWID
 40
0.0
  9
$COORDS
 70
     2
  9
$SPLFRAME
 70
     0
  9
$SPLINETYPE
 70
     6
  9
$SPLINESEGS
 70
     8
  9
$ATTDIA
 70
     0
  9
$ATTREQ
 70
     0
  9
$HANDLING
 70
     1
  9
$HANDSEED
  5
15D
  9
$SURFTAB1
 70
    24
  9
$SURFTAB2
 70
    24
  9
$SURFTYPE
 70
     6
  9
$SURFU
 70
     6
  9
$SURFV
 70
     6
  9
$UCSNAME
  2

  9
$UCSORG
 10
0.0
 20
0.0
 30
0.0
  9
$UCSXDIR
 10
1.0
 20
0.0
 30
0.0
  9
$UCSYDIR
 10
0.0
 20
1.0
 30
0.0
  9
$PUCSNAME
  2

  9
$PUCSORG
 10
0.0
 20
0.0
 30
0.0
  9
$PUCSXDIR
 10
1.0
 20
0.0
 30
0.0
  9
$PUCSYDIR
 10
0.0
 20
1.0
 30
0.0
  9
$USERI1
 70
     0
  9
$USERI2
 70
     0
  9
$USERI3
 70
     0
  9
$USERI4
 70
     0
  9
$USERI5
 70
     0
  9
$USERR1
 40
0.0
  9
$USERR2
 40
0.0
  9
$USERR3
 40
0.0
  9
$USERR4
 40
0.0
  9
$USERR5
 40
0.0
  9
$WORLDVIEW
 70
     1
  9
$SHADEDGE
 70
     0
  9
$SHADEDIF
 70
    70
  9
$TILEMODE
 70
     1
  9
$MAXACTVP
 70
    16
  9
$PLIMCHECK
 70
     0
  9
$PEXTMIN
 10
-0.805942
 20
0.005011
 30
0.0
  9
$PEXTMAX
 10
20.250094
 20
11.356329
 30
0.0
  9
$PLIMMIN
 10
0.0
 20
0.0
  9
$PLIMMAX
 10
12.0
 20
9.0
  9
$UNITMODE
 70
     0
  9
$VISRETAIN
 70
     0
  9
$PLINEGEN
 70
     0
  9
$PSLTSCALE
 70
     0
  0
ENDSEC
  0
SECTION
  2
TABLES
  0
TABLE
  2
VPORT
 70
     2
  0
VPORT
  2
*ACTIVE
 70
     0
 10
0.0
 20
0.0
 11
1.0
 21
1.0
 12
151.539267
 22
462.084324
 13
0.0
 23
0.0
 14
1.0
 24
1.0
 15
50.0
 25
50.0
 16
0.0
 26
0.0
 36
1.0
 17
0.0
 27
0.0
 37
0.0
 40
950.082873
 41
1.865779
 42
50.0
 43
0.0
 44
0.0
 50
0.0
 51
0.0
 71
     0
 72
   100
 73
     1
 74
     1
 75
     0
 76
     0
 77
     0
 78
     0
  0
ENDTAB
  0
TABLE
  2
LTYPE
 70
     2
  0
LTYPE
  2
CONTINUOUS
 70
     0
  3
Solid Line
 72
    65
 73
     0
 40
0.0
  0
LTYPE
  2
31
 70
     0
  3

 72
    65
 73
     4
 40
2.1
 49
1.5
 49
-0.3
 49
0.0
 49
-0.3
  0
ENDTAB
  0
TABLE
  2
LAYER
 70
    11
  0
LAYER
  2
0
 70
     0
 62
     7
  6
CONTINUOUS
  0
LAYER
  2
DEFPOINTS
 70
     0
 62
     7
  6
CONTINUOUS
  0
LAYER
  2
TEAM-BODY
 70
     0
 62
     2
  6
CONTINUOUS
  0
LAYER
  2
TEAM-AXE
 70
     0
 62
    10
  6
31
  0
LAYER
  2
TEAM-MAS
 70
     0
 62
     9
  6
CONTINUOUS
  0
LAYER
  2
TEAM-TXT
 70
     0
 62
    11
  6
CONTINUOUS
  0
LAYER
  2
TEAM-DET1
 70
     0
 62
     4
  6
CONTINUOUS
  0
LAYER
  2
TEAM-COLD
 70
     0
 62
     3
  6
CONTINUOUS
  0
LAYER
  2
TEAM-KAN
 70
     0
 62
     6
  6
CONTINUOUS
  0
LAYER
  2
TEAM-WARM
 70
     0
 62
     1
  6
CONTINUOUS
  0
LAYER
  2
TEAM-INSP
 70
     0
 62
     5
  6
CONTINUOUS
  0
ENDTAB
  0
TABLE
  2
STYLE
 70
     2
  0
STYLE
  2
STANDARD
 70
     0
 40
0.0
 41
1.0
 50
0.0
 71
     0
 42
200.0
  3
txt
  4

  0
STYLE
  2
TEAM
 70
     0
 40
0.0
 41
0.8
 50
15.0
 71
     0
 42
7.0
  3
ROMANS.shx
  4

  0
ENDTAB
  0
TABLE
  2
VIEW
 70
     0
  0
ENDTAB
  0
TABLE
  2
UCS
 70
     0
  0
ENDTAB
  0
TABLE
  2
APPID
 70
     1
  0
APPID
  2
ACAD
 70
     0
  0
ENDTAB
  0
TABLE
  2
DIMSTYLE
 70
     1
  0
DIMSTYLE
  2
TEAM
 70
     0
  3

  4

  5

  6

  7

 40
1.0
 41
20.0
 42
10.0
 43
1.0
 44
1.0
 45
0.0
 46
0.0
 47
0.0
 48
0.0
140
35.0
141
1.0
142
0.0
143
25.4
144
1.0
145
0.0
146
1.0
147
15.0
 71
     0
 72
     0
 73
     0
 74
     0
 75
     0
 76
     0
 77
     0
 78
     0
170
     0
171
     2
172
     0
173
     0
174
     0
175
     0
176
     9
177
     9
178
    11
  0
ENDTAB
  0
ENDSEC
  0
SECTION
  2
BLOCKS
  0
BLOCK
  8
0
  2
$MODEL_SPACE
 70
     0
 10
0.0
 20
0.0
 30
0.0
  3
$MODEL_SPACE
  1

  0
ENDBLK
  5
156
  8
0
  0
BLOCK
 67
     1
  8
0
  2
$PAPER_SPACE
 70
     0
 10
0.0
 20
0.0
 30
0.0
  3
$PAPER_SPACE
  1

  0
ENDBLK
  5
154
 67
     1
  8
0
  0
BLOCK
  8
0
  2
*D0
 70
     1
 10
0.0
 20
0.0
 30
0.0
  3
*D0
  1

  0
LINE
  5
81
  8
0
  6
BYBLOCK
 62
     9
 10
8164.155361
 20
36850.000758
 30
0.0
 11
8393.390364
 21
36850.000758
 31
0.0
  0
LINE
  5
82
  8
0
  6
BYBLOCK
 62
     9
 10
8031.249599
 20
36555.002314
 30
0.0
 11
8393.390364
 21
36555.002314
 31
0.0
  0
LINE
  5
83
  8
0
  6
BYBLOCK
 62
     9
 10
8392.390364
 20
36830.000758
 30
0.0
 11
8392.390364
 21
36750.231951
 31
0.0
  0
LINE
  5
84
  8
0
  6
BYBLOCK
 62
     9
 10
8392.390364
 20
36575.002314
 30
0.0
 11
8392.390364
 21
36654.771122
 31
0.0
  0
SOLID
  5
85
  8
0
  6
BYBLOCK
 62
     9
 10
8389.05703
 20
36830.000758
 30
0.0
 11
8395.723697
 21
36830.000758
 31
0.0
 12
8392.390364
 22
36850.000758
 32
0.0
 13
8392.390364
 23
36850.000758
 33
0.0
  0
SOLID
  5
86
  8
0
  6
BYBLOCK
 62
     9
 10
8389.05703
 20
36575.002314
 30
0.0
 11
8395.723697
 21
36575.002314
 31
0.0
 12
8392.390364
 22
36555.002314
 32
0.0
 13
8392.390364
 23
36555.002314
 33
0.0
  0
TEXT
  5
87
  8
0
  6
BYBLOCK
 62
    11
 10
8409.890364
 20
36665.409902
 30
0.0
 40
35.0
  1
295
 50
90.0
  0
POINT
  5
88
  8
DEFPOINTS
  6
BYBLOCK
 62
     0
 10
8154.155361
 20
36850.000758
 30
0.0
  0
POINT
  5
89
  8
DEFPOINTS
  6
BYBLOCK
 62
     0
 10
8021.249599
 20
36555.002314
 30
0.0
  0
POINT
  5
8A
  8
DEFPOINTS
  6
BYBLOCK
 62
     0
 10
8392.390364
 20
36555.002314
 30
0.0
  0
ENDBLK
  5
8C
  8
0
  0
BLOCK
  8
0
  2
*D1
 70
     1
 10
0.0
 20
0.0
 30
0.0
  3
*D1
  1

  0
LINE
  5
73
  8
0
  6
BYBLOCK
 62
     9
 10
8011.249593
 20
36850.000758
 30
0.0
 11
8338.826466
 21
36850.000758
 31
0.0
  0
LINE
  5
74
  8
0
  6
BYBLOCK
 62
     9
 10
8061.249599
 20
36590.002314
 30
0.0
 11
8338.826466
 21
36590.002314
 31
0.0
  0
LINE
  5
75
  8
0
  6
BYBLOCK
 62
     9
 10
8337.826466
 20
36830.000758
 30
0.0
 11
8337.826466
 21
36766.959706
 31
0.0
  0
LINE
  5
76
  8
0
  6
BYBLOCK
 62
     9
 10
8337.826466
 20
36610.002314
 30
0.0
 11
8337.826466
 21
36673.043367
 31
0.0
  0
SOLID
  5
77
  8
0
  6
BYBLOCK
 62
     9
 10
8334.493132
 20
36830.000758
 30
0.0
 11
8341.159799
 21
36830.000758
 31
0.0
 12
8337.826466
 22
36850.000758
 32
0.0
 13
8337.826466
 23
36850.000758
 33
0.0
  0
SOLID
  5
78
  8
0
  6
BYBLOCK
 62
     9
 10
8334.493132
 20
36610.002314
 30
0.0
 11
8341.159799
 21
36610.002314
 31
0.0
 12
8337.826466
 22
36590.002314
 32
0.0
 13
8337.826466
 23
36590.002314
 33
0.0
  0
TEXT
  5
79
  8
0
  6
BYBLOCK
 62
    11
 10
8355.326466
 20
36683.682147
 30
0.0
 40
35.0
  1
260
 50
90.0
  0
POINT
  5
7A
  8
DEFPOINTS
  6
BYBLOCK
 62
     0
 10
8001.249593
 20
36850.000758
 30
0.0
  0
POINT
  5
7B
  8
DEFPOINTS
  6
BYBLOCK
 62
     0
 10
8051.249599
 20
36590.002314
 30
0.0
  0
POINT
  5
7C
  8
DEFPOINTS
  6
BYBLOCK
 62
     0
 10
8337.826466
 20
36590.002314
 30
0.0
  0
ENDBLK
  5
7E
  8
0
  0
BLOCK
  8
0
  2
*D2
 70
     1
 10
0.0
 20
0.0
 30
0.0
  3
*D2
  1

  0
LINE
  5
65
  8
0
  6
BYBLOCK
 62
     9
 10
8011.249593
 20
36850.000758
 30
0.0
 11
8446.928227
 21
36850.000758
 31
0.0
  0
LINE
  5
66
  8
0
  6
BYBLOCK
 62
     9
 10
8010.0
 20
36000.0
 30
0.0
 11
8446.928227
 21
36000.0
 31
0.0
  0
LINE
  5
67
  8
0
  6
BYBLOCK
 62
     9
 10
8445.928227
 20
36830.000758
 30
0.0
 11
8445.928227
 21
36471.514159
 31
0.0
  0
LINE
  5
68
  8
0
  6
BYBLOCK
 62
     9
 10
8445.928227
 20
36020.0
 30
0.0
 11
8445.928227
 21
36378.4866
 31
0.0
  0
SOLID
  5
69
  8
0
  6
BYBLOCK
 62
     9
 10
8442.594893
 20
36830.000758
 30
0.0
 11
8449.26156
 21
36830.000758
 31
0.0
 12
8445.928227
 22
36850.000758
 32
0.0
 13
8445.928227
 23
36850.000758
 33
0.0
  0
SOLID
  5
6A
  8
0
  6
BYBLOCK
 62
     9
 10
8442.594893
 20
36020.0
 30
0.0
 11
8449.26156
 21
36020.0
 31
0.0
 12
8445.928227
 22
36000.0
 32
0.0
 13
8445.928227
 23
36000.0
 33
0.0
  0
TEXT
  5
6B
  8
0
  6
BYBLOCK
 62
    11
 10
8463.428227
 20
36388.2366
 30
0.0
 40
35.0
  1
850
 50
90.0
  0
POINT
  5
6C
  8
DEFPOINTS
  6
BYBLOCK
 62
     0
 10
8001.249593
 20
36850.000758
 30
0.0
  0
POINT
  5
6D
  8
DEFPOINTS
  6
BYBLOCK
 62
     0
 10
8000.0
 20
36000.0
 30
0.0
  0
POINT
  5
6E
  8
DEFPOINTS
  6
BYBLOCK
 62
     0
 10
8445.928227
 20
36000.0
 30
0.0
  0
ENDBLK
  5
70
  8
0
  0
BLOCK
  8
0
  2
*D3
 70
     1
 10
0.0
 20
0.0
 30
0.0
  3
*D3
  1

  0
LINE
  5
57
  8
0
  6
BYBLOCK
 62
     9
 10
8061.249599
 20
36590.002314
 30
0.0
 11
8338.826466
 21
36590.002314
 31
0.0
  0
LINE
  5
58
  8
0
  6
BYBLOCK
 62
     9
 10
8010.0
 20
36000.0
 30
0.0
 11
8338.826466
 21
36000.0
 31
0.0
  0
LINE
  5
59
  8
0
  6
BYBLOCK
 62
     9
 10
8337.826466
 20
36570.002314
 30
0.0
 11
8337.826466
 21
36341.576087
 31
0.0
  0
LINE
  5
5A
  8
0
  6
BYBLOCK
 62
     9
 10
8337.826466
 20
36020.0
 30
0.0
 11
8337.826466
 21
36248.426227
 31
0.0
  0
SOLID
  5
5B
  8
0
  6
BYBLOCK
 62
     9
 10
8334.493132
 20
36570.002314
 30
0.0
 11
8341.159799
 21
36570.002314
 31
0.0
 12
8337.826466
 22
36590.002314
 32
0.0
 13
8337.826466
 23
36590.002314
 33
0.0
  0
SOLID
  5
5C
  8
0
  6
BYBLOCK
 62
     9
 10
8334.493132
 20
36020.0
 30
0.0
 11
8341.159799
 21
36020.0
 31
0.0
 12
8337.826466
 22
36000.0
 32
0.0
 13
8337.826466
 23
36000.0
 33
0.0
  0
TEXT
  5
5D
  8
0
  6
BYBLOCK
 62
    11
 10
8355.326466
 20
36258.176227
 30
0.0
 40
35.0
  1
590
 50
90.0
  0
POINT
  5
5E
  8
DEFPOINTS
  6
BYBLOCK
 62
     0
 10
8051.249599
 20
36590.002314
 30
0.0
  0
POINT
  5
5F
  8
DEFPOINTS
  6
BYBLOCK
 62
     0
 10
8000.0
 20
36000.0
 30
0.0
  0
POINT
  5
60
  8
DEFPOINTS
  6
BYBLOCK
 62
     0
 10
8337.826466
 20
36000.0
 30
0.0
  0
ENDBLK
  5
62
  8
0
  0
BLOCK
  8
0
  2
*D4
 70
     1
 10
0.0
 20
0.0
 30
0.0
  3
*D4
  1

  0
LINE
  5
AD
  8
0
  6
BYBLOCK
 62
     9
 10
7961.249599
 20
36570.002314
 30
0.0
 11
7961.249599
 21
36436.728707
 31
0.0
  0
LINE
  5
AE
  8
0
  6
BYBLOCK
 62
     9
 10
8041.249599
 20
36570.002314
 30
0.0
 11
8041.249599
 21
36436.728707
 31
0.0
  0
LINE
  5
AF
  8
0
  6
BYBLOCK
 62
     9
 10
7981.249599
 20
36437.728707
 30
0.0
 11
7996.249599
 21
36437.728707
 31
0.0
  0
LINE
  5
B0
  8
0
  6
BYBLOCK
 62
     9
 10
8021.249599
 20
36437.728707
 30
0.0
 11
8006.249599
 21
36437.728707
 31
0.0
  0
TEXT
  5
B1
  8
0
  6
BYBLOCK
 62
    11
 10
7976.735819
 20
36420.228707
 30
0.0
 40
35.0
  1
80
  0
SOLID
  5
B2
  8
0
  6
BYBLOCK
 62
     9
 10
7981.249599
 20
36441.06204
 30
0.0
 11
7981.249599
 21
36434.395374
 31
0.0
 12
7961.249599
 22
36437.728707
 32
0.0
 13
7961.249599
 23
36437.728707
 33
0.0
  0
SOLID
  5
B3
  8
0
  6
BYBLOCK
 62
     9
 10
8021.249599
 20
36441.06204
 30
0.0
 11
8021.249599
 21
36434.395374
 31
0.0
 12
8041.249599
 22
36437.728707
 32
0.0
 13
8041.249599
 23
36437.728707
 33
0.0
  0
POINT
  5
B4
  8
DEFPOINTS
  6
BYBLOCK
 62
     0
 10
7961.249599
 20
36580.002314
 30
0.0
  0
POINT
  5
B5
  8
DEFPOINTS
  6
BYBLOCK
 62
     0
 10
8041.249599
 20
36580.002314
 30
0.0
  0
POINT
  5
B6
  8
DEFPOINTS
  6
BYBLOCK
 62
     0
 10
8041.249599
 20
36437.728707
 30
0.0
  0
ENDBLK
  5
B8
  8
0
  0
BLOCK
  8
0
  2
*D5
 70
     1
 10
0.0
 20
0.0
 30
0.0
  3
*D5
  1

  0
LINE
  5
49
  8
0
  6
BYBLOCK
 62
     9
 10
8031.249599
 20
36555.002314
 30
0.0
 11
8393.390364
 21
36555.002314
 31
0.0
  0
LINE
  5
4A
  8
0
  6
BYBLOCK
 62
     9
 10
8010.0
 20
36000.0
 30
0.0
 11
8393.390364
 21
36000.0
 31
0.0
  0
LINE
  5
4B
  8
0
  6
BYBLOCK
 62
     9
 10
8392.390364
 20
36535.002314
 30
0.0
 11
8392.390364
 21
36324.726031
 31
0.0
  0
LINE
  5
4C
  8
0
  6
BYBLOCK
 62
     9
 10
8392.390364
 20
36020.0
 30
0.0
 11
8392.390364
 21
36230.276283
 31
0.0
  0
SOLID
  5
4D
  8
0
  6
BYBLOCK
 62
     9
 10
8389.05703
 20
36535.002314
 30
0.0
 11
8395.723697
 21
36535.002314
 31
0.0
 12
8392.390364
 22
36555.002314
 32
0.0
 13
8392.390364
 23
36555.002314
 33
0.0
  0
SOLID
  5
4E
  8
0
  6
BYBLOCK
 62
     9
 10
8389.05703
 20
36020.0
 30
0.0
 11
8395.723697
 21
36020.0
 31
0.0
 12
8392.390364
 22
36000.0
 32
0.0
 13
8392.390364
 23
36000.0
 33
0.0
  0
TEXT
  5
4F
  8
0
  6
BYBLOCK
 62
    11
 10
8409.890364
 20
36240.026283
 30
0.0
 40
35.0
  1
555
 50
90.0
  0
POINT
  5
50
  8
DEFPOINTS
  6
BYBLOCK
 62
     0
 10
8021.249599
 20
36555.002314
 30
0.0
  0
POINT
  5
51
  8
DEFPOINTS
  6
BYBLOCK
 62
     0
 10
8000.0
 20
36000.0
 30
0.0
  0
POINT
  5
52
  8
DEFPOINTS
  6
BYBLOCK
 62
     0
 10
8392.390364
 20
36000.0
 30
0.0
  0
ENDBLK
  5
54
  8
0
  0
BLOCK
  8
0
  2
*D6
 70
     1
 10
0.0
 20
0.0
 30
0.0
  3
*D6
  1

  0
LINE
  5
D2
  8
0
  6
BYBLOCK
 62
     9
 10
8171.339599
 20
36810.002321
 30
0.0
 11
8244.461676
 21
36810.002321
 31
0.0
  0
LINE
  5
D3
  8
0
  6
BYBLOCK
 62
     9
 10
8150.128029
 20
36850.000758
 30
0.0
 11
8244.461676
 21
36850.000758
 31
0.0
  0
LINE
  5
D4
  8
0
  6
BYBLOCK
 62
     9
 10
8243.461676
 20
36790.002321
 30
0.0
 11
8243.461676
 21
36770.002321
 31
0.0
  0
LINE
  5
D5
  8
0
  6
BYBLOCK
 62
     9
 10
8243.461676
 20
36870.000758
 30
0.0
 11
8243.461676
 21
36890.000758
 31
0.0
  0
TEXT
  5
D6
  8
0
  6
BYBLOCK
 62
    11
 10
8260.961676
 20
36724.552913
 30
0.0
 40
35.0
  1
40
 50
90.0
  0
LINE
  5
D7
  8
0
  6
BYBLOCK
 62
     9
 10
8243.461676
 20
36810.002321
 30
0.0
 11
8243.461676
 21
36850.000758
 31
0.0
  0
SOLID
  5
D8
  8
0
  6
BYBLOCK
 62
     9
 10
8240.128343
 20
36790.002321
 30
0.0
 11
8246.795009
 21
36790.002321
 31
0.0
 12
8243.461676
 22
36810.002321
 32
0.0
 13
8243.461676
 23
36810.002321
 33
0.0
  0
SOLID
  5
D9
  8
0
  6
BYBLOCK
 62
     9
 10
8240.128343
 20
36870.000758
 30
0.0
 11
8246.795009
 21
36870.000758
 31
0.0
 12
8243.461676
 22
36850.000758
 32
0.0
 13
8243.461676
 23
36850.000758
 33
0.0
  0
POINT
  5
DA
  8
DEFPOINTS
  6
BYBLOCK
 62
     0
 10
8161.339599
 20
36810.002321
 30
0.0
  0
POINT
  5
DB
  8
DEFPOINTS
  6
BYBLOCK
 62
     0
 10
8140.128029
 20
36850.000758
 30
0.0
  0
POINT
  5
DC
  8
DEFPOINTS
  6
BYBLOCK
 62
     0
 10
8243.461676
 20
36850.000758
 30
0.0
  0
ENDBLK
  5
DE
  8
0
  0
BLOCK
  8
0
  2
*D7
 70
     1
 10
0.0
 20
0.0
 30
0.0
  3
*D7
  1

  0
LINE
  5
38
  8
0
  6
BYBLOCK
 62
     9
 10
7841.242573
 20
36836.69415
 30
0.0
 11
7841.242573
 21
36917.679194
 31
0.0
  0
LINE
  5
39
  8
0
  6
BYBLOCK
 62
     9
 10
8161.24662
 20
36836.694155
 30
0.0
 11
8161.24662
 21
36917.679194
 31
0.0
  0
LINE
  5
3A
  8
0
  6
BYBLOCK
 62
     9
 10
7861.242573
 20
36916.679194
 30
0.0
 11
7954.730817
 21
36916.679194
 31
0.0
  0
LINE
  5
3B
  8
0
  6
BYBLOCK
 62
     9
 10
8141.24662
 20
36916.679194
 30
0.0
 11
8047.758376
 21
36916.679194
 31
0.0
  0
SOLID
  5
3C
  8
0
  6
BYBLOCK
 62
     9
 10
7861.242573
 20
36920.012528
 30
0.0
 11
7861.242573
 21
36913.345861
 31
0.0
 12
7841.242573
 22
36916.679194
 32
0.0
 13
7841.242573
 23
36916.679194
 33
0.0
  0
SOLID
  5
3D
  8
0
  6
BYBLOCK
 62
     9
 10
8141.24662
 20
36920.012528
 30
0.0
 11
8141.24662
 21
36913.345861
 31
0.0
 12
8161.24662
 22
36916.679194
 32
0.0
 13
8161.24662
 23
36916.679194
 33
0.0
  0
TEXT
  5
3E
  8
0
  6
BYBLOCK
 62
    11
 10
7964.480817
 20
36899.179194
 30
0.0
 40
35.0
  1
320
  0
POINT
  5
3F
  8
DEFPOINTS
  6
BYBLOCK
 62
     0
 10
7841.242573
 20
36826.69415
 30
0.0
  0
POINT
  5
40
  8
DEFPOINTS
  6
BYBLOCK
 62
     0
 10
8161.24662
 20
36826.694155
 30
0.0
  0
POINT
  5
41
  8
DEFPOINTS
  6
BYBLOCK
 62
     0
 10
8161.24662
 20
36916.679194
 30
0.0
  0
ENDBLK
  5
43
  8
0
  0
BLOCK
  8
0
  2
*D8
 70
     1
 10
0.0
 20
0.0
 30
0.0
  3
*D8
  1

  0
LINE
  5
22
  8
0
  6
BYBLOCK
 62
     9
 10
8091.657744
 20
36660.002321
 30
0.0
 11
8290.512453
 21
36660.002321
 31
0.0
  0
LINE
  5
23
  8
0
  6
BYBLOCK
 62
     9
 10
8011.249593
 20
36850.000758
 30
0.0
 11
8290.512453
 21
36850.000758
 31
0.0
  0
LINE
  5
24
  8
0
  6
BYBLOCK
 62
     9
 10
8289.512453
 20
36680.002321
 30
0.0
 11
8289.512453
 21
36716.81161
 31
0.0
  0
LINE
  5
25
  8
0
  6
BYBLOCK
 62
     9
 10
8289.512453
 20
36830.000758
 30
0.0
 11
8289.512453
 21
36802.96147
 31
0.0
  0
TEXT
  5
26
  8
0
  6
BYBLOCK
 62
    11
 10
8307.012453
 20
36726.56161
 30
0.0
 40
35.0
  1
190
 50
90.0
  0
SOLID
  5
27
  8
0
  6
BYBLOCK
 62
     9
 10
8286.179119
 20
36680.002321
 30
0.0
 11
8292.845786
 21
36680.002321
 31
0.0
 12
8289.512453
 22
36660.002321
 32
0.0
 13
8289.512453
 23
36660.002321
 33
0.0
  0
SOLID
  5
28
  8
0
  6
BYBLOCK
 62
     9
 10
8286.179119
 20
36830.000758
 30
0.0
 11
8292.845786
 21
36830.000758
 31
0.0
 12
8289.512453
 22
36850.000758
 32
0.0
 13
8289.512453
 23
36850.000758
 33
0.0
  0
POINT
  5
29
  8
DEFPOINTS
  6
BYBLOCK
 62
     0
 10
8081.657744
 20
36660.002321
 30
0.0
  0
POINT
  5
2B
  8
DEFPOINTS
  6
BYBLOCK
 62
     0
 10
8001.249593
 20
36850.000758
 30
0.0
  0
POINT
  5
2C
  8
DEFPOINTS
  6
BYBLOCK
 62
     0
 10
8289.512453
 20
36850.000758
 30
0.0
  0
ENDBLK
  5
2E
  8
0
  0
ENDSEC
  0
SECTION
  2
ENTITIES
  0
DIMENSION
  5
20
  8
TEAM-MAS
  2
*D8
 10
289.512453
 20
850.000758
 30
0.0
 11
289.512453
 21
759.88654
 31
0.0
 12
-8000.0
 22
-36000.0
 32
0.0
 70
   128
 13
81.657744
 23
660.002321
 33
0.0
 14
1.249593
 24
850.000758
 34
0.0
 50
90.0
1001
ACAD
1000
DSTYLE
1002
{
1070
    40
1040
1.0
1002
}
  0
LINE
  5
2F
  8
TEAM-BODY
 10
-79.158546
 20
660.002321
 30
0.0
 11
81.657744
 21
660.002321
 31
0.0
  0
LINE
  5
31
  8
TEAM-DET1
 10
-74.080807
 20
650.002321
 30
0.0
 11
76.580005
 21
650.002321
 31
0.0
  0
LINE
  5
33
  8
TEAM-BODY
 10
-140.704817
 20
810.002321
 30
0.0
 11
143.194015
 21
810.002321
 31
0.0
  0
LINE
  5
34
  8
TEAM-BODY
 10
-151.666175
 20
850.000758
 30
0.0
 11
154.155361
 21
850.000758
 31
0.0
  0
LINE
  5
35
  8
TEAM-BODY
 10
-158.850401
 20
810.002321
 30
0.0
 11
161.339599
 21
810.002321
 31
0.0
  0
DIMENSION
  5
36
  8
TEAM-MAS
  2
*D7
 10
161.24662
 20
916.679194
 30
0.0
 11
1.244596
 21
916.679194
 31
0.0
 12
-8000.0
 22
-36000.0
 32
0.0
 13
-158.757427
 23
826.69415
 33
0.0
 14
161.24662
 24
826.694155
 34
0.0
1001
ACAD
1000
DSTYLE
1002
{
1070
    40
1040
1.0
1002
}
  0
TEXT
  5
44
  8
TEAM-TXT
 10
-132.279456
 20
745.247193
 30
0.0
 40
30.0
  1
team 231032
 41
0.8
 51
15.0
  7
TEAM
  0
DIMENSION
  5
47
  8
TEAM-MAS
  2
*D5
 10
392.390364
 20
0.0
 30
0.0
 11
392.390364
 21
277.501157
 31
0.0
 12
-8000.0
 22
-36000.0
 32
0.0
 13
21.249599
 23
555.002314
 33
0.0
 14
0.0
 24
0.0
 34
0.0
 50
90.0
1001
ACAD
1000
DSTYLE
1002
{
1070
    40
1040
1.0
1002
}
  0
DIMENSION
  5
55
  8
TEAM-MAS
  2
*D3
 10
337.826466
 20
0.0
 30
0.0
 11
337.826466
 21
295.001157
 31
0.0
 12
-8000.0
 22
-36000.0
 32
0.0
 13
51.249599
 23
590.002314
 33
0.0
 14
0.0
 24
0.0
 34
0.0
 50
90.0
1001
ACAD
1000
DSTYLE
1002
{
1070
    40
1040
1.0
1002
}
  0
DIMENSION
  5
63
  8
TEAM-MAS
  2
*D2
 10
445.928227
 20
0.0
 30
0.0
 11
445.928227
 21
425.000379
 31
0.0
 12
-8000.0
 22
-36000.0
 32
0.0
 13
1.249593
 23
850.000758
 33
0.0
 14
0.0
 24
0.0
 34
0.0
 50
90.0
1001
ACAD
1000
DSTYLE
1002
{
1070
    40
1040
1.0
1002
}
  0
DIMENSION
  5
71
  8
TEAM-MAS
  2
*D1
 10
337.826466
 20
590.002314
 30
0.0
 11
337.826466
 21
720.001536
 31
0.0
 12
-8000.0
 22
-36000.0
 32
0.0
 13
1.249593
 23
850.000758
 33
0.0
 14
51.249599
 24
590.002314
 34
0.0
 50
90.0
1001
ACAD
1000
DSTYLE
1002
{
1070
    40
1040
1.0
1002
}
  0
DIMENSION
  5
7F
  8
TEAM-MAS
  2
*D0
 10
392.390364
 20
555.002314
 30
0.0
 11
392.390364
 21
702.501536
 31
0.0
 12
-8000.0
 22
-36000.0
 32
0.0
 13
154.155361
 23
850.000758
 33
0.0
 14
21.249599
 24
555.002314
 34
0.0
 50
90.0
1001
ACAD
1000
DSTYLE
1002
{
1070
    40
1040
1.0
1002
}
  0
LINE
  5
8D
  8
TEAM-BODY
 10
-81.322395
 20
661.982286
 30
0.0
 11
-82.044631
 21
667.537148
 31
0.0
  0
POLYLINE
  5
8E
  8
TEAM-BODY
 66
     1
 10
0.0
 20
0.0
 30
0.0
 70
     8
  0
VERTEX
  5
8F
  8
TEAM-BODY
 10
-81.322395
 20
661.982301
 30
0.0
 70
    32
  0
VERTEX
  5
90
  8
TEAM-BODY
 10
-80.966934
 20
660.972154
 30
0.0
 70
    32
  0
VERTEX
  5
91
  8
TEAM-BODY
 10
-80.196166
 20
660.267244
 30
0.0
 70
    32
  0
VERTEX
  5
92
  8
TEAM-BODY
 10
-79.158546
 20
660.002321
 30
0.0
 70
    32
  0
SEQEND
  5
93
  8
TEAM-BODY
  0
POLYLINE
  5
94
  8
TEAM-DET1
 66
     1
 10
0.0
 20
0.0
 30
0.0
 70
     8
  0
VERTEX
  5
95
  8
TEAM-DET1
 10
-76.250874
 20
652.088091
 30
0.0
 70
    32
  0
VERTEX
  5
96
  8
TEAM-DET1
 10
-75.928601
 20
651.029817
 30
0.0
 70
    32
  0
VERTEX
  5
97
  8
TEAM-DET1
 10
-75.150914
 20
650.284319
 30
0.0
 70
    32
  0
VERTEX
  5
98
  8
TEAM-DET1
 10
-74.080807
 20
650.002321
 30
0.0
 70
    32
  0
SEQEND
  5
99
  8
TEAM-DET1
  0
LINE
  5
9A
  8
TEAM-DET1
 10
-76.250874
 20
652.088091
 30
0.0
 11
-76.528687
 21
660.002321
 31
0.0
  0
ARC
  5
9B
  8
TEAM-BODY
 10
-103.675746
 20
659.133248
 30
0.0
 40
23.206264
 50
21.231635
 51
51.062527
  0
LINE
  5
9C
  8
TEAM-AXE
 10
1.249599
 20
810.002321
 30
0.0
 11
1.249599
 21
645.002314
 31
0.0
210
0.0
220
-0.0
230
-1.0
  0
ARC
  5
9F
  8
TEAM-BODY
 10
-8.168467
 20
783.465464
 30
0.0
 40
133.582501
 50
168.541671
 51
232.714369
  0
LINE
  5
A0
  8
TEAM-BODY
 10
-158.850401
 20
810.002321
 30
0.0
 11
-158.664454
 21
843.155978
 31
0.0
  0
ARC
  5
A1
  8
TEAM-BODY
 10
-151.666175
 20
843.000758
 30
0.0
 40
7.0
 50
90.0
 51
178.729403
  0
LINE
  5
A2
  8
TEAM-AXE
 10
1.249599
 20
575.002314
 30
0.0
 11
1.249599
 21
535.002314
 31
0.0
210
0.0
220
-0.0
230
-1.0
  0
CIRCLE
  5
A3
  8
TEAM-KAN
 10
1.249599
 20
555.002314
 30
0.0
 40
20.0
  0
CIRCLE
  5
A5
  8
TEAM-KAN
 10
1.249599
 20
555.002314
 30
0.0
 40
20.0
  0
LINE
  5
A6
  8
TEAM-AXE
 10
-18.750401
 20
555.002314
 30
0.0
 11
21.249599
 21
555.002314
 31
0.0
  0
CIRCLE
  5
A7
  8
TEAM-WARM
 10
-38.750401
 20
590.002314
 30
0.0
 40
10.0
  0
LINE
  5
A9
  8
TEAM-AXE
 10
-48.750401
 20
590.002314
 30
0.0
 11
-28.750401
 21
590.002314
 31
0.0
  0
LINE
  5
AA
  8
TEAM-AXE
 10
-38.750401
 20
600.002314
 30
0.0
 11
-38.750401
 21
580.002314
 31
0.0
210
0.0
220
-0.0
230
-1.0
  0
DIMENSION
  5
AB
  8
TEAM-MAS
  2
*D4
 10
41.249599
 20
437.728707
 30
0.0
 11
1.249599
 21
437.728707
 31
0.0
 12
-8000.0
 22
-36000.0
 32
0.0
 70
   128
 13
-38.750401
 23
580.002314
 33
0.0
 14
41.249599
 24
580.002314
 34
0.0
1001
ACAD
1000
DSTYLE
1002
{
1070
    40
1040
1.0
1002
}
  0
LINE
  5
B9
  8
TEAM-AXE
 10
31.249599
 20
590.002314
 30
0.0
 11
51.249599
 21
590.002314
 31
0.0
  0
CIRCLE
  5
BA
  8
TEAM-COLD
 10
41.249599
 20
590.002314
 30
0.0
 40
10.0
  0
LINE
  5
BC
  8
TEAM-AXE
 10
41.249599
 20
600.002314
 30
0.0
 11
41.249599
 21
580.002314
 31
0.0
210
0.0
220
-0.0
230
-1.0
  0
CIRCLE
  5
BD
  8
TEAM-INSP
 10
0.0
 20
0.0
 30
0.0
 40
10.0
  0
LINE
  5
BF
  8
TEAM-BODY
 10
83.821593
 20
661.982286
 30
0.0
 11
84.543829
 21
667.537148
 31
0.0
  0
ARC
  5
C0
  8
TEAM-BODY
 10
106.174944
 20
659.133248
 30
0.0
 40
23.206264
 50
128.937473
 51
158.768365
  0
POLYLINE
  5
C1
  8
TEAM-BODY
 66
     1
 10
0.0
 20
0.0
 30
0.0
 70
     8
  0
VERTEX
  5
C2
  8
TEAM-BODY
 10
83.821593
 20
661.982301
 30
0.0
 70
    32
  0
VERTEX
  5
C3
  8
TEAM-BODY
 10
83.466132
 20
660.972154
 30
0.0
 70
    32
  0
VERTEX
  5
C4
  8
TEAM-BODY
 10
82.695364
 20
660.267244
 30
0.0
 70
    32
  0
VERTEX
  5
C5
  8
TEAM-BODY
 10
81.657744
 20
660.002321
 30
0.0
 70
    32
  0
SEQEND
  5
C6
  8
TEAM-BODY
  0
POLYLINE
  5
C7
  8
TEAM-DET1
 66
     1
 10
0.0
 20
0.0
 30
0.0
 70
     8
  0
VERTEX
  5
C8
  8
TEAM-DET1
 10
78.750072
 20
652.088091
 30
0.0
 70
    32
  0
VERTEX
  5
C9
  8
TEAM-DET1
 10
78.427799
 20
651.029817
 30
0.0
 70
    32
  0
VERTEX
  5
CA
  8
TEAM-DET1
 10
77.650112
 20
650.284319
 30
0.0
 70
    32
  0
VERTEX
  5
CB
  8
TEAM-DET1
 10
76.580005
 20
650.002321
 30
0.0
 70
    32
  0
SEQEND
  5
CC
  8
TEAM-DET1
  0
LINE
  5
CD
  8
TEAM-DET1
 10
78.750072
 20
652.088091
 30
0.0
 11
79.027885
 21
660.002321
 31
0.0
  0
ARC
  5
CE
  8
TEAM-BODY
 10
10.665768
 20
783.456322
 30
0.0
 40
133.576376
 50
307.288654
 51
11.462863
  0
LINE
  5
CF
  8
TEAM-BODY
 10
161.15364
 20
843.155988
 30
0.0
 11
161.339599
 21
810.002321
 31
0.0
  0
DIMENSION
  5
D0
  8
TEAM-MAS
  2
*D6
 10
243.461676
 20
850.000758
 30
0.0
 11
243.461676
 21
750.816692
 31
0.0
 12
-8000.0
 22
-36000.0
 32
0.0
 70
   128
 13
161.339599
 23
810.002321
 33
0.0
 14
140.128029
 24
850.000758
 34
0.0
 50
90.0
1001
ACAD
1000
DSTYLE
1002
{
1070
    40
1040
1.0
1002
}
  0
ARC
  5
DF
  8
TEAM-BODY
 10
154.155361
 20
843.000758
 30
0.0
 40
7.0
 50
1.270674
 51
90.0
  0
ENDSEC
  0
EOF
