  0
SECTION
  2
HEADER
  9
$ACADVER
  1
AC1009
  9
$INSBASE
 10
0.0
 20
0.0
 30
0.0
  9
$EXTMIN
 10
-169.52974
 20
-487.223675
 30
0.0
  9
$EXTMAX
 10
318.665508
 20
10.030298
 30
0.0
  9
$LIMMIN
 10
-169.52974
 20
-487.223675
  9
$LIMMAX
 10
318.665508
 20
10.030298
  9
$ORTHOMODE
 70
     1
  9
$REGENMODE
 70
     1
  9
$FILLMODE
 70
     1
  9
$QTEXTMODE
 70
     0
  9
$MIRRTEXT
 70
     0
  9
$DRAGMODE
 70
     2
  9
$LTSCALE
 40
25.0
  9
$OSMODE
 70
     0
  9
$ATTMODE
 70
     1
  9
$TEXTSIZE
 40
200.0
  9
$TRACEWID
 40
1.0
  9
$TEXTSTYLE
  7
STANDARD
  9
$CLAYER
  8
TEAM-MAS
  9
$CELTYPE
  6
BYLAYER
  9
$CECOLOR
 62
   256
  9
$DIMSCALE
 40
1.0
  9
$DIMASZ
 40
20.0
  9
$DIMEXO
 40
10.0
  9
$DIMDLI
 40
1.0
  9
$DIMRND
 40
0.0
  9
$DIMDLE
 40
0.0
  9
$DIMEXE
 40
1.0
  9
$DIMTP
 40
0.0
  9
$DIMTM
 40
0.0
  9
$DIMTXT
 40
35.0
  9
$DIMCEN
 40
1.0
  9
$DIMTSZ
 40
0.0
  9
$DIMTOL
 70
     0
  9
$DIMLIM
 70
     0
  9
$DIMTIH
 70
     0
  9
$DIMTOH
 70
     0
  9
$DIMSE1
 70
     0
  9
$DIMSE2
 70
     0
  9
$DIMTAD
 70
     0
  9
$DIMZIN
 70
     0
  9
$DIMBLK
  1

  9
$DIMASO
 70
     1
  9
$DIMSHO
 70
     0
  9
$DIMPOST
  1

  9
$DIMAPOST
  1

  9
$DIMALT
 70
     0
  9
$DIMALTD
 70
     2
  9
$DIMALTF
 40
25.4
  9
$DIMLFAC
 40
1.0
  9
$DIMTOFL
 70
     0
  9
$DIMTVP
 40
0.0
  9
$DIMTIX
 70
     0
  9
$DIMSOXD
 70
     0
  9
$DIMSAH
 70
     0
  9
$DIMBLK1
  1

  9
$DIMBLK2
  1

  9
$DIMSTYLE
  2
TEAM
  9
$DIMCLRD
 70
     9
  9
$DIMCLRE
 70
     9
  9
$DIMCLRT
 70
    11
  9
$DIMTFAC
 40
1.0
  9
$DIMGAP
 40
15.0
  9
$LUNITS
 70
     2
  9
$LUPREC
 70
     1
  9
$SKETCHINC
 40
1.0
  9
$FILLETRAD
 40
50.0
  9
$AUNITS
 70
     0
  9
$AUPREC
 70
     0
  9
$MENU
  1
ROPLANS
  9
$ELEVATION
 40
0.0
  9
$PELEVATION
 40
0.0
  9
$THICKNESS
 40
0.0
  9
$LIMCHECK
 70
     0
  9
$BLIPMODE
 70
     1
  9
$CHAMFERA
 40
0.0
  9
$CHAMFERB
 40
0.0
  9
$SKPOLY
 70
     0
  9
$TDCREATE
 40
2450392.957851
  9
$TDUPDATE
 40
2455505.473099
  9
$TDINDWG
 40
2.023557
  9
$TDUSRTIMER
 40
2.023557
  9
$USRTIMER
 70
     1
  9
$ANGBASE
 50
0.0
  9
$ANGDIR
 70
     0
  9
$PDMODE
 70
     0
  9
$PDSIZE
 40
0.0
  9
$PLINEWID
 40
0.0
  9
$COORDS
 70
     2
  9
$SPLFRAME
 70
     0
  9
$SPLINETYPE
 70
     6
  9
$SPLINESEGS
 70
     8
  9
$ATTDIA
 70
     0
  9
$ATTREQ
 70
     0
  9
$HANDLING
 70
     1
  9
$HANDSEED
  5
180
  9
$SURFTAB1
 70
    24
  9
$SURFTAB2
 70
    24
  9
$SURFTYPE
 70
     6
  9
$SURFU
 70
     6
  9
$SURFV
 70
     6
  9
$UCSNAME
  2

  9
$UCSORG
 10
0.0
 20
0.0
 30
0.0
  9
$UCSXDIR
 10
1.0
 20
0.0
 30
0.0
  9
$UCSYDIR
 10
0.0
 20
1.0
 30
0.0
  9
$PUCSNAME
  2

  9
$PUCSORG
 10
0.0
 20
0.0
 30
0.0
  9
$PUCSXDIR
 10
1.0
 20
0.0
 30
0.0
  9
$PUCSYDIR
 10
0.0
 20
1.0
 30
0.0
  9
$USERI1
 70
     0
  9
$USERI2
 70
     0
  9
$USERI3
 70
     0
  9
$USERI4
 70
     0
  9
$USERI5
 70
     0
  9
$USERR1
 40
0.0
  9
$USERR2
 40
0.0
  9
$USERR3
 40
0.0
  9
$USERR4
 40
0.0
  9
$USERR5
 40
0.0
  9
$WORLDVIEW
 70
     1
  9
$SHADEDGE
 70
     0
  9
$SHADEDIF
 70
    70
  9
$TILEMODE
 70
     1
  9
$MAXACTVP
 70
    16
  9
$PLIMCHECK
 70
     0
  9
$PEXTMIN
 10
-0.805942
 20
0.005011
 30
0.0
  9
$PEXTMAX
 10
20.250094
 20
11.356329
 30
0.0
  9
$PLIMMIN
 10
0.0
 20
0.0
  9
$PLIMMAX
 10
12.0
 20
9.0
  9
$UNITMODE
 70
     0
  9
$VISRETAIN
 70
     0
  9
$PLINEGEN
 70
     0
  9
$PSLTSCALE
 70
     0
  0
ENDSEC
  0
SECTION
  2
TABLES
  0
TABLE
  2
VPORT
 70
     2
  0
VPORT
  2
*ACTIVE
 70
     0
 10
0.0
 20
0.0
 11
1.0
 21
1.0
 12
74.567884
 22
-238.596689
 13
0.0
 23
0.0
 14
1.0
 24
1.0
 15
50.0
 25
50.0
 16
0.0
 26
0.0
 36
1.0
 17
0.0
 27
0.0
 37
0.0
 40
500.307733
 41
1.865779
 42
50.0
 43
0.0
 44
0.0
 50
0.0
 51
0.0
 71
     0
 72
   100
 73
     1
 74
     1
 75
     0
 76
     0
 77
     0
 78
     0
  0
ENDTAB
  0
TABLE
  2
LTYPE
 70
     2
  0
LTYPE
  2
CONTINUOUS
 70
     0
  3
Solid Line
 72
    65
 73
     0
 40
0.0
  0
LTYPE
  2
31
 70
     0
  3

 72
    65
 73
     4
 40
2.1
 49
1.5
 49
-0.3
 49
0.0
 49
-0.3
  0
ENDTAB
  0
TABLE
  2
LAYER
 70
     8
  0
LAYER
  2
0
 70
     0
 62
     7
  6
CONTINUOUS
  0
LAYER
  2
DEFPOINTS
 70
     0
 62
     7
  6
CONTINUOUS
  0
LAYER
  2
TEAM-BODY
 70
     0
 62
     2
  6
CONTINUOUS
  0
LAYER
  2
TEAM-AXE
 70
     0
 62
    10
  6
31
  0
LAYER
  2
TEAM-MAS
 70
     0
 62
     9
  6
CONTINUOUS
  0
LAYER
  2
TEAM-TXT
 70
     0
 62
    11
  6
CONTINUOUS
  0
LAYER
  2
TEAM-DET1
 70
     0
 62
     4
  6
CONTINUOUS
  0
LAYER
  2
TEAM-INSP
 70
     0
 62
     5
  6
CONTINUOUS
  0
ENDTAB
  0
TABLE
  2
STYLE
 70
     2
  0
STYLE
  2
STANDARD
 70
     0
 40
0.0
 41
1.0
 50
0.0
 71
     0
 42
200.0
  3
txt
  4

  0
STYLE
  2
TEAM
 70
     0
 40
0.0
 41
0.8
 50
15.0
 71
     0
 42
7.0
  3
ROMANS.shx
  4

  0
ENDTAB
  0
TABLE
  2
VIEW
 70
     0
  0
ENDTAB
  0
TABLE
  2
UCS
 70
     0
  0
ENDTAB
  0
TABLE
  2
APPID
 70
     1
  0
APPID
  2
ACAD
 70
     0
  0
ENDTAB
  0
TABLE
  2
DIMSTYLE
 70
     1
  0
DIMSTYLE
  2
TEAM
 70
     0
  3

  4

  5

  6

  7

 40
1.0
 41
20.0
 42
10.0
 43
1.0
 44
1.0
 45
0.0
 46
0.0
 47
0.0
 48
0.0
140
35.0
141
1.0
142
0.0
143
25.4
144
1.0
145
0.0
146
1.0
147
15.0
 71
     0
 72
     0
 73
     0
 74
     0
 75
     0
 76
     0
 77
     0
 78
     0
170
     0
171
     2
172
     0
173
     0
174
     0
175
     0
176
     9
177
     9
178
    11
  0
ENDTAB
  0
ENDSEC
  0
SECTION
  2
BLOCKS
  0
BLOCK
  8
0
  2
$MODEL_SPACE
 70
     0
 10
0.0
 20
0.0
 30
0.0
  3
$MODEL_SPACE
  1

  0
ENDBLK
  5
157
  8
0
  0
BLOCK
 67
     1
  8
0
  2
$PAPER_SPACE
 70
     0
 10
0.0
 20
0.0
 30
0.0
  3
$PAPER_SPACE
  1

  0
ENDBLK
  5
155
 67
     1
  8
0
  0
BLOCK
  8
0
  2
*D0
 70
     1
 10
0.0
 20
0.0
 30
0.0
  3
*D0
  1

  0
LINE
  5
53
  8
0
  6
BYBLOCK
 62
     9
 10
8010.0
 20
219661.0
 30
0.0
 11
8302.178632
 21
219661.0
 31
0.0
  0
LINE
  5
54
  8
0
  6
BYBLOCK
 62
     9
 10
8010.0
 20
220000.0
 30
0.0
 11
8302.178632
 21
220000.0
 31
0.0
  0
LINE
  5
55
  8
0
  6
BYBLOCK
 62
     9
 10
8301.178632
 20
219681.0
 30
0.0
 11
8301.178632
 21
219782.747114
 31
0.0
  0
LINE
  5
56
  8
0
  6
BYBLOCK
 62
     9
 10
8301.178632
 20
219980.0
 30
0.0
 11
8301.178632
 21
219878.252886
 31
0.0
  0
SOLID
  5
57
  8
0
  6
BYBLOCK
 62
     9
 10
8297.845298
 20
219681.0
 30
0.0
 11
8304.511965
 21
219681.0
 31
0.0
 12
8301.178632
 22
219661.0
 32
0.0
 13
8301.178632
 23
219661.0
 33
0.0
  0
SOLID
  5
58
  8
0
  6
BYBLOCK
 62
     9
 10
8297.845298
 20
219980.0
 30
0.0
 11
8304.511965
 21
219980.0
 31
0.0
 12
8301.178632
 22
220000.0
 32
0.0
 13
8301.178632
 23
220000.0
 33
0.0
  0
TEXT
  5
59
  8
0
  6
BYBLOCK
 62
    11
 10
8318.678632
 20
219792.497114
 30
0.0
 40
35.0
  1
339
 50
90.0
  0
POINT
  5
5A
  8
DEFPOINTS
  6
BYBLOCK
 62
     0
 10
8000.0
 20
219661.0
 30
0.0
  0
POINT
  5
5B
  8
DEFPOINTS
  6
BYBLOCK
 62
     0
 10
8000.0
 20
220000.0
 30
0.0
  0
POINT
  5
5C
  8
DEFPOINTS
  6
BYBLOCK
 62
     0
 10
8301.178632
 20
220000.0
 30
0.0
  0
ENDBLK
  5
5E
  8
0
  0
BLOCK
  8
0
  2
*D1
 70
     1
 10
0.0
 20
0.0
 30
0.0
  3
*D1
  1

  0
LINE
  5
45
  8
0
  6
BYBLOCK
 62
     9
 10
8010.0
 20
219680.5
 30
0.0
 11
8251.585152
 21
219680.5
 31
0.0
  0
LINE
  5
46
  8
0
  6
BYBLOCK
 62
     9
 10
8010.0
 20
219980.5
 30
0.0
 11
8251.585152
 21
219980.5
 31
0.0
  0
LINE
  5
47
  8
0
  6
BYBLOCK
 62
     9
 10
8250.585152
 20
219700.5
 30
0.0
 11
8250.585152
 21
219783.98622
 31
0.0
  0
LINE
  5
48
  8
0
  6
BYBLOCK
 62
     9
 10
8250.585152
 20
219960.5
 30
0.0
 11
8250.585152
 21
219877.01378
 31
0.0
  0
SOLID
  5
49
  8
0
  6
BYBLOCK
 62
     9
 10
8247.251819
 20
219700.5
 30
0.0
 11
8253.918485
 21
219700.5
 31
0.0
 12
8250.585152
 22
219680.5
 32
0.0
 13
8250.585152
 23
219680.5
 33
0.0
  0
SOLID
  5
4A
  8
0
  6
BYBLOCK
 62
     9
 10
8247.251819
 20
219960.5
 30
0.0
 11
8253.918485
 21
219960.5
 31
0.0
 12
8250.585152
 22
219980.5
 32
0.0
 13
8250.585152
 23
219980.5
 33
0.0
  0
TEXT
  5
4B
  8
0
  6
BYBLOCK
 62
    11
 10
8268.085152
 20
219793.73622
 30
0.0
 40
35.0
  1
300
 50
90.0
  0
POINT
  5
4C
  8
DEFPOINTS
  6
BYBLOCK
 62
     0
 10
8000.0
 20
219680.5
 30
0.0
  0
POINT
  5
4D
  8
DEFPOINTS
  6
BYBLOCK
 62
     0
 10
8000.0
 20
219980.5
 30
0.0
  0
POINT
  5
4E
  8
DEFPOINTS
  6
BYBLOCK
 62
     0
 10
8250.585152
 20
219980.5
 30
0.0
  0
ENDBLK
  5
50
  8
0
  0
BLOCK
  8
0
  2
*D2
 70
     1
 10
0.0
 20
0.0
 30
0.0
  3
*D2
  1

  0
LINE
  5
31
  8
0
  6
BYBLOCK
 62
     9
 10
7850.0
 20
219820.5
 30
0.0
 11
7850.0
 21
219575.49541
 31
0.0
  0
LINE
  5
32
  8
0
  6
BYBLOCK
 62
     9
 10
8150.0
 20
219820.5
 30
0.0
 11
8150.0
 21
219575.49541
 31
0.0
  0
LINE
  5
33
  8
0
  6
BYBLOCK
 62
     9
 10
7870.0
 20
219576.49541
 30
0.0
 11
7953.48622
 21
219576.49541
 31
0.0
  0
LINE
  5
34
  8
0
  6
BYBLOCK
 62
     9
 10
8130.0
 20
219576.49541
 30
0.0
 11
8046.51378
 21
219576.49541
 31
0.0
  0
SOLID
  5
35
  8
0
  6
BYBLOCK
 62
     9
 10
7870.0
 20
219579.828744
 30
0.0
 11
7870.0
 21
219573.162077
 31
0.0
 12
7850.0
 22
219576.49541
 32
0.0
 13
7850.0
 23
219576.49541
 33
0.0
  0
SOLID
  5
36
  8
0
  6
BYBLOCK
 62
     9
 10
8130.0
 20
219579.828744
 30
0.0
 11
8130.0
 21
219573.162077
 31
0.0
 12
8150.0
 22
219576.49541
 32
0.0
 13
8150.0
 23
219576.49541
 33
0.0
  0
TEXT
  5
37
  8
0
  6
BYBLOCK
 62
    11
 10
7963.23622
 20
219558.99541
 30
0.0
 40
35.0
  1
300
  0
POINT
  5
38
  8
DEFPOINTS
  6
BYBLOCK
 62
     0
 10
7850.0
 20
219830.5
 30
0.0
  0
POINT
  5
39
  8
DEFPOINTS
  6
BYBLOCK
 62
     0
 10
8150.0
 20
219830.5
 30
0.0
  0
POINT
  5
3A
  8
DEFPOINTS
  6
BYBLOCK
 62
     0
 10
8150.0
 20
219576.49541
 30
0.0
  0
ENDBLK
  5
3C
  8
0
  0
BLOCK
  8
0
  2
*D3
 70
     1
 10
0.0
 20
0.0
 30
0.0
  3
*D3
  1

  0
LINE
  5
22
  8
0
  6
BYBLOCK
 62
     9
 10
7830.5
 20
219820.5
 30
0.0
 11
7830.5
 21
219529.257756
 31
0.0
  0
LINE
  5
23
  8
0
  6
BYBLOCK
 62
     9
 10
8169.5
 20
219820.5
 30
0.0
 11
8169.5
 21
219529.257756
 31
0.0
  0
LINE
  5
24
  8
0
  6
BYBLOCK
 62
     9
 10
7850.5
 20
219530.257756
 30
0.0
 11
7952.247114
 21
219530.257756
 31
0.0
  0
LINE
  5
25
  8
0
  6
BYBLOCK
 62
     9
 10
8149.5
 20
219530.257756
 30
0.0
 11
8047.752886
 21
219530.257756
 31
0.0
  0
SOLID
  5
26
  8
0
  6
BYBLOCK
 62
     9
 10
7850.5
 20
219533.591089
 30
0.0
 11
7850.5
 21
219526.924423
 31
0.0
 12
7830.5
 22
219530.257756
 32
0.0
 13
7830.5
 23
219530.257756
 33
0.0
  0
SOLID
  5
27
  8
0
  6
BYBLOCK
 62
     9
 10
8149.5
 20
219533.591089
 30
0.0
 11
8149.5
 21
219526.924423
 31
0.0
 12
8169.5
 22
219530.257756
 32
0.0
 13
8169.5
 23
219530.257756
 33
0.0
  0
TEXT
  5
28
  8
0
  6
BYBLOCK
 62
    11
 10
7961.997114
 20
219512.757756
 30
0.0
 40
35.0
  1
339
  0
POINT
  5
29
  8
DEFPOINTS
  6
BYBLOCK
 62
     0
 10
7830.5
 20
219830.5
 30
0.0
  0
POINT
  5
2B
  8
DEFPOINTS
  6
BYBLOCK
 62
     0
 10
8169.5
 20
219830.5
 30
0.0
  0
POINT
  5
2C
  8
DEFPOINTS
  6
BYBLOCK
 62
     0
 10
8169.5
 20
219530.257756
 30
0.0
  0
ENDBLK
  5
2E
  8
0
  0
ENDSEC
  0
SECTION
  2
ENTITIES
  0
DIMENSION
  5
20
  8
TEAM-MAS
  2
*D3
 10
169.5
 20
-469.742244
 30
0.0
 11
0.0
 21
-469.742244
 31
0.0
 12
-8000.0
 22
-220000.0
 32
0.0
 13
-169.5
 23
-169.5
 33
0.0
 14
169.5
 24
-169.5
 34
0.0
1001
ACAD
1000
DSTYLE
1002
{
1070
    40
1040
1.0
1002
}
  0
DIMENSION
  5
2F
  8
TEAM-MAS
  2
*D2
 10
150.0
 20
-423.50459
 30
0.0
 11
0.0
 21
-423.50459
 31
0.0
 12
-8000.0
 22
-220000.0
 32
0.0
 13
-150.0
 23
-169.5
 33
0.0
 14
150.0
 24
-169.5
 34
0.0
1001
ACAD
1000
DSTYLE
1002
{
1070
    40
1040
1.0
1002
}
  0
TEXT
  5
3D
  8
TEAM-TXT
 10
-129.797105
 20
-246.56288
 30
0.0
 40
30.0
  1
team 233008
 41
0.8
 51
15.0
  7
TEAM
  0
CIRCLE
  5
40
  8
TEAM-BODY
 10
0.0
 20
-169.5
 30
0.0
 40
150.0
  0
CIRCLE
  5
42
  8
TEAM-BODY
 10
0.0
 20
-169.5
 30
0.0
 40
169.5
  0
DIMENSION
  5
43
  8
TEAM-MAS
  2
*D1
 10
250.585152
 20
-19.5
 30
0.0
 11
250.585152
 21
-169.5
 31
0.0
 12
-8000.0
 22
-220000.0
 32
0.0
 13
0.0
 23
-319.5
 33
0.0
 14
0.0
 24
-19.5
 34
0.0
 50
90.0
1001
ACAD
1000
DSTYLE
1002
{
1070
    40
1040
1.0
1002
}
  0
DIMENSION
  5
51
  8
TEAM-MAS
  2
*D0
 10
301.178632
 20
0.0
 30
0.0
 11
301.178632
 21
-169.5
 31
0.0
 12
-8000.0
 22
-220000.0
 32
0.0
 13
0.0
 23
-339.0
 33
0.0
 14
0.0
 24
0.0
 34
0.0
 50
90.0
1001
ACAD
1000
DSTYLE
1002
{
1070
    40
1040
1.0
1002
}
  0
CIRCLE
  5
5F
  8
TEAM-INSP
 10
0.0
 20
0.0
 30
0.0
 40
10.0
  0
POLYLINE
  5
61
  8
TEAM-DET1
 66
     1
 10
0.0
 20
0.0
 30
0.0
 70
   129
  0
VERTEX
  5
15D
  8
TEAM-DET1
 10
-23.969674
 20
-33.235345
 30
0.0
  0
VERTEX
  5
15E
  8
TEAM-DET1
 10
-23.536511
 20
-34.884238
 30
0.0
  0
VERTEX
  5
15F
  8
TEAM-DET1
 10
-22.252677
 20
-36.473536
 30
0.0
  0
VERTEX
  5
160
  8
TEAM-DET1
 10
-20.164573
 20
-37.945797
 30
0.0
  0
VERTEX
  5
161
  8
TEAM-DET1
 10
-17.347669
 20
-39.24781
 30
0.0
  0
VERTEX
  5
162
  8
TEAM-DET1
 10
-13.903775
 20
-40.332516
 30
0.0
  0
VERTEX
  5
163
  8
TEAM-DET1
 10
-9.957363
 20
-41.160713
 30
0.0
  0
VERTEX
  5
164
  8
TEAM-DET1
 10
-5.651065
 20
-41.702466
 30
0.0
  0
VERTEX
  5
165
  8
TEAM-DET1
 10
-1.140523
 20
-41.938195
 30
0.0
  0
VERTEX
  5
166
  8
TEAM-DET1
 10
3.41124
 20
-41.859381
 30
0.0
  0
VERTEX
  5
167
  8
TEAM-DET1
 10
7.839713
 20
-41.468871
 30
0.0
  0
VERTEX
  5
168
  8
TEAM-DET1
 10
11.984837
 20
-40.780781
 30
0.0
  0
VERTEX
  5
169
  8
TEAM-DET1
 10
15.696798
 20
-39.819979
 30
0.0
  0
VERTEX
  5
16A
  8
TEAM-DET1
 10
18.841437
 20
-38.621191
 30
0.0
  0
VERTEX
  5
16B
  8
TEAM-DET1
 10
21.305096
 20
-37.227744
 30
0.0
  0
VERTEX
  5
16C
  8
TEAM-DET1
 10
22.998734
 20
-35.690002
 30
0.0
  0
VERTEX
  5
16D
  8
TEAM-DET1
 10
23.861138
 20
-34.063542
 30
0.0
  0
VERTEX
  5
16E
  8
TEAM-DET1
 10
23.861138
 20
-32.407149
 30
0.0
  0
VERTEX
  5
16F
  8
TEAM-DET1
 10
22.998734
 20
-30.780689
 30
0.0
  0
VERTEX
  5
170
  8
TEAM-DET1
 10
21.305096
 20
-29.242947
 30
0.0
  0
VERTEX
  5
171
  8
TEAM-DET1
 10
18.841437
 20
-27.8495
 30
0.0
  0
VERTEX
  5
172
  8
TEAM-DET1
 10
15.696798
 20
-26.650712
 30
0.0
  0
VERTEX
  5
173
  8
TEAM-DET1
 10
11.984837
 20
-25.68991
 30
0.0
  0
VERTEX
  5
174
  8
TEAM-DET1
 10
7.839713
 20
-25.001819
 30
0.0
  0
VERTEX
  5
175
  8
TEAM-DET1
 10
3.41124
 20
-24.61131
 30
0.0
  0
VERTEX
  5
176
  8
TEAM-DET1
 10
-1.140523
 20
-24.532496
 30
0.0
  0
VERTEX
  5
177
  8
TEAM-DET1
 10
-5.651065
 20
-24.768225
 30
0.0
  0
VERTEX
  5
178
  8
TEAM-DET1
 10
-9.957363
 20
-25.309978
 30
0.0
  0
VERTEX
  5
179
  8
TEAM-DET1
 10
-13.903775
 20
-26.138174
 30
0.0
  0
VERTEX
  5
17A
  8
TEAM-DET1
 10
-17.347669
 20
-27.222881
 30
0.0
  0
VERTEX
  5
17B
  8
TEAM-DET1
 10
-20.164573
 20
-28.524894
 30
0.0
  0
VERTEX
  5
17C
  8
TEAM-DET1
 10
-22.252677
 20
-29.997155
 30
0.0
  0
VERTEX
  5
17D
  8
TEAM-DET1
 10
-23.536511
 20
-31.586453
 30
0.0
  0
SEQEND
  5
17E
  8
TEAM-DET1
  0
CIRCLE
  5
63
  8
TEAM-BODY
 10
0.0
 20
-169.5
 30
0.0
 40
20.0
  0
LINE
  5
64
  8
TEAM-AXE
 10
0.0
 20
-209.5
 30
0.0
 11
0.0
 21
-129.5
 31
0.0
  0
LINE
  5
67
  8
TEAM-AXE
 10
-40.0
 20
-169.5
 30
0.0
 11
40.0
 21
-169.5
 31
0.0
  0
CIRCLE
  5
68
  8
TEAM-DET1
 10
0.0
 20
-169.5
 30
0.0
 40
30.0
  0
ENDSEC
  0
EOF
