  0
SECTION
  2
HEADER
  9
$ACADVER
  1
AC1009
  9
$INSBASE
 10
0.0
 20
0.0
 30
0.0
  9
$EXTMIN
 10
-228.037713
 20
-608.664164
 30
0.0
  9
$EXTMAX
 10
390.644766
 20
10.03772
 30
0.0
  9
$LIMMIN
 10
-228.037713
 20
-608.664164
  9
$LIMMAX
 10
390.644766
 20
10.03772
  9
$ORTHOMODE
 70
     1
  9
$REGENMODE
 70
     1
  9
$FILLMODE
 70
     1
  9
$QTEXTMODE
 70
     0
  9
$MIRRTEXT
 70
     0
  9
$DRAGMODE
 70
     2
  9
$LTSCALE
 40
25.0
  9
$OSMODE
 70
     0
  9
$ATTMODE
 70
     1
  9
$TEXTSIZE
 40
200.0
  9
$TRACEWID
 40
1.0
  9
$TEXTSTYLE
  7
STANDARD
  9
$CLAYER
  8
TEAM-MAS
  9
$CELTYPE
  6
BYLAYER
  9
$CECOLOR
 62
   256
  9
$DIMSCALE
 40
1.0
  9
$DIMASZ
 40
20.0
  9
$DIMEXO
 40
10.0
  9
$DIMDLI
 40
1.0
  9
$DIMRND
 40
0.0
  9
$DIMDLE
 40
0.0
  9
$DIMEXE
 40
1.0
  9
$DIMTP
 40
0.0
  9
$DIMTM
 40
0.0
  9
$DIMTXT
 40
35.0
  9
$DIMCEN
 40
1.0
  9
$DIMTSZ
 40
0.0
  9
$DIMTOL
 70
     0
  9
$DIMLIM
 70
     0
  9
$DIMTIH
 70
     0
  9
$DIMTOH
 70
     0
  9
$DIMSE1
 70
     0
  9
$DIMSE2
 70
     0
  9
$DIMTAD
 70
     0
  9
$DIMZIN
 70
     0
  9
$DIMBLK
  1

  9
$DIMASO
 70
     1
  9
$DIMSHO
 70
     0
  9
$DIMPOST
  1

  9
$DIMAPOST
  1

  9
$DIMALT
 70
     0
  9
$DIMALTD
 70
     2
  9
$DIMALTF
 40
25.4
  9
$DIMLFAC
 40
1.0
  9
$DIMTOFL
 70
     0
  9
$DIMTVP
 40
0.0
  9
$DIMTIX
 70
     0
  9
$DIMSOXD
 70
     0
  9
$DIMSAH
 70
     0
  9
$DIMBLK1
  1

  9
$DIMBLK2
  1

  9
$DIMSTYLE
  2
TEAM
  9
$DIMCLRD
 70
     9
  9
$DIMCLRE
 70
     9
  9
$DIMCLRT
 70
    11
  9
$DIMTFAC
 40
1.0
  9
$DIMGAP
 40
15.0
  9
$LUNITS
 70
     2
  9
$LUPREC
 70
     1
  9
$SKETCHINC
 40
1.0
  9
$FILLETRAD
 40
50.0
  9
$AUNITS
 70
     0
  9
$AUPREC
 70
     0
  9
$MENU
  1
ROPLANS
  9
$ELEVATION
 40
0.0
  9
$PELEVATION
 40
0.0
  9
$THICKNESS
 40
0.0
  9
$LIMCHECK
 70
     0
  9
$BLIPMODE
 70
     1
  9
$CHAMFERA
 40
0.0
  9
$CHAMFERB
 40
0.0
  9
$SKPOLY
 70
     0
  9
$TDCREATE
 40
2450392.957851
  9
$TDUPDATE
 40
2455505.473099
  9
$TDINDWG
 40
2.023557
  9
$TDUSRTIMER
 40
2.023557
  9
$USRTIMER
 70
     1
  9
$ANGBASE
 50
0.0
  9
$ANGDIR
 70
     0
  9
$PDMODE
 70
     0
  9
$PDSIZE
 40
0.0
  9
$PLINEWID
 40
0.0
  9
$COORDS
 70
     2
  9
$SPLFRAME
 70
     0
  9
$SPLINETYPE
 70
     6
  9
$SPLINESEGS
 70
     8
  9
$ATTDIA
 70
     0
  9
$ATTREQ
 70
     0
  9
$HANDLING
 70
     1
  9
$HANDSEED
  5
180
  9
$SURFTAB1
 70
    24
  9
$SURFTAB2
 70
    24
  9
$SURFTYPE
 70
     6
  9
$SURFU
 70
     6
  9
$SURFV
 70
     6
  9
$UCSNAME
  2

  9
$UCSORG
 10
0.0
 20
0.0
 30
0.0
  9
$UCSXDIR
 10
1.0
 20
0.0
 30
0.0
  9
$UCSYDIR
 10
0.0
 20
1.0
 30
0.0
  9
$PUCSNAME
  2

  9
$PUCSORG
 10
0.0
 20
0.0
 30
0.0
  9
$PUCSXDIR
 10
1.0
 20
0.0
 30
0.0
  9
$PUCSYDIR
 10
0.0
 20
1.0
 30
0.0
  9
$USERI1
 70
     0
  9
$USERI2
 70
     0
  9
$USERI3
 70
     0
  9
$USERI4
 70
     0
  9
$USERI5
 70
     0
  9
$USERR1
 40
0.0
  9
$USERR2
 40
0.0
  9
$USERR3
 40
0.0
  9
$USERR4
 40
0.0
  9
$USERR5
 40
0.0
  9
$WORLDVIEW
 70
     1
  9
$SHADEDGE
 70
     0
  9
$SHADEDIF
 70
    70
  9
$TILEMODE
 70
     1
  9
$MAXACTVP
 70
    16
  9
$PLIMCHECK
 70
     0
  9
$PEXTMIN
 10
-0.805942
 20
0.005011
 30
0.0
  9
$PEXTMAX
 10
20.250094
 20
11.356329
 30
0.0
  9
$PLIMMIN
 10
0.0
 20
0.0
  9
$PLIMMAX
 10
12.0
 20
9.0
  9
$UNITMODE
 70
     0
  9
$VISRETAIN
 70
     0
  9
$PLINEGEN
 70
     0
  9
$PSLTSCALE
 70
     0
  0
ENDSEC
  0
SECTION
  2
TABLES
  0
TABLE
  2
VPORT
 70
     2
  0
VPORT
  2
*ACTIVE
 70
     0
 10
0.0
 20
0.0
 11
1.0
 21
1.0
 12
81.303527
 22
-299.313222
 13
0.0
 23
0.0
 14
1.0
 24
1.0
 15
50.0
 25
50.0
 16
0.0
 26
0.0
 36
1.0
 17
0.0
 27
0.0
 37
0.0
 40
622.501487
 41
1.865779
 42
50.0
 43
0.0
 44
0.0
 50
0.0
 51
0.0
 71
     0
 72
   100
 73
     1
 74
     1
 75
     0
 76
     0
 77
     0
 78
     0
  0
ENDTAB
  0
TABLE
  2
LTYPE
 70
     2
  0
LTYPE
  2
CONTINUOUS
 70
     0
  3
Solid Line
 72
    65
 73
     0
 40
0.0
  0
LTYPE
  2
31
 70
     0
  3

 72
    65
 73
     4
 40
2.1
 49
1.5
 49
-0.3
 49
0.0
 49
-0.3
  0
ENDTAB
  0
TABLE
  2
LAYER
 70
     8
  0
LAYER
  2
0
 70
     0
 62
     7
  6
CONTINUOUS
  0
LAYER
  2
DEFPOINTS
 70
     0
 62
     7
  6
CONTINUOUS
  0
LAYER
  2
TEAM-BODY
 70
     0
 62
     2
  6
CONTINUOUS
  0
LAYER
  2
TEAM-AXE
 70
     0
 62
    10
  6
31
  0
LAYER
  2
TEAM-MAS
 70
     0
 62
     9
  6
CONTINUOUS
  0
LAYER
  2
TEAM-TXT
 70
     0
 62
    11
  6
CONTINUOUS
  0
LAYER
  2
TEAM-DET1
 70
     0
 62
     4
  6
CONTINUOUS
  0
LAYER
  2
TEAM-INSP
 70
     0
 62
     5
  6
CONTINUOUS
  0
ENDTAB
  0
TABLE
  2
STYLE
 70
     2
  0
STYLE
  2
STANDARD
 70
     0
 40
0.0
 41
1.0
 50
0.0
 71
     0
 42
200.0
  3
txt
  4

  0
STYLE
  2
TEAM
 70
     0
 40
0.0
 41
0.8
 50
15.0
 71
     0
 42
7.0
  3
ROMANS.shx
  4

  0
ENDTAB
  0
TABLE
  2
VIEW
 70
     0
  0
ENDTAB
  0
TABLE
  2
UCS
 70
     0
  0
ENDTAB
  0
TABLE
  2
APPID
 70
     1
  0
APPID
  2
ACAD
 70
     0
  0
ENDTAB
  0
TABLE
  2
DIMSTYLE
 70
     1
  0
DIMSTYLE
  2
TEAM
 70
     0
  3

  4

  5

  6

  7

 40
1.0
 41
20.0
 42
10.0
 43
1.0
 44
1.0
 45
0.0
 46
0.0
 47
0.0
 48
0.0
140
35.0
141
1.0
142
0.0
143
25.4
144
1.0
145
0.0
146
1.0
147
15.0
 71
     0
 72
     0
 73
     0
 74
     0
 75
     0
 76
     0
 77
     0
 78
     0
170
     0
171
     2
172
     0
173
     0
174
     0
175
     0
176
     9
177
     9
178
    11
  0
ENDTAB
  0
ENDSEC
  0
SECTION
  2
BLOCKS
  0
BLOCK
  8
0
  2
$MODEL_SPACE
 70
     0
 10
0.0
 20
0.0
 30
0.0
  3
$MODEL_SPACE
  1

  0
ENDBLK
  5
157
  8
0
  0
BLOCK
 67
     1
  8
0
  2
$PAPER_SPACE
 70
     0
 10
0.0
 20
0.0
 30
0.0
  3
$PAPER_SPACE
  1

  0
ENDBLK
  5
155
 67
     1
  8
0
  0
BLOCK
  8
0
  2
*D0
 70
     1
 10
0.0
 20
0.0
 30
0.0
  3
*D0
  1

  0
LINE
  5
58
  8
0
  6
BYBLOCK
 62
     9
 10
10.0
 20
227563.0
 30
0.0
 11
313.014962
 21
227563.0
 31
0.0
  0
LINE
  5
59
  8
0
  6
BYBLOCK
 62
     9
 10
10.0
 20
227981.0
 30
0.0
 11
313.014962
 21
227981.0
 31
0.0
  0
LINE
  5
5A
  8
0
  6
BYBLOCK
 62
     9
 10
312.014962
 20
227583.0
 30
0.0
 11
312.014962
 21
227727.25
 31
0.0
  0
LINE
  5
5B
  8
0
  6
BYBLOCK
 62
     9
 10
312.014962
 20
227961.0
 30
0.0
 11
312.014962
 21
227816.75
 31
0.0
  0
SOLID
  5
5C
  8
0
  6
BYBLOCK
 62
     9
 10
308.681629
 20
227583.0
 30
0.0
 11
315.348296
 21
227583.0
 31
0.0
 12
312.014962
 22
227563.0
 32
0.0
 13
312.014962
 23
227563.0
 33
0.0
  0
SOLID
  5
5D
  8
0
  6
BYBLOCK
 62
     9
 10
308.681629
 20
227961.0
 30
0.0
 11
315.348296
 21
227961.0
 31
0.0
 12
312.014962
 22
227981.0
 32
0.0
 13
312.014962
 23
227981.0
 33
0.0
  0
TEXT
  5
5E
  8
0
  6
BYBLOCK
 62
    11
 10
329.514962
 20
227737.0
 30
0.0
 40
35.0
  1
418
 50
90.0
  0
POINT
  5
5F
  8
DEFPOINTS
  6
BYBLOCK
 62
     0
 10
0.0
 20
227563.0
 30
0.0
  0
POINT
  5
60
  8
DEFPOINTS
  6
BYBLOCK
 62
     0
 10
0.0
 20
227981.0
 30
0.0
  0
POINT
  5
61
  8
DEFPOINTS
  6
BYBLOCK
 62
     0
 10
312.014962
 20
227981.0
 30
0.0
  0
ENDBLK
  5
63
  8
0
  0
BLOCK
  8
0
  2
*D1
 70
     1
 10
0.0
 20
0.0
 30
0.0
  3
*D1
  1

  0
LINE
  5
4A
  8
0
  6
BYBLOCK
 62
     9
 10
-209.0
 20
227762.0
 30
0.0
 11
-209.0
 21
227460.040959
 31
0.0
  0
LINE
  5
4B
  8
0
  6
BYBLOCK
 62
     9
 10
209.0
 20
227762.0
 30
0.0
 11
209.0
 21
227460.040959
 31
0.0
  0
LINE
  5
4C
  8
0
  6
BYBLOCK
 62
     9
 10
-189.0
 20
227461.040959
 30
0.0
 11
-44.75
 21
227461.040959
 31
0.0
  0
LINE
  5
4D
  8
0
  6
BYBLOCK
 62
     9
 10
189.0
 20
227461.040959
 30
0.0
 11
44.75
 21
227461.040959
 31
0.0
  0
SOLID
  5
4E
  8
0
  6
BYBLOCK
 62
     9
 10
-189.0
 20
227464.374292
 30
0.0
 11
-189.0
 21
227457.707625
 31
0.0
 12
-209.0
 22
227461.040959
 32
0.0
 13
-209.0
 23
227461.040959
 33
0.0
  0
SOLID
  5
4F
  8
0
  6
BYBLOCK
 62
     9
 10
189.0
 20
227464.374292
 30
0.0
 11
189.0
 21
227457.707625
 31
0.0
 12
209.0
 22
227461.040959
 32
0.0
 13
209.0
 23
227461.040959
 33
0.0
  0
TEXT
  5
50
  8
0
  6
BYBLOCK
 62
    11
 10
-35.0
 20
227443.540959
 30
0.0
 40
35.0
  1
418
  0
POINT
  5
51
  8
DEFPOINTS
  6
BYBLOCK
 62
     0
 10
-209.0
 20
227772.0
 30
0.0
  0
POINT
  5
52
  8
DEFPOINTS
  6
BYBLOCK
 62
     0
 10
209.0
 20
227772.0
 30
0.0
  0
POINT
  5
53
  8
DEFPOINTS
  6
BYBLOCK
 62
     0
 10
209.0
 20
227461.040959
 30
0.0
  0
ENDBLK
  5
55
  8
0
  0
BLOCK
  8
0
  2
*D2
 70
     1
 10
0.0
 20
0.0
 30
0.0
  3
*D2
  1

  0
LINE
  5
3C
  8
0
  6
BYBLOCK
 62
     9
 10
10.0
 20
227544.0
 30
0.0
 11
374.444515
 21
227544.0
 31
0.0
  0
LINE
  5
3D
  8
0
  6
BYBLOCK
 62
     9
 10
10.0
 20
228000.0
 30
0.0
 11
374.444515
 21
228000.0
 31
0.0
  0
LINE
  5
3E
  8
0
  6
BYBLOCK
 62
     9
 10
373.444515
 20
227564.0
 30
0.0
 11
373.444515
 21
227722.88189
 31
0.0
  0
LINE
  5
3F
  8
0
  6
BYBLOCK
 62
     9
 10
373.444515
 20
227980.0
 30
0.0
 11
373.444515
 21
227821.11811
 31
0.0
  0
SOLID
  5
40
  8
0
  6
BYBLOCK
 62
     9
 10
370.111182
 20
227564.0
 30
0.0
 11
376.777849
 21
227564.0
 31
0.0
 12
373.444515
 22
227544.0
 32
0.0
 13
373.444515
 23
227544.0
 33
0.0
  0
SOLID
  5
41
  8
0
  6
BYBLOCK
 62
     9
 10
370.111182
 20
227980.0
 30
0.0
 11
376.777849
 21
227980.0
 31
0.0
 12
373.444515
 22
228000.0
 32
0.0
 13
373.444515
 23
228000.0
 33
0.0
  0
TEXT
  5
42
  8
0
  6
BYBLOCK
 62
    11
 10
390.944515
 20
227732.63189
 30
0.0
 40
35.0
  1
456
 50
90.0
  0
POINT
  5
43
  8
DEFPOINTS
  6
BYBLOCK
 62
     0
 10
0.0
 20
227544.0
 30
0.0
  0
POINT
  5
44
  8
DEFPOINTS
  6
BYBLOCK
 62
     0
 10
0.0
 20
228000.0
 30
0.0
  0
POINT
  5
45
  8
DEFPOINTS
  6
BYBLOCK
 62
     0
 10
373.444515
 20
228000.0
 30
0.0
  0
ENDBLK
  5
47
  8
0
  0
BLOCK
  8
0
  2
*D3
 70
     1
 10
0.0
 20
0.0
 30
0.0
  3
*D3
  1

  0
LINE
  5
2D
  8
0
  6
BYBLOCK
 62
     9
 10
-228.0
 20
227762.0
 30
0.0
 11
-228.0
 21
227407.536127
 31
0.0
  0
LINE
  5
2E
  8
0
  6
BYBLOCK
 62
     9
 10
228.0
 20
227762.0
 30
0.0
 11
228.0
 21
227407.536127
 31
0.0
  0
LINE
  5
2F
  8
0
  6
BYBLOCK
 62
     9
 10
-208.0
 20
227408.536127
 30
0.0
 11
-49.11811
 21
227408.536127
 31
0.0
  0
LINE
  5
30
  8
0
  6
BYBLOCK
 62
     9
 10
208.0
 20
227408.536127
 30
0.0
 11
49.11811
 21
227408.536127
 31
0.0
  0
SOLID
  5
31
  8
0
  6
BYBLOCK
 62
     9
 10
-208.0
 20
227411.86946
 30
0.0
 11
-208.0
 21
227405.202793
 31
0.0
 12
-228.0
 22
227408.536127
 32
0.0
 13
-228.0
 23
227408.536127
 33
0.0
  0
SOLID
  5
32
  8
0
  6
BYBLOCK
 62
     9
 10
208.0
 20
227411.86946
 30
0.0
 11
208.0
 21
227405.202793
 31
0.0
 12
228.0
 22
227408.536127
 32
0.0
 13
228.0
 23
227408.536127
 33
0.0
  0
TEXT
  5
33
  8
0
  6
BYBLOCK
 62
    11
 10
-39.36811
 20
227391.036127
 30
0.0
 40
35.0
  1
456
  0
POINT
  5
34
  8
DEFPOINTS
  6
BYBLOCK
 62
     0
 10
-228.0
 20
227772.0
 30
0.0
  0
POINT
  5
36
  8
DEFPOINTS
  6
BYBLOCK
 62
     0
 10
228.0
 20
227772.0
 30
0.0
  0
POINT
  5
37
  8
DEFPOINTS
  6
BYBLOCK
 62
     0
 10
228.0
 20
227408.536127
 30
0.0
  0
ENDBLK
  5
39
  8
0
  0
ENDSEC
  0
SECTION
  2
ENTITIES
  0
CIRCLE
  5
20
  8
TEAM-DET1
 10
0.0
 20
-228.0
 30
0.0
 40
30.0
  0
LINE
  5
22
  8
TEAM-AXE
 10
-40.0
 20
-228.0
 30
0.0
 11
40.0
 21
-228.0
 31
0.0
  0
LINE
  5
25
  8
TEAM-AXE
 10
0.0
 20
-268.0
 30
0.0
 11
0.0
 21
-188.0
 31
0.0
  0
CIRCLE
  5
26
  8
TEAM-BODY
 10
0.0
 20
-228.0
 30
0.0
 40
20.0
  0
POLYLINE
  5
28
  8
TEAM-DET1
 66
     1
 10
0.0
 20
0.0
 30
0.0
 70
   129
  0
VERTEX
  5
15D
  8
TEAM-DET1
 10
-23.969674
 20
-31.550658
 30
0.0
  0
VERTEX
  5
15E
  8
TEAM-DET1
 10
-23.536511
 20
-33.19955
 30
0.0
  0
VERTEX
  5
15F
  8
TEAM-DET1
 10
-22.252677
 20
-34.788848
 30
0.0
  0
VERTEX
  5
160
  8
TEAM-DET1
 10
-20.164573
 20
-36.261109
 30
0.0
  0
VERTEX
  5
161
  8
TEAM-DET1
 10
-17.347669
 20
-37.563122
 30
0.0
  0
VERTEX
  5
162
  8
TEAM-DET1
 10
-13.903775
 20
-38.647829
 30
0.0
  0
VERTEX
  5
163
  8
TEAM-DET1
 10
-9.957363
 20
-39.476025
 30
0.0
  0
VERTEX
  5
164
  8
TEAM-DET1
 10
-5.651065
 20
-40.017778
 30
0.0
  0
VERTEX
  5
165
  8
TEAM-DET1
 10
-1.140523
 20
-40.253507
 30
0.0
  0
VERTEX
  5
166
  8
TEAM-DET1
 10
3.41124
 20
-40.174693
 30
0.0
  0
VERTEX
  5
167
  8
TEAM-DET1
 10
7.839713
 20
-39.784184
 30
0.0
  0
VERTEX
  5
168
  8
TEAM-DET1
 10
11.984837
 20
-39.096093
 30
0.0
  0
VERTEX
  5
169
  8
TEAM-DET1
 10
15.696798
 20
-38.135291
 30
0.0
  0
VERTEX
  5
16A
  8
TEAM-DET1
 10
18.841437
 20
-36.936503
 30
0.0
  0
VERTEX
  5
16B
  8
TEAM-DET1
 10
21.305096
 20
-35.543056
 30
0.0
  0
VERTEX
  5
16C
  8
TEAM-DET1
 10
22.998734
 20
-34.005314
 30
0.0
  0
VERTEX
  5
16D
  8
TEAM-DET1
 10
23.861138
 20
-32.378854
 30
0.0
  0
VERTEX
  5
16E
  8
TEAM-DET1
 10
23.861138
 20
-30.722461
 30
0.0
  0
VERTEX
  5
16F
  8
TEAM-DET1
 10
22.998734
 20
-29.096001
 30
0.0
  0
VERTEX
  5
170
  8
TEAM-DET1
 10
21.305096
 20
-27.558259
 30
0.0
  0
VERTEX
  5
171
  8
TEAM-DET1
 10
18.841437
 20
-26.164812
 30
0.0
  0
VERTEX
  5
172
  8
TEAM-DET1
 10
15.696798
 20
-24.966024
 30
0.0
  0
VERTEX
  5
173
  8
TEAM-DET1
 10
11.984837
 20
-24.005222
 30
0.0
  0
VERTEX
  5
174
  8
TEAM-DET1
 10
7.839713
 20
-23.317132
 30
0.0
  0
VERTEX
  5
175
  8
TEAM-DET1
 10
3.41124
 20
-22.926622
 30
0.0
  0
VERTEX
  5
176
  8
TEAM-DET1
 10
-1.140523
 20
-22.847808
 30
0.0
  0
VERTEX
  5
177
  8
TEAM-DET1
 10
-5.651065
 20
-23.083537
 30
0.0
  0
VERTEX
  5
178
  8
TEAM-DET1
 10
-9.957363
 20
-23.62529
 30
0.0
  0
VERTEX
  5
179
  8
TEAM-DET1
 10
-13.903775
 20
-24.453487
 30
0.0
  0
VERTEX
  5
17A
  8
TEAM-DET1
 10
-17.347669
 20
-25.538193
 30
0.0
  0
VERTEX
  5
17B
  8
TEAM-DET1
 10
-20.164573
 20
-26.840206
 30
0.0
  0
VERTEX
  5
17C
  8
TEAM-DET1
 10
-22.252677
 20
-28.312467
 30
0.0
  0
VERTEX
  5
17D
  8
TEAM-DET1
 10
-23.536511
 20
-29.901765
 30
0.0
  0
SEQEND
  5
17E
  8
TEAM-DET1
  0
CIRCLE
  5
29
  8
TEAM-INSP
 10
0.0
 20
0.0
 30
0.0
 40
10.0
  0
DIMENSION
  5
2B
  8
TEAM-MAS
  2
*D3
 10
228.0
 20
-591.463873
 30
0.0
 11
0.0
 21
-591.463873
 31
0.0
 12
0.0
 22
-228000.0
 32
0.0
 13
-228.0
 23
-228.0
 33
0.0
 14
228.0
 24
-228.0
 34
0.0
1001
ACAD
1000
DSTYLE
1002
{
1070
    40
1040
1.0
1002
}
  0
DIMENSION
  5
3A
  8
TEAM-MAS
  2
*D2
 10
373.444515
 20
0.0
 30
0.0
 11
373.444515
 21
-228.0
 31
0.0
 12
0.0
 22
-228000.0
 32
0.0
 13
0.0
 23
-456.0
 33
0.0
 14
0.0
 24
0.0
 34
0.0
 50
90.0
1001
ACAD
1000
DSTYLE
1002
{
1070
    40
1040
1.0
1002
}
  0
DIMENSION
  5
48
  8
TEAM-MAS
  2
*D1
 10
209.0
 20
-538.959041
 30
0.0
 11
0.0
 21
-538.959041
 31
0.0
 12
0.0
 22
-228000.0
 32
0.0
 13
-209.0
 23
-228.0
 33
0.0
 14
209.0
 24
-228.0
 34
0.0
1001
ACAD
1000
DSTYLE
1002
{
1070
    40
1040
1.0
1002
}
  0
DIMENSION
  5
56
  8
TEAM-MAS
  2
*D0
 10
312.014962
 20
-19.0
 30
0.0
 11
312.014962
 21
-228.0
 31
0.0
 12
0.0
 22
-228000.0
 32
0.0
 13
0.0
 23
-437.0
 33
0.0
 14
0.0
 24
-19.0
 34
0.0
 50
90.0
1001
ACAD
1000
DSTYLE
1002
{
1070
    40
1040
1.0
1002
}
  0
CIRCLE
  5
64
  8
TEAM-BODY
 10
0.0
 20
-228.0
 30
0.0
 40
209.0
  0
CIRCLE
  5
65
  8
TEAM-BODY
 10
0.0
 20
-228.0
 30
0.0
 40
228.0
  0
TEXT
  5
66
  8
TEAM-TXT
 10
-108.836879
 20
-312.287499
 30
0.0
 40
30.0
  1
team 233010
 41
0.8
 51
15.0
  7
TEAM
  0
ENDSEC
  0
EOF
