  0
SECTION
  2
HEADER
  9
$ACADVER
  1
AC1009
  9
$INSBASE
 10
0.0
 20
0.0
 30
0.0
  9
$EXTMIN
 10
-256.038686
 20
-516.880982
 30
0.0
  9
$EXTMAX
 10
378.747799
 20
10.032116
 30
0.0
  9
$LIMMIN
 10
-256.038686
 20
-516.880982
  9
$LIMMAX
 10
378.747799
 20
10.032116
  9
$ORTHOMODE
 70
     1
  9
$REGENMODE
 70
     1
  9
$FILLMODE
 70
     1
  9
$QTEXTMODE
 70
     0
  9
$MIRRTEXT
 70
     0
  9
$DRAGMODE
 70
     2
  9
$LTSCALE
 40
25.0
  9
$OSMODE
 70
     0
  9
$ATTMODE
 70
     1
  9
$TEXTSIZE
 40
200.0
  9
$TRACEWID
 40
1.0
  9
$TEXTSTYLE
  7
STANDARD
  9
$CLAYER
  8
TEAM-MAS
  9
$CELTYPE
  6
BYLAYER
  9
$CECOLOR
 62
   256
  9
$DIMSCALE
 40
1.0
  9
$DIMASZ
 40
20.0
  9
$DIMEXO
 40
10.0
  9
$DIMDLI
 40
1.0
  9
$DIMRND
 40
0.0
  9
$DIMDLE
 40
0.0
  9
$DIMEXE
 40
1.0
  9
$DIMTP
 40
0.0
  9
$DIMTM
 40
0.0
  9
$DIMTXT
 40
35.0
  9
$DIMCEN
 40
1.0
  9
$DIMTSZ
 40
0.0
  9
$DIMTOL
 70
     0
  9
$DIMLIM
 70
     0
  9
$DIMTIH
 70
     0
  9
$DIMTOH
 70
     0
  9
$DIMSE1
 70
     0
  9
$DIMSE2
 70
     0
  9
$DIMTAD
 70
     0
  9
$DIMZIN
 70
     0
  9
$DIMBLK
  1

  9
$DIMASO
 70
     1
  9
$DIMSHO
 70
     0
  9
$DIMPOST
  1

  9
$DIMAPOST
  1

  9
$DIMALT
 70
     0
  9
$DIMALTD
 70
     2
  9
$DIMALTF
 40
25.4
  9
$DIMLFAC
 40
1.0
  9
$DIMTOFL
 70
     0
  9
$DIMTVP
 40
0.0
  9
$DIMTIX
 70
     0
  9
$DIMSOXD
 70
     0
  9
$DIMSAH
 70
     0
  9
$DIMBLK1
  1

  9
$DIMBLK2
  1

  9
$DIMSTYLE
  2
TEAM
  9
$DIMCLRD
 70
     9
  9
$DIMCLRE
 70
     9
  9
$DIMCLRT
 70
    11
  9
$DIMTFAC
 40
1.0
  9
$DIMGAP
 40
15.0
  9
$LUNITS
 70
     2
  9
$LUPREC
 70
     1
  9
$SKETCHINC
 40
1.0
  9
$FILLETRAD
 40
50.0
  9
$AUNITS
 70
     0
  9
$AUPREC
 70
     0
  9
$MENU
  1
ROPLANS
  9
$ELEVATION
 40
0.0
  9
$PELEVATION
 40
0.0
  9
$THICKNESS
 40
0.0
  9
$LIMCHECK
 70
     0
  9
$BLIPMODE
 70
     1
  9
$CHAMFERA
 40
0.0
  9
$CHAMFERB
 40
0.0
  9
$SKPOLY
 70
     0
  9
$TDCREATE
 40
2450392.957851
  9
$TDUPDATE
 40
2455505.473099
  9
$TDINDWG
 40
2.023557
  9
$TDUSRTIMER
 40
2.023557
  9
$USRTIMER
 70
     1
  9
$ANGBASE
 50
0.0
  9
$ANGDIR
 70
     0
  9
$PDMODE
 70
     0
  9
$PDSIZE
 40
0.0
  9
$PLINEWID
 40
0.0
  9
$COORDS
 70
     2
  9
$SPLFRAME
 70
     0
  9
$SPLINETYPE
 70
     6
  9
$SPLINESEGS
 70
     8
  9
$ATTDIA
 70
     0
  9
$ATTREQ
 70
     0
  9
$HANDLING
 70
     1
  9
$HANDSEED
  5
341
  9
$SURFTAB1
 70
    24
  9
$SURFTAB2
 70
    24
  9
$SURFTYPE
 70
     6
  9
$SURFU
 70
     6
  9
$SURFV
 70
     6
  9
$UCSNAME
  2

  9
$UCSORG
 10
0.0
 20
0.0
 30
0.0
  9
$UCSXDIR
 10
1.0
 20
0.0
 30
0.0
  9
$UCSYDIR
 10
0.0
 20
1.0
 30
0.0
  9
$PUCSNAME
  2

  9
$PUCSORG
 10
0.0
 20
0.0
 30
0.0
  9
$PUCSXDIR
 10
1.0
 20
0.0
 30
0.0
  9
$PUCSYDIR
 10
0.0
 20
1.0
 30
0.0
  9
$USERI1
 70
     0
  9
$USERI2
 70
     0
  9
$USERI3
 70
     0
  9
$USERI4
 70
     0
  9
$USERI5
 70
     0
  9
$USERR1
 40
0.0
  9
$USERR2
 40
0.0
  9
$USERR3
 40
0.0
  9
$USERR4
 40
0.0
  9
$USERR5
 40
0.0
  9
$WORLDVIEW
 70
     1
  9
$SHADEDGE
 70
     0
  9
$SHADEDIF
 70
    70
  9
$TILEMODE
 70
     1
  9
$MAXACTVP
 70
    16
  9
$PLIMCHECK
 70
     0
  9
$PEXTMIN
 10
-0.805942
 20
0.005011
 30
0.0
  9
$PEXTMAX
 10
20.250094
 20
11.356329
 30
0.0
  9
$PLIMMIN
 10
0.0
 20
0.0
  9
$PLIMMAX
 10
12.0
 20
9.0
  9
$UNITMODE
 70
     0
  9
$VISRETAIN
 70
     0
  9
$PLINEGEN
 70
     0
  9
$PSLTSCALE
 70
     0
  0
ENDSEC
  0
SECTION
  2
TABLES
  0
TABLE
  2
VPORT
 70
     2
  0
VPORT
  2
*ACTIVE
 70
     0
 10
0.0
 20
0.0
 11
1.0
 21
1.0
 12
61.354557
 22
-253.424433
 13
0.0
 23
0.0
 14
1.0
 24
1.0
 15
50.0
 25
50.0
 16
0.0
 26
0.0
 36
1.0
 17
0.0
 27
0.0
 37
0.0
 40
530.149002
 41
1.865779
 42
50.0
 43
0.0
 44
0.0
 50
0.0
 51
0.0
 71
     0
 72
   100
 73
     1
 74
     1
 75
     0
 76
     0
 77
     0
 78
     0
  0
ENDTAB
  0
TABLE
  2
LTYPE
 70
     2
  0
LTYPE
  2
CONTINUOUS
 70
     0
  3
Solid Line
 72
    65
 73
     0
 40
0.0
  0
LTYPE
  2
31
 70
     0
  3

 72
    65
 73
     4
 40
2.1
 49
1.5
 49
-0.3
 49
0.0
 49
-0.3
  0
ENDTAB
  0
TABLE
  2
LAYER
 70
     8
  0
LAYER
  2
0
 70
     0
 62
     7
  6
CONTINUOUS
  0
LAYER
  2
DEFPOINTS
 70
     0
 62
     7
  6
CONTINUOUS
  0
LAYER
  2
TEAM-BODY
 70
     0
 62
     2
  6
CONTINUOUS
  0
LAYER
  2
TEAM-AXE
 70
     0
 62
    10
  6
31
  0
LAYER
  2
TEAM-MAS
 70
     0
 62
     9
  6
CONTINUOUS
  0
LAYER
  2
TEAM-TXT
 70
     0
 62
    11
  6
CONTINUOUS
  0
LAYER
  2
TEAM-DET1
 70
     0
 62
     4
  6
CONTINUOUS
  0
LAYER
  2
TEAM-INSP
 70
     0
 62
     5
  6
CONTINUOUS
  0
ENDTAB
  0
TABLE
  2
STYLE
 70
     2
  0
STYLE
  2
STANDARD
 70
     0
 40
0.0
 41
1.0
 50
0.0
 71
     0
 42
200.0
  3
txt
  4

  0
STYLE
  2
TEAM
 70
     0
 40
0.0
 41
0.8
 50
15.0
 71
     0
 42
7.0
  3
ROMANS.shx
  4

  0
ENDTAB
  0
TABLE
  2
VIEW
 70
     0
  0
ENDTAB
  0
TABLE
  2
UCS
 70
     0
  0
ENDTAB
  0
TABLE
  2
APPID
 70
     1
  0
APPID
  2
ACAD
 70
     0
  0
ENDTAB
  0
TABLE
  2
DIMSTYLE
 70
     1
  0
DIMSTYLE
  2
TEAM
 70
     0
  3

  4

  5

  6

  7

 40
1.0
 41
20.0
 42
10.0
 43
1.0
 44
1.0
 45
0.0
 46
0.0
 47
0.0
 48
0.0
140
35.0
141
1.0
142
0.0
143
25.4
144
1.0
145
0.0
146
1.0
147
15.0
 71
     0
 72
     0
 73
     0
 74
     0
 75
     0
 76
     0
 77
     0
 78
     0
170
     0
171
     2
172
     0
173
     0
174
     0
175
     0
176
     9
177
     9
178
    11
  0
ENDTAB
  0
ENDSEC
  0
SECTION
  2
BLOCKS
  0
BLOCK
  8
0
  2
$MODEL_SPACE
 70
     0
 10
0.0
 20
0.0
 30
0.0
  3
$MODEL_SPACE
  1

  0
ENDBLK
  5
2BE
  8
0
  0
BLOCK
 67
     1
  8
0
  2
$PAPER_SPACE
 70
     0
 10
0.0
 20
0.0
 30
0.0
  3
$PAPER_SPACE
  1

  0
ENDBLK
  5
2BC
 67
     1
  8
0
  0
BLOCK
  8
0
  2
*D0
 70
     1
 10
0.0
 20
0.0
 30
0.0
  3
*D0
  1

  0
LINE
  5
50
  8
0
  6
BYBLOCK
 62
     9
 10
7744.0
 20
231796.5
 30
0.0
 11
7744.0
 21
231499.344199
 31
0.0
  0
LINE
  5
51
  8
0
  6
BYBLOCK
 62
     9
 10
8256.0
 20
231796.5
 30
0.0
 11
8256.0
 21
231499.344199
 31
0.0
  0
LINE
  5
52
  8
0
  6
BYBLOCK
 62
     9
 10
7764.0
 20
231500.344199
 30
0.0
 11
7955.948967
 21
231500.344199
 31
0.0
  0
LINE
  5
53
  8
0
  6
BYBLOCK
 62
     9
 10
8236.0
 20
231500.344199
 30
0.0
 11
8044.051033
 21
231500.344199
 31
0.0
  0
SOLID
  5
54
  8
0
  6
BYBLOCK
 62
     9
 10
7764.0
 20
231503.677533
 30
0.0
 11
7764.0
 21
231497.010866
 31
0.0
 12
7744.0
 22
231500.344199
 32
0.0
 13
7744.0
 23
231500.344199
 33
0.0
  0
SOLID
  5
55
  8
0
  6
BYBLOCK
 62
     9
 10
8236.0
 20
231503.677533
 30
0.0
 11
8236.0
 21
231497.010866
 31
0.0
 12
8256.0
 22
231500.344199
 32
0.0
 13
8256.0
 23
231500.344199
 33
0.0
  0
TEXT
  5
56
  8
0
  6
BYBLOCK
 62
    11
 10
7965.698967
 20
231482.844199
 30
0.0
 40
35.0
  1
512
  0
POINT
  5
57
  8
DEFPOINTS
  6
BYBLOCK
 62
     0
 10
7744.0
 20
231806.5
 30
0.0
  0
POINT
  5
58
  8
DEFPOINTS
  6
BYBLOCK
 62
     0
 10
8256.0
 20
231806.5
 30
0.0
  0
POINT
  5
59
  8
DEFPOINTS
  6
BYBLOCK
 62
     0
 10
8256.0
 20
231500.344199
 30
0.0
  0
ENDBLK
  5
5B
  8
0
  0
BLOCK
  8
0
  2
*D1
 70
     1
 10
0.0
 20
0.0
 30
0.0
  3
*D1
  1

  0
LINE
  5
42
  8
0
  6
BYBLOCK
 62
     9
 10
7775.0
 20
231796.5
 30
0.0
 11
7775.0
 21
231547.149438
 31
0.0
  0
LINE
  5
43
  8
0
  6
BYBLOCK
 62
     9
 10
8225.0
 20
231796.5
 30
0.0
 11
8225.0
 21
231547.149438
 31
0.0
  0
LINE
  5
44
  8
0
  6
BYBLOCK
 62
     9
 10
7795.0
 20
231548.149438
 30
0.0
 11
7951.73622
 21
231548.149438
 31
0.0
  0
LINE
  5
45
  8
0
  6
BYBLOCK
 62
     9
 10
8205.0
 20
231548.149438
 30
0.0
 11
8048.26378
 21
231548.149438
 31
0.0
  0
SOLID
  5
46
  8
0
  6
BYBLOCK
 62
     9
 10
7795.0
 20
231551.482772
 30
0.0
 11
7795.0
 21
231544.816105
 31
0.0
 12
7775.0
 22
231548.149438
 32
0.0
 13
7775.0
 23
231548.149438
 33
0.0
  0
SOLID
  5
47
  8
0
  6
BYBLOCK
 62
     9
 10
8205.0
 20
231551.482772
 30
0.0
 11
8205.0
 21
231544.816105
 31
0.0
 12
8225.0
 22
231548.149438
 32
0.0
 13
8225.0
 23
231548.149438
 33
0.0
  0
TEXT
  5
48
  8
0
  6
BYBLOCK
 62
    11
 10
7961.48622
 20
231530.649438
 30
0.0
 40
35.0
  1
450
  0
POINT
  5
49
  8
DEFPOINTS
  6
BYBLOCK
 62
     0
 10
7775.0
 20
231806.5
 30
0.0
  0
POINT
  5
4A
  8
DEFPOINTS
  6
BYBLOCK
 62
     0
 10
8225.0
 20
231806.5
 30
0.0
  0
POINT
  5
4B
  8
DEFPOINTS
  6
BYBLOCK
 62
     0
 10
8225.0
 20
231548.149438
 30
0.0
  0
ENDBLK
  5
4D
  8
0
  0
BLOCK
  8
0
  2
*D2
 70
     1
 10
0.0
 20
0.0
 30
0.0
  3
*D2
  1

  0
LINE
  5
34
  8
0
  6
BYBLOCK
 62
     9
 10
8010.0
 20
231610.5
 30
0.0
 11
8362.268765
 21
231610.5
 31
0.0
  0
LINE
  5
35
  8
0
  6
BYBLOCK
 62
     9
 10
8010.0
 20
232002.5
 30
0.0
 11
8362.268765
 21
232002.5
 31
0.0
  0
LINE
  5
36
  8
0
  6
BYBLOCK
 62
     9
 10
8361.268765
 20
231630.5
 30
0.0
 11
8361.268765
 21
231758.887816
 31
0.0
  0
LINE
  5
37
  8
0
  6
BYBLOCK
 62
     9
 10
8361.268765
 20
231982.5
 30
0.0
 11
8361.268765
 21
231854.112184
 31
0.0
  0
SOLID
  5
38
  8
0
  6
BYBLOCK
 62
     9
 10
8357.935431
 20
231630.5
 30
0.0
 11
8364.602098
 21
231630.5
 31
0.0
 12
8361.268765
 22
231610.5
 32
0.0
 13
8361.268765
 23
231610.5
 33
0.0
  0
SOLID
  5
39
  8
0
  6
BYBLOCK
 62
     9
 10
8357.935431
 20
231982.5
 30
0.0
 11
8364.602098
 21
231982.5
 31
0.0
 12
8361.268765
 22
232002.5
 32
0.0
 13
8361.268765
 23
232002.5
 33
0.0
  0
TEXT
  5
3A
  8
0
  6
BYBLOCK
 62
    11
 10
8378.768765
 20
231768.637816
 30
0.0
 40
35.0
  1
392
 50
90.0
  0
POINT
  5
3B
  8
DEFPOINTS
  6
BYBLOCK
 62
     0
 10
8000.0
 20
231610.5
 30
0.0
  0
POINT
  5
3C
  8
DEFPOINTS
  6
BYBLOCK
 62
     0
 10
8000.0
 20
232002.5
 30
0.0
  0
POINT
  5
3D
  8
DEFPOINTS
  6
BYBLOCK
 62
     0
 10
8361.268765
 20
232002.5
 30
0.0
  0
ENDBLK
  5
3F
  8
0
  0
BLOCK
  8
0
  2
*D3
 70
     1
 10
0.0
 20
0.0
 30
0.0
  3
*D3
  1

  0
LINE
  5
25
  8
0
  6
BYBLOCK
 62
     9
 10
8010.0
 20
231641.5
 30
0.0
 11
8310.095727
 21
231641.5
 31
0.0
  0
LINE
  5
26
  8
0
  6
BYBLOCK
 62
     9
 10
8010.0
 20
231971.5
 30
0.0
 11
8310.095727
 21
231971.5
 31
0.0
  0
LINE
  5
27
  8
0
  6
BYBLOCK
 62
     9
 10
8309.095727
 20
231661.5
 30
0.0
 11
8309.095727
 21
231759.98622
 31
0.0
  0
LINE
  5
28
  8
0
  6
BYBLOCK
 62
     9
 10
8309.095727
 20
231951.5
 30
0.0
 11
8309.095727
 21
231853.01378
 31
0.0
  0
SOLID
  5
29
  8
0
  6
BYBLOCK
 62
     9
 10
8305.762393
 20
231661.5
 30
0.0
 11
8312.42906
 21
231661.5
 31
0.0
 12
8309.095727
 22
231641.5
 32
0.0
 13
8309.095727
 23
231641.5
 33
0.0
  0
SOLID
  5
2A
  8
0
  6
BYBLOCK
 62
     9
 10
8305.762393
 20
231951.5
 30
0.0
 11
8312.42906
 21
231951.5
 31
0.0
 12
8309.095727
 22
231971.5
 32
0.0
 13
8309.095727
 23
231971.5
 33
0.0
  0
TEXT
  5
2B
  8
0
  6
BYBLOCK
 62
    11
 10
8326.595727
 20
231769.73622
 30
0.0
 40
35.0
  1
330
 50
90.0
  0
POINT
  5
2C
  8
DEFPOINTS
  6
BYBLOCK
 62
     0
 10
8000.0
 20
231641.5
 30
0.0
  0
POINT
  5
2E
  8
DEFPOINTS
  6
BYBLOCK
 62
     0
 10
8000.0
 20
231971.5
 30
0.0
  0
POINT
  5
2F
  8
DEFPOINTS
  6
BYBLOCK
 62
     0
 10
8309.095727
 20
231971.5
 30
0.0
  0
ENDBLK
  5
31
  8
0
  0
ENDSEC
  0
SECTION
  2
ENTITIES
  0
TEXT
  5
20
  8
TEAM-TXT
 10
-108.836879
 20
-277.787499
 30
0.0
 40
30.0
  1
team 233015
 41
0.8
 51
15.0
  7
TEAM
  0
DIMENSION
  5
23
  8
TEAM-MAS
  2
*D3
 10
309.095727
 20
-28.5
 30
0.0
 11
309.095727
 21
-193.5
 31
0.0
 12
-8000.0
 22
-232000.0
 32
0.0
 13
0.0
 23
-358.5
 33
0.0
 14
0.0
 24
-28.5
 34
0.0
 50
90.0
1001
ACAD
1000
DSTYLE
1002
{
1070
    40
1040
1.0
1002
}
  0
DIMENSION
  5
32
  8
TEAM-MAS
  2
*D2
 10
361.268765
 20
2.5
 30
0.0
 11
361.268765
 21
-193.5
 31
0.0
 12
-8000.0
 22
-232000.0
 32
0.0
 13
0.0
 23
-389.5
 33
0.0
 14
0.0
 24
2.5
 34
0.0
 50
90.0
1001
ACAD
1000
DSTYLE
1002
{
1070
    40
1040
1.0
1002
}
  0
DIMENSION
  5
40
  8
TEAM-MAS
  2
*D1
 10
225.0
 20
-451.850562
 30
0.0
 11
0.0
 21
-451.850562
 31
0.0
 12
-8000.0
 22
-232000.0
 32
0.0
 13
-225.0
 23
-193.5
 33
0.0
 14
225.0
 24
-193.5
 34
0.0
1001
ACAD
1000
DSTYLE
1002
{
1070
    40
1040
1.0
1002
}
  0
DIMENSION
  5
4E
  8
TEAM-MAS
  2
*D0
 10
256.0
 20
-499.655801
 30
0.0
 11
0.0
 21
-499.655801
 31
0.0
 12
-8000.0
 22
-232000.0
 32
0.0
 13
-256.0
 23
-193.5
 33
0.0
 14
256.0
 24
-193.5
 34
0.0
1001
ACAD
1000
DSTYLE
1002
{
1070
    40
1040
1.0
1002
}
  0
POLYLINE
  5
5C
  8
TEAM-BODY
 66
     1
 10
0.0
 20
0.0
 30
0.0
 70
   129
  0
VERTEX
  5
2C4
  8
TEAM-BODY
 10
-256.0
 20
-193.5
 30
0.0
  0
VERTEX
  5
2C5
  8
TEAM-BODY
 10
-254.727878
 20
-213.015298
 30
0.0
  0
VERTEX
  5
2C6
  8
TEAM-BODY
 10
-250.924157
 20
-232.336644
 30
0.0
  0
VERTEX
  5
2C7
  8
TEAM-BODY
 10
-244.626638
 20
-251.272014
 30
0.0
  0
VERTEX
  5
2C8
  8
TEAM-BODY
 10
-235.89791
 20
-269.63322
 30
0.0
  0
VERTEX
  5
2C9
  8
TEAM-BODY
 10
-224.824723
 20
-287.23778
 30
0.0
  0
VERTEX
  5
2CA
  8
TEAM-BODY
 10
-211.517126
 20
-303.910731
 30
0.0
  0
VERTEX
  5
2CB
  8
TEAM-BODY
 10
-196.107377
 20
-319.486371
 30
0.0
  0
VERTEX
  5
2CC
  8
TEAM-BODY
 10
-178.748625
 20
-333.809902
 30
0.0
  0
VERTEX
  5
2CD
  8
TEAM-BODY
 10
-159.613389
 20
-346.738971
 30
0.0
  0
VERTEX
  5
2CE
  8
TEAM-BODY
 10
-138.891844
 20
-358.145081
 30
0.0
  0
VERTEX
  5
2CF
  8
TEAM-BODY
 10
-116.789928
 20
-367.914875
 30
0.0
  0
VERTEX
  5
2D0
  8
TEAM-BODY
 10
-93.527302
 20
-375.951255
 30
0.0
  0
VERTEX
  5
2D1
  8
TEAM-BODY
 10
-69.33516
 20
-382.174352
 30
0.0
  0
VERTEX
  5
2D2
  8
TEAM-BODY
 10
-44.453933
 20
-386.52232
 30
0.0
  0
VERTEX
  5
2D3
  8
TEAM-BODY
 10
-19.130904
 20
-388.951944
 30
0.0
  0
VERTEX
  5
2D4
  8
TEAM-BODY
 10
6.382257
 20
-389.43908
 30
0.0
  0
VERTEX
  5
2D5
  8
TEAM-BODY
 10
31.831988
 20
-387.978884
 30
0.0
  0
VERTEX
  5
2D6
  8
TEAM-BODY
 10
56.965359
 20
-384.585871
 30
0.0
  0
VERTEX
  5
2D7
  8
TEAM-BODY
 10
81.532582
 20
-379.29376
 30
0.0
  0
VERTEX
  5
2D8
  8
TEAM-BODY
 10
105.289498
 20
-372.155147
 30
0.0
  0
VERTEX
  5
2D9
  8
TEAM-BODY
 10
128.0
 20
-363.240979
 30
0.0
  0
VERTEX
  5
2DA
  8
TEAM-BODY
 10
149.43838
 20
-352.639849
 30
0.0
  0
VERTEX
  5
2DB
  8
TEAM-BODY
 10
169.391574
 20
-340.457116
 30
0.0
  0
VERTEX
  5
2DC
  8
TEAM-BODY
 10
187.661279
 20
-326.813857
 30
0.0
  0
VERTEX
  5
2DD
  8
TEAM-BODY
 10
204.065922
 20
-311.845664
 30
0.0
  0
VERTEX
  5
2DE
  8
TEAM-BODY
 10
218.442466
 20
-295.7013
 30
0.0
  0
VERTEX
  5
2DF
  8
TEAM-BODY
 10
230.64803
 20
-278.541213
 30
0.0
  0
VERTEX
  5
2E0
  8
TEAM-BODY
 10
240.561311
 20
-260.535948
 30
0.0
  0
VERTEX
  5
2E1
  8
TEAM-BODY
 10
248.083785
 20
-241.86445
 30
0.0
  0
VERTEX
  5
2E2
  8
TEAM-BODY
 10
253.140692
 20
-222.712284
 30
0.0
  0
VERTEX
  5
2E3
  8
TEAM-BODY
 10
255.681772
 20
-203.269794
 30
0.0
  0
VERTEX
  5
2E4
  8
TEAM-BODY
 10
255.681772
 20
-183.730206
 30
0.0
  0
VERTEX
  5
2E5
  8
TEAM-BODY
 10
253.140692
 20
-164.287716
 30
0.0
  0
VERTEX
  5
2E6
  8
TEAM-BODY
 10
248.083785
 20
-145.13555
 30
0.0
  0
VERTEX
  5
2E7
  8
TEAM-BODY
 10
240.561311
 20
-126.464052
 30
0.0
  0
VERTEX
  5
2E8
  8
TEAM-BODY
 10
230.64803
 20
-108.458787
 30
0.0
  0
VERTEX
  5
2E9
  8
TEAM-BODY
 10
218.442466
 20
-91.2987
 30
0.0
  0
VERTEX
  5
2EA
  8
TEAM-BODY
 10
204.065922
 20
-75.154336
 30
0.0
  0
VERTEX
  5
2EB
  8
TEAM-BODY
 10
187.661279
 20
-60.186143
 30
0.0
  0
VERTEX
  5
2EC
  8
TEAM-BODY
 10
169.391574
 20
-46.542884
 30
0.0
  0
VERTEX
  5
2ED
  8
TEAM-BODY
 10
149.43838
 20
-34.360151
 30
0.0
  0
VERTEX
  5
2EE
  8
TEAM-BODY
 10
128.0
 20
-23.759021
 30
0.0
  0
VERTEX
  5
2EF
  8
TEAM-BODY
 10
105.289498
 20
-14.844853
 30
0.0
  0
VERTEX
  5
2F0
  8
TEAM-BODY
 10
81.532582
 20
-7.70624
 30
0.0
  0
VERTEX
  5
2F1
  8
TEAM-BODY
 10
56.965359
 20
-2.414129
 30
0.0
  0
VERTEX
  5
2F2
  8
TEAM-BODY
 10
31.831988
 20
0.978884
 30
0.0
  0
VERTEX
  5
2F3
  8
TEAM-BODY
 10
6.382257
 20
2.43908
 30
0.0
  0
VERTEX
  5
2F4
  8
TEAM-BODY
 10
-19.130904
 20
1.951944
 30
0.0
  0
VERTEX
  5
2F5
  8
TEAM-BODY
 10
-44.453933
 20
-0.47768
 30
0.0
  0
VERTEX
  5
2F6
  8
TEAM-BODY
 10
-69.33516
 20
-4.825648
 30
0.0
  0
VERTEX
  5
2F7
  8
TEAM-BODY
 10
-93.527302
 20
-11.048745
 30
0.0
  0
VERTEX
  5
2F8
  8
TEAM-BODY
 10
-116.789928
 20
-19.085125
 30
0.0
  0
VERTEX
  5
2F9
  8
TEAM-BODY
 10
-138.891844
 20
-28.854919
 30
0.0
  0
VERTEX
  5
2FA
  8
TEAM-BODY
 10
-159.613389
 20
-40.261029
 30
0.0
  0
VERTEX
  5
2FB
  8
TEAM-BODY
 10
-178.748625
 20
-53.190098
 30
0.0
  0
VERTEX
  5
2FC
  8
TEAM-BODY
 10
-196.107377
 20
-67.513629
 30
0.0
  0
VERTEX
  5
2FD
  8
TEAM-BODY
 10
-211.517126
 20
-83.089269
 30
0.0
  0
VERTEX
  5
2FE
  8
TEAM-BODY
 10
-224.824723
 20
-99.76222
 30
0.0
  0
VERTEX
  5
2FF
  8
TEAM-BODY
 10
-235.89791
 20
-117.36678
 30
0.0
  0
VERTEX
  5
300
  8
TEAM-BODY
 10
-244.626638
 20
-135.727986
 30
0.0
  0
VERTEX
  5
301
  8
TEAM-BODY
 10
-250.924157
 20
-154.663356
 30
0.0
  0
VERTEX
  5
302
  8
TEAM-BODY
 10
-254.727878
 20
-173.984702
 30
0.0
  0
SEQEND
  5
303
  8
TEAM-BODY
  0
POLYLINE
  5
5E
  8
TEAM-BODY
 66
     1
 10
0.0
 20
0.0
 30
0.0
 70
   129
  0
VERTEX
  5
304
  8
TEAM-BODY
 10
-225.0
 20
-193.5
 30
0.0
  0
VERTEX
  5
305
  8
TEAM-BODY
 10
-223.72533
 20
-211.038425
 30
0.0
  0
VERTEX
  5
306
  8
TEAM-BODY
 10
-219.915763
 20
-228.378133
 30
0.0
  0
VERTEX
  5
307
  8
TEAM-BODY
 10
-213.614462
 20
-245.322657
 30
0.0
  0
VERTEX
  5
308
  8
TEAM-BODY
 10
-204.892824
 20
-261.680011
 30
0.0
  0
VERTEX
  5
309
  8
TEAM-BODY
 10
-193.849668
 20
-277.264857
 30
0.0
  0
VERTEX
  5
30A
  8
TEAM-BODY
 10
-180.610119
 20
-291.900614
 30
0.0
  0
VERTEX
  5
30B
  8
TEAM-BODY
 10
-165.324184
 20
-305.421453
 30
0.0
  0
VERTEX
  5
30C
  8
TEAM-BODY
 10
-148.16506
 20
-317.674177
 30
0.0
  0
VERTEX
  5
30D
  8
TEAM-BODY
 10
-129.327167
 20
-328.519958
 30
0.0
  0
VERTEX
  5
30E
  8
TEAM-BODY
 10
-109.023946
 20
-337.835909
 30
0.0
  0
VERTEX
  5
30F
  8
TEAM-BODY
 10
-87.485439
 20
-345.516476
 30
0.0
  0
VERTEX
  5
310
  8
TEAM-BODY
 10
-64.955688
 20
-351.474636
 30
0.0
  0
VERTEX
  5
311
  8
TEAM-BODY
 10
-41.689963
 20
-355.642881
 30
0.0
  0
VERTEX
  5
312
  8
TEAM-BODY
 10
-17.951874
 20
-357.973981
 30
0.0
  0
VERTEX
  5
313
  8
TEAM-BODY
 10
5.989617
 20
-358.441526
 30
0.0
  0
VERTEX
  5
314
  8
TEAM-BODY
 10
29.863244
 20
-357.040217
 30
0.0
  0
VERTEX
  5
315
  8
TEAM-BODY
 10
53.398507
 20
-353.785932
 30
0.0
  0
VERTEX
  5
316
  8
TEAM-BODY
 10
76.328745
 20
-348.715544
 30
0.0
  0
VERTEX
  5
317
  8
TEAM-BODY
 10
98.394147
 20
-341.886501
 30
0.0
  0
VERTEX
  5
318
  8
TEAM-BODY
 10
119.344704
 20
-333.376181
 30
0.0
  0
VERTEX
  5
319
  8
TEAM-BODY
 10
138.943038
 20
-323.281007
 30
0.0
  0
VERTEX
  5
31A
  8
TEAM-BODY
 10
156.967092
 20
-311.715362
 30
0.0
  0
VERTEX
  5
31B
  8
TEAM-BODY
 10
173.212646
 20
-298.81029
 30
0.0
  0
VERTEX
  5
31C
  8
TEAM-BODY
 10
187.495632
 20
-284.712011
 30
0.0
  0
VERTEX
  5
31D
  8
TEAM-BODY
 10
199.654217
 20
-269.580263
 30
0.0
  0
VERTEX
  5
31E
  8
TEAM-BODY
 10
209.55064
 20
-253.586495
 30
0.0
  0
VERTEX
  5
31F
  8
TEAM-BODY
 10
217.07277
 20
-236.911923
 30
0.0
  0
VERTEX
  5
320
  8
TEAM-BODY
 10
222.13538
 20
-219.745477
 30
0.0
  0
VERTEX
  5
321
  8
TEAM-BODY
 10
224.681107
 20
-202.281659
 30
0.0
  0
VERTEX
  5
322
  8
TEAM-BODY
 10
224.681107
 20
-184.718341
 30
0.0
  0
VERTEX
  5
323
  8
TEAM-BODY
 10
222.13538
 20
-167.254523
 30
0.0
  0
VERTEX
  5
324
  8
TEAM-BODY
 10
217.07277
 20
-150.088077
 30
0.0
  0
VERTEX
  5
325
  8
TEAM-BODY
 10
209.55064
 20
-133.413505
 30
0.0
  0
VERTEX
  5
326
  8
TEAM-BODY
 10
199.654217
 20
-117.419737
 30
0.0
  0
VERTEX
  5
327
  8
TEAM-BODY
 10
187.495632
 20
-102.287989
 30
0.0
  0
VERTEX
  5
328
  8
TEAM-BODY
 10
173.212646
 20
-88.18971
 30
0.0
  0
VERTEX
  5
329
  8
TEAM-BODY
 10
156.967092
 20
-75.284638
 30
0.0
  0
VERTEX
  5
32A
  8
TEAM-BODY
 10
138.943038
 20
-63.718993
 30
0.0
  0
VERTEX
  5
32B
  8
TEAM-BODY
 10
119.344704
 20
-53.623819
 30
0.0
  0
VERTEX
  5
32C
  8
TEAM-BODY
 10
98.394147
 20
-45.113499
 30
0.0
  0
VERTEX
  5
32D
  8
TEAM-BODY
 10
76.328745
 20
-38.284456
 30
0.0
  0
VERTEX
  5
32E
  8
TEAM-BODY
 10
53.398507
 20
-33.214068
 30
0.0
  0
VERTEX
  5
32F
  8
TEAM-BODY
 10
29.863244
 20
-29.959783
 30
0.0
  0
VERTEX
  5
330
  8
TEAM-BODY
 10
5.989617
 20
-28.558474
 30
0.0
  0
VERTEX
  5
331
  8
TEAM-BODY
 10
-17.951874
 20
-29.026019
 30
0.0
  0
VERTEX
  5
332
  8
TEAM-BODY
 10
-41.689963
 20
-31.357119
 30
0.0
  0
VERTEX
  5
333
  8
TEAM-BODY
 10
-64.955688
 20
-35.525364
 30
0.0
  0
VERTEX
  5
334
  8
TEAM-BODY
 10
-87.485439
 20
-41.483524
 30
0.0
  0
VERTEX
  5
335
  8
TEAM-BODY
 10
-109.023946
 20
-49.164091
 30
0.0
  0
VERTEX
  5
336
  8
TEAM-BODY
 10
-129.327167
 20
-58.480042
 30
0.0
  0
VERTEX
  5
337
  8
TEAM-BODY
 10
-148.16506
 20
-69.325823
 30
0.0
  0
VERTEX
  5
338
  8
TEAM-BODY
 10
-165.324184
 20
-81.578547
 30
0.0
  0
VERTEX
  5
339
  8
TEAM-BODY
 10
-180.610119
 20
-95.099386
 30
0.0
  0
VERTEX
  5
33A
  8
TEAM-BODY
 10
-193.849668
 20
-109.735143
 30
0.0
  0
VERTEX
  5
33B
  8
TEAM-BODY
 10
-204.892824
 20
-125.319989
 30
0.0
  0
VERTEX
  5
33C
  8
TEAM-BODY
 10
-213.614462
 20
-141.677343
 30
0.0
  0
VERTEX
  5
33D
  8
TEAM-BODY
 10
-219.915763
 20
-158.621867
 30
0.0
  0
VERTEX
  5
33E
  8
TEAM-BODY
 10
-223.72533
 20
-175.961575
 30
0.0
  0
SEQEND
  5
33F
  8
TEAM-BODY
  0
CIRCLE
  5
5F
  8
TEAM-INSP
 10
0.0
 20
0.0
 30
0.0
 40
10.0
  0
CIRCLE
  5
61
  8
TEAM-DET1
 10
0.0
 20
-193.5
 30
0.0
 40
30.0
  0
LINE
  5
63
  8
TEAM-AXE
 10
-40.0
 20
-193.5
 30
0.0
 11
40.0
 21
-193.5
 31
0.0
  0
LINE
  5
66
  8
TEAM-AXE
 10
0.0
 20
-233.5
 30
0.0
 11
0.0
 21
-153.5
 31
0.0
  0
CIRCLE
  5
67
  8
TEAM-BODY
 10
0.0
 20
-193.5
 30
0.0
 40
20.0
  0
ENDSEC
  0
EOF
