  0
SECTION
  2
HEADER
  9
$ACADVER
  1
AC1009
  9
$INSBASE
 10
0.0
 20
0.0
 30
0.0
  9
$EXTMIN
 10
-357.12786
 20
-595.690523
 30
-0.000006
  9
$EXTMAX
 10
403.91103
 20
10.02496
 30
0.0
  9
$LIMMIN
 10
-357.12786
 20
-595.690523
  9
$LIMMAX
 10
403.91103
 20
10.02496
  9
$ORTHOMODE
 70
     1
  9
$REGENMODE
 70
     1
  9
$FILLMODE
 70
     1
  9
$QTEXTMODE
 70
     0
  9
$MIRRTEXT
 70
     0
  9
$DRAGMODE
 70
     2
  9
$LTSCALE
 40
50.0
  9
$OSMODE
 70
     7
  9
$ATTMODE
 70
     1
  9
$TEXTSIZE
 40
200.0
  9
$TRACEWID
 40
1.0
  9
$TEXTSTYLE
  7
STANDARD
  9
$CLAYER
  8
TEAM-MAS
  9
$CELTYPE
  6
BYLAYER
  9
$CECOLOR
 62
   256
  9
$DIMSCALE
 40
1.0
  9
$DIMASZ
 40
20.0
  9
$DIMEXO
 40
10.0
  9
$DIMDLI
 40
1.0
  9
$DIMRND
 40
0.0
  9
$DIMDLE
 40
0.0
  9
$DIMEXE
 40
1.0
  9
$DIMTP
 40
0.0
  9
$DIMTM
 40
0.0
  9
$DIMTXT
 40
35.0
  9
$DIMCEN
 40
1.0
  9
$DIMTSZ
 40
0.0
  9
$DIMTOL
 70
     0
  9
$DIMLIM
 70
     0
  9
$DIMTIH
 70
     0
  9
$DIMTOH
 70
     0
  9
$DIMSE1
 70
     0
  9
$DIMSE2
 70
     0
  9
$DIMTAD
 70
     0
  9
$DIMZIN
 70
     0
  9
$DIMBLK
  1

  9
$DIMASO
 70
     1
  9
$DIMSHO
 70
     0
  9
$DIMPOST
  1

  9
$DIMAPOST
  1

  9
$DIMALT
 70
     0
  9
$DIMALTD
 70
     2
  9
$DIMALTF
 40
25.4
  9
$DIMLFAC
 40
1.0
  9
$DIMTOFL
 70
     0
  9
$DIMTVP
 40
0.0
  9
$DIMTIX
 70
     0
  9
$DIMSOXD
 70
     0
  9
$DIMSAH
 70
     0
  9
$DIMBLK1
  1

  9
$DIMBLK2
  1

  9
$DIMSTYLE
  2
TEAM
  9
$DIMCLRD
 70
     9
  9
$DIMCLRE
 70
     9
  9
$DIMCLRT
 70
    11
  9
$DIMTFAC
 40
1.0
  9
$DIMGAP
 40
7.0
  9
$LUNITS
 70
     2
  9
$LUPREC
 70
     1
  9
$SKETCHINC
 40
1.0
  9
$FILLETRAD
 40
44.0
  9
$AUNITS
 70
     0
  9
$AUPREC
 70
     0
  9
$MENU
  1
ROPLANS
  9
$ELEVATION
 40
0.0
  9
$PELEVATION
 40
0.0
  9
$THICKNESS
 40
0.0
  9
$LIMCHECK
 70
     0
  9
$BLIPMODE
 70
     1
  9
$CHAMFERA
 40
0.0
  9
$CHAMFERB
 40
0.0
  9
$SKPOLY
 70
     0
  9
$TDCREATE
 40
2450392.957851
  9
$TDUPDATE
 40
2455981.928629
  9
$TDINDWG
 40
3.777306
  9
$TDUSRTIMER
 40
3.777306
  9
$USRTIMER
 70
     1
  9
$ANGBASE
 50
0.0
  9
$ANGDIR
 70
     0
  9
$PDMODE
 70
     0
  9
$PDSIZE
 40
0.0
  9
$PLINEWID
 40
0.0
  9
$COORDS
 70
     2
  9
$SPLFRAME
 70
     0
  9
$SPLINETYPE
 70
     6
  9
$SPLINESEGS
 70
     8
  9
$ATTDIA
 70
     0
  9
$ATTREQ
 70
     0
  9
$HANDLING
 70
     1
  9
$HANDSEED
  5
20B
  9
$SURFTAB1
 70
    36
  9
$SURFTAB2
 70
    36
  9
$SURFTYPE
 70
     6
  9
$SURFU
 70
     6
  9
$SURFV
 70
     6
  9
$UCSNAME
  2

  9
$UCSORG
 10
0.0
 20
0.0
 30
0.0
  9
$UCSXDIR
 10
1.0
 20
0.0
 30
0.0
  9
$UCSYDIR
 10
0.0
 20
1.0
 30
0.0
  9
$PUCSNAME
  2

  9
$PUCSORG
 10
0.0
 20
0.0
 30
0.0
  9
$PUCSXDIR
 10
1.0
 20
0.0
 30
0.0
  9
$PUCSYDIR
 10
0.0
 20
1.0
 30
0.0
  9
$USERI1
 70
     0
  9
$USERI2
 70
     0
  9
$USERI3
 70
     0
  9
$USERI4
 70
     0
  9
$USERI5
 70
     0
  9
$USERR1
 40
0.0
  9
$USERR2
 40
0.0
  9
$USERR3
 40
0.0
  9
$USERR4
 40
0.0
  9
$USERR5
 40
0.0
  9
$WORLDVIEW
 70
     1
  9
$SHADEDGE
 70
     0
  9
$SHADEDIF
 70
    70
  9
$TILEMODE
 70
     1
  9
$MAXACTVP
 70
    16
  9
$PLIMCHECK
 70
     0
  9
$PEXTMIN
 10
-0.805942
 20
0.005011
 30
0.0
  9
$PEXTMAX
 10
20.250094
 20
11.356329
 30
0.0
  9
$PLIMMIN
 10
0.0
 20
0.0
  9
$PLIMMAX
 10
12.0
 20
9.0
  9
$UNITMODE
 70
     0
  9
$VISRETAIN
 70
     0
  9
$PLINEGEN
 70
     0
  9
$PSLTSCALE
 70
     0
  0
ENDSEC
  0
SECTION
  2
TABLES
  0
TABLE
  2
VPORT
 70
     2
  0
VPORT
  2
*ACTIVE
 70
     0
 10
0.0
 20
0.0
 11
1.0
 21
1.0
 12
23.391585
 22
-292.832781
 13
0.0
 23
0.0
 14
1.0
 24
1.0
 15
50.0
 25
50.0
 16
0.0
 26
0.0
 36
1.0
 17
0.0
 27
0.0
 37
0.0
 40
609.513072
 41
1.903766
 42
50.0
 43
0.0
 44
0.0
 50
0.0
 51
0.0
 71
     0
 72
   100
 73
     1
 74
     1
 75
     0
 76
     0
 77
     0
 78
     0
  0
ENDTAB
  0
TABLE
  2
LTYPE
 70
     2
  0
LTYPE
  2
CONTINUOUS
 70
     0
  3
Solid Line
 72
    65
 73
     0
 40
0.0
  0
LTYPE
  2
31
 70
     0
  3

 72
    65
 73
     4
 40
2.1
 49
1.5
 49
-0.3
 49
0.0
 49
-0.3
  0
ENDTAB
  0
TABLE
  2
LAYER
 70
     9
  0
LAYER
  2
0
 70
     0
 62
     7
  6
CONTINUOUS
  0
LAYER
  2
DEFPOINTS
 70
     0
 62
     7
  6
CONTINUOUS
  0
LAYER
  2
TEAM-BODY
 70
     0
 62
     2
  6
CONTINUOUS
  0
LAYER
  2
TEAM-AXE
 70
     0
 62
    10
  6
31
  0
LAYER
  2
TEAM-MAS
 70
     0
 62
     9
  6
CONTINUOUS
  0
LAYER
  2
TEAM-TXT
 70
     0
 62
    11
  6
CONTINUOUS
  0
LAYER
  2
TEAM-DET1
 70
     0
 62
     4
  6
CONTINUOUS
  0
LAYER
  2
TEAM-KAN
 70
     0
 62
     6
  6
CONTINUOUS
  0
LAYER
  2
TEAM-INSP
 70
     0
 62
     5
  6
CONTINUOUS
  0
ENDTAB
  0
TABLE
  2
STYLE
 70
     2
  0
STYLE
  2
STANDARD
 70
     0
 40
0.0
 41
1.0
 50
0.0
 71
     0
 42
200.0
  3
txt
  4

  0
STYLE
  2
TEAM
 70
     0
 40
0.0
 41
0.8
 50
15.0
 71
     0
 42
7.0
  3
ROMANS.shx
  4

  0
ENDTAB
  0
TABLE
  2
VIEW
 70
     0
  0
ENDTAB
  0
TABLE
  2
UCS
 70
     0
  0
ENDTAB
  0
TABLE
  2
APPID
 70
     1
  0
APPID
  2
ACAD
 70
     0
  0
ENDTAB
  0
TABLE
  2
DIMSTYLE
 70
     1
  0
DIMSTYLE
  2
TEAM
 70
     0
  3

  4

  5

  6

  7

 40
1.0
 41
20.0
 42
10.0
 43
1.0
 44
1.0
 45
0.0
 46
0.0
 47
0.0
 48
0.0
140
35.0
141
1.0
142
0.0
143
25.4
144
1.0
145
0.0
146
1.0
147
7.0
 71
     0
 72
     0
 73
     0
 74
     0
 75
     0
 76
     0
 77
     0
 78
     0
170
     0
171
     2
172
     0
173
     0
174
     0
175
     0
176
     9
177
     9
178
    11
  0
ENDTAB
  0
ENDSEC
  0
SECTION
  2
BLOCKS
  0
BLOCK
  8
0
  2
$MODEL_SPACE
 70
     0
 10
0.0
 20
0.0
 30
0.0
  3
$MODEL_SPACE
  1

  0
ENDBLK
  5
15B
  8
0
  0
BLOCK
 67
     1
  8
0
  2
$PAPER_SPACE
 70
     0
 10
0.0
 20
0.0
 30
0.0
  3
$PAPER_SPACE
  1

  0
ENDBLK
  5
159
 67
     1
  8
0
  0
BLOCK
  8
0
  2
*D0
 70
     1
 10
0.0
 20
0.0
 30
0.0
  3
*D0
  1

  0
LINE
  5
46
  8
0
  6
BYBLOCK
 62
     9
 10
3990.0
 20
103525.0
 30
0.0
 11
3659.414168
 21
103525.0
 31
0.0
  0
LINE
  5
47
  8
0
  6
BYBLOCK
 62
     9
 10
3990.0
 20
103900.0
 30
0.0
 11
3659.414168
 21
103900.0
 31
0.0
  0
LINE
  5
48
  8
0
  6
BYBLOCK
 62
     9
 10
3660.414168
 20
103545.0
 30
0.0
 11
3660.414168
 21
103658.833333
 31
0.0
  0
LINE
  5
49
  8
0
  6
BYBLOCK
 62
     9
 10
3660.414168
 20
103880.0
 30
0.0
 11
3660.414168
 21
103766.166667
 31
0.0
  0
SOLID
  5
4A
  8
0
  6
BYBLOCK
 62
     9
 10
3657.080835
 20
103545.0
 30
0.0
 11
3663.747501
 21
103545.0
 31
0.0
 12
3660.414168
 22
103525.0
 32
0.0
 13
3660.414168
 23
103525.0
 33
0.0
  0
SOLID
  5
4B
  8
0
  6
BYBLOCK
 62
     9
 10
3657.080835
 20
103880.0
 30
0.0
 11
3663.747501
 21
103880.0
 31
0.0
 12
3660.414168
 22
103900.0
 32
0.0
 13
3660.414168
 23
103900.0
 33
0.0
  0
TEXT
  5
4C
  8
0
  6
BYBLOCK
 62
    11
 10
3677.914168
 20
103665.833333
 30
0.0
 40
35.0
  1
375
 50
90.0
  0
POINT
  5
4D
  8
DEFPOINTS
  6
BYBLOCK
 62
     0
 10
4000.0
 20
103525.0
 30
0.0
  0
POINT
  5
4E
  8
DEFPOINTS
  6
BYBLOCK
 62
     0
 10
4000.0
 20
103900.0
 30
0.0
  0
POINT
  5
4F
  8
DEFPOINTS
  6
BYBLOCK
 62
     0
 10
3660.414168
 20
103900.0
 30
0.0
  0
ENDBLK
  5
51
  8
0
  0
BLOCK
  8
0
  2
*D1
 70
     1
 10
0.0
 20
0.0
 30
0.0
  3
*D1
  1

  0
LINE
  5
37
  8
0
  6
BYBLOCK
 62
     9
 10
3700.0
 20
103740.0
 30
0.0
 11
3700.0
 21
103420.826925
 31
0.0
  0
LINE
  5
38
  8
0
  6
BYBLOCK
 62
     9
 10
4300.0
 20
103740.0
 30
0.0
 11
4300.0
 21
103420.826925
 31
0.0
  0
LINE
  5
39
  8
0
  6
BYBLOCK
 62
     9
 10
3720.0
 20
103421.826925
 30
0.0
 11
3952.166667
 21
103421.826925
 31
0.0
  0
LINE
  5
3A
  8
0
  6
BYBLOCK
 62
     9
 10
4280.0
 20
103421.826925
 30
0.0
 11
4047.833333
 21
103421.826925
 31
0.0
  0
SOLID
  5
3B
  8
0
  6
BYBLOCK
 62
     9
 10
3720.0
 20
103425.160258
 30
0.0
 11
3720.0
 21
103418.493591
 31
0.0
 12
3700.0
 22
103421.826925
 32
0.0
 13
3700.0
 23
103421.826925
 33
0.0
  0
SOLID
  5
3C
  8
0
  6
BYBLOCK
 62
     9
 10
4280.0
 20
103425.160258
 30
0.0
 11
4280.0
 21
103418.493591
 31
0.0
 12
4300.0
 22
103421.826925
 32
0.0
 13
4300.0
 23
103421.826925
 33
0.0
  0
TEXT
  5
3D
  8
0
  6
BYBLOCK
 62
    11
 10
3959.166667
 20
103404.326925
 30
0.0
 40
35.0
  1
600
  0
POINT
  5
3E
  8
DEFPOINTS
  6
BYBLOCK
 62
     0
 10
3700.0
 20
103750.0
 30
0.0
  0
POINT
  5
3F
  8
DEFPOINTS
  6
BYBLOCK
 62
     0
 10
4300.0
 20
103750.0
 30
0.0
  0
POINT
  5
40
  8
DEFPOINTS
  6
BYBLOCK
 62
     0
 10
4300.0
 20
103421.826925
 30
0.0
  0
ENDBLK
  5
42
  8
0
  0
BLOCK
  8
0
  2
*D2
 70
     1
 10
0.0
 20
0.0
 30
0.0
  3
*D2
  1

  0
LINE
  5
22
  8
0
  6
BYBLOCK
 62
     9
 10
4237.5
 20
103702.5
 30
0.0
 11
4237.5
 21
103464.302879
 31
0.0
  0
LINE
  5
23
  8
0
  6
BYBLOCK
 62
     9
 10
3762.5
 20
103702.5
 30
0.0
 11
3762.5
 21
103464.302879
 31
0.0
  0
LINE
  5
24
  8
0
  6
BYBLOCK
 62
     9
 10
4217.5
 20
103465.302879
 30
0.0
 11
4053.666667
 21
103465.302879
 31
0.0
  0
LINE
  5
25
  8
0
  6
BYBLOCK
 62
     9
 10
3782.5
 20
103465.302879
 30
0.0
 11
3946.333333
 21
103465.302879
 31
0.0
  0
SOLID
  5
26
  8
0
  6
BYBLOCK
 62
     9
 10
4217.5
 20
103468.636212
 30
0.0
 11
4217.5
 21
103461.969545
 31
0.0
 12
4237.5
 22
103465.302879
 32
0.0
 13
4237.5
 23
103465.302879
 33
0.0
  0
SOLID
  5
27
  8
0
  6
BYBLOCK
 62
     9
 10
3782.5
 20
103468.636212
 30
0.0
 11
3782.5
 21
103461.969545
 31
0.0
 12
3762.5
 22
103465.302879
 32
0.0
 13
3762.5
 23
103465.302879
 33
0.0
  0
TEXT
  5
28
  8
0
  6
BYBLOCK
 62
    11
 10
3953.333333
 20
103447.802879
 30
0.0
 40
35.0
  1
475
  0
POINT
  5
29
  8
DEFPOINTS
  6
BYBLOCK
 62
     0
 10
4237.5
 20
103712.5
 30
0.0
  0
POINT
  5
2B
  8
DEFPOINTS
  6
BYBLOCK
 62
     0
 10
3762.5
 20
103712.5
 30
0.0
  0
POINT
  5
2C
  8
DEFPOINTS
  6
BYBLOCK
 62
     0
 10
3762.5
 20
103465.302879
 30
0.0
  0
ENDBLK
  5
2E
  8
0
  0
BLOCK
  8
0
  2
*D3
 70
     1
 10
0.0
 20
0.0
 30
0.0
  3
*D3
  1

  0
LINE
  5
6C
  8
0
  6
BYBLOCK
 62
     9
 10
4010.0
 20
103500.0
 30
0.0
 11
4387.37517
 21
103500.0
 31
0.0
  0
LINE
  5
6D
  8
0
  6
BYBLOCK
 62
     9
 10
4010.0
 20
104000.0
 30
0.0
 11
4387.37517
 21
104000.0
 31
0.0
  0
LINE
  5
6E
  8
0
  6
BYBLOCK
 62
     9
 10
4386.37517
 20
103520.0
 30
0.0
 11
4386.37517
 21
103702.166667
 31
0.0
  0
LINE
  5
6F
  8
0
  6
BYBLOCK
 62
     9
 10
4386.37517
 20
103980.0
 30
0.0
 11
4386.37517
 21
103797.833333
 31
0.0
  0
SOLID
  5
70
  8
0
  6
BYBLOCK
 62
     9
 10
4383.041836
 20
103520.0
 30
0.0
 11
4389.708503
 21
103520.0
 31
0.0
 12
4386.37517
 22
103500.0
 32
0.0
 13
4386.37517
 23
103500.0
 33
0.0
  0
SOLID
  5
71
  8
0
  6
BYBLOCK
 62
     9
 10
4383.041836
 20
103980.0
 30
0.0
 11
4389.708503
 21
103980.0
 31
0.0
 12
4386.37517
 22
104000.0
 32
0.0
 13
4386.37517
 23
104000.0
 33
0.0
  0
TEXT
  5
72
  8
0
  6
BYBLOCK
 62
    11
 10
4403.87517
 20
103709.166667
 30
0.0
 40
35.0
  1
500
 50
90.0
  0
POINT
  5
73
  8
DEFPOINTS
  6
BYBLOCK
 62
     0
 10
4000.0
 20
103500.0
 30
0.0
  0
POINT
  5
74
  8
DEFPOINTS
  6
BYBLOCK
 62
     0
 10
4000.0
 20
104000.0
 30
0.0
  0
POINT
  5
75
  8
DEFPOINTS
  6
BYBLOCK
 62
     0
 10
4386.37517
 20
104000.0
 30
0.0
  0
ENDBLK
  5
77
  8
0
  0
BLOCK
  8
0
  2
*D4
 70
     1
 10
0.0
 20
0.0
 30
0.0
  3
*D4
  1

  0
LINE
  5
5E
  8
0
  6
BYBLOCK
 62
     9
 10
4010.0
 20
103712.6
 30
0.0
 11
4340.784125
 21
103712.6
 31
0.0
  0
LINE
  5
5F
  8
0
  6
BYBLOCK
 62
     9
 10
4010.0
 20
104000.0
 30
0.0
 11
4340.784125
 21
104000.0
 31
0.0
  0
LINE
  5
60
  8
0
  6
BYBLOCK
 62
     9
 10
4339.784125
 20
103732.6
 30
0.0
 11
4339.784125
 21
103779.3
 31
0.0
  0
LINE
  5
61
  8
0
  6
BYBLOCK
 62
     9
 10
4339.784125
 20
103980.0
 30
0.0
 11
4339.784125
 21
103933.3
 31
0.0
  0
SOLID
  5
62
  8
0
  6
BYBLOCK
 62
     9
 10
4336.450791
 20
103732.6
 30
0.0
 11
4343.117458
 21
103732.6
 31
0.0
 12
4339.784125
 22
103712.6
 32
0.0
 13
4339.784125
 23
103712.6
 33
0.0
  0
SOLID
  5
63
  8
0
  6
BYBLOCK
 62
     9
 10
4336.450791
 20
103980.0
 30
0.0
 11
4343.117458
 21
103980.0
 31
0.0
 12
4339.784125
 22
104000.0
 32
0.0
 13
4339.784125
 23
104000.0
 33
0.0
  0
TEXT
  5
64
  8
0
  6
BYBLOCK
 62
    11
 10
4357.284125
 20
103786.3
 30
0.0
 40
35.0
  1
287.5
 50
90.0
  0
POINT
  5
65
  8
DEFPOINTS
  6
BYBLOCK
 62
     0
 10
4000.0
 20
103712.6
 30
0.0
  0
POINT
  5
66
  8
DEFPOINTS
  6
BYBLOCK
 62
     0
 10
4000.0
 20
104000.0
 30
0.0
  0
POINT
  5
67
  8
DEFPOINTS
  6
BYBLOCK
 62
     0
 10
4339.784125
 20
104000.0
 30
0.0
  0
ENDBLK
  5
69
  8
0
  0
ENDSEC
  0
SECTION
  2
ENTITIES
  0
DIMENSION
  5
20
  8
TEAM-MAS
  2
*D2
 10
-237.5
 20
-534.697121
 30
0.0
 11
0.0
 21
-534.697121
 31
0.0
 12
-4000.0
 22
-104000.0
 32
0.0
 13
237.5
 23
-287.5
 33
0.0
 14
-237.5
 24
-287.5
 34
0.0
1001
ACAD
1000
DSTYLE
1002
{
1070
    40
1040
1.0
1002
}
  0
TEXT
  5
2F
  8
TEAM-TXT
 10
-124.91523
 20
-222.292405
 30
0.0
 40
30.0
  1
team 233103
 41
0.8
 51
15.0
  7
TEAM
  0
POLYLINE
  5
32
  8
TEAM-BODY
 66
     1
 10
0.0
 20
0.0
 30
0.0
 70
   129
  0
VERTEX
  5
161
  8
TEAM-BODY
 10
-300.0
 20
-250.0
 30
0.0
  0
VERTEX
  5
162
  8
TEAM-BODY
 10
-298.720253
 20
-273.06709
 30
0.0
  0
VERTEX
  5
163
  8
TEAM-BODY
 10
-294.89193
 20
-295.937379
 30
0.0
  0
VERTEX
  5
164
  8
TEAM-BODY
 10
-288.547693
 20
-318.415748
 30
0.0
  0
VERTEX
  5
165
  8
TEAM-BODY
 10
-279.741669
 20
-340.310417
 30
0.0
  0
VERTEX
  5
166
  8
TEAM-BODY
 10
-268.548987
 20
-361.434589
 30
0.0
  0
VERTEX
  5
167
  8
TEAM-BODY
 10
-255.065141
 20
-381.608041
 30
0.0
  0
VERTEX
  5
168
  8
TEAM-BODY
 10
-239.405168
 20
-400.658659
 30
0.0
  0
VERTEX
  5
169
  8
TEAM-BODY
 10
-221.702675
 20
-418.423911
 30
0.0
  0
VERTEX
  5
16A
  8
TEAM-BODY
 10
-202.108693
 20
-434.752229
 30
0.0
  0
VERTEX
  5
16B
  8
TEAM-BODY
 10
-180.790391
 20
-449.504307
 30
0.0
  0
VERTEX
  5
16C
  8
TEAM-BODY
 10
-157.929649
 20
-462.554284
 30
0.0
  0
VERTEX
  5
16D
  8
TEAM-BODY
 10
-133.721507
 20
-473.790823
 30
0.0
  0
VERTEX
  5
16E
  8
TEAM-BODY
 10
-108.3725
 20
-483.118057
 30
0.0
  0
VERTEX
  5
16F
  8
TEAM-BODY
 10
-82.098897
 20
-490.456411
 30
0.0
  0
VERTEX
  5
170
  8
TEAM-BODY
 10
-55.124855
 20
-495.743275
 30
0.0
  0
VERTEX
  5
171
  8
TEAM-BODY
 10
-27.680508
 20
-498.933544
 30
0.0
  0
VERTEX
  5
172
  8
TEAM-BODY
 10
0.0
 20
-500.0
 30
0.0
  0
VERTEX
  5
173
  8
TEAM-BODY
 10
27.680508
 20
-498.933544
 30
0.0
  0
VERTEX
  5
174
  8
TEAM-BODY
 10
55.124855
 20
-495.743275
 30
0.0
  0
VERTEX
  5
175
  8
TEAM-BODY
 10
82.098897
 20
-490.456411
 30
0.0
  0
VERTEX
  5
176
  8
TEAM-BODY
 10
108.3725
 20
-483.118057
 30
0.0
  0
VERTEX
  5
177
  8
TEAM-BODY
 10
133.721507
 20
-473.790823
 30
0.0
  0
VERTEX
  5
178
  8
TEAM-BODY
 10
157.929649
 20
-462.554284
 30
0.0
  0
VERTEX
  5
179
  8
TEAM-BODY
 10
180.790391
 20
-449.504307
 30
0.0
  0
VERTEX
  5
17A
  8
TEAM-BODY
 10
202.108693
 20
-434.752229
 30
0.0
  0
VERTEX
  5
17B
  8
TEAM-BODY
 10
221.702675
 20
-418.423911
 30
0.0
  0
VERTEX
  5
17C
  8
TEAM-BODY
 10
239.405168
 20
-400.658659
 30
0.0
  0
VERTEX
  5
17D
  8
TEAM-BODY
 10
255.065141
 20
-381.608041
 30
0.0
  0
VERTEX
  5
17E
  8
TEAM-BODY
 10
268.548987
 20
-361.434589
 30
0.0
  0
VERTEX
  5
17F
  8
TEAM-BODY
 10
279.741669
 20
-340.310417
 30
0.0
  0
VERTEX
  5
180
  8
TEAM-BODY
 10
288.547693
 20
-318.415748
 30
0.0
  0
VERTEX
  5
181
  8
TEAM-BODY
 10
294.89193
 20
-295.937379
 30
0.0
  0
VERTEX
  5
182
  8
TEAM-BODY
 10
298.720253
 20
-273.06709
 30
0.0
  0
VERTEX
  5
183
  8
TEAM-BODY
 10
300.0
 20
-250.0
 30
0.0
  0
VERTEX
  5
184
  8
TEAM-BODY
 10
298.720253
 20
-226.93291
 30
0.0
  0
VERTEX
  5
185
  8
TEAM-BODY
 10
294.89193
 20
-204.062621
 30
0.0
  0
VERTEX
  5
186
  8
TEAM-BODY
 10
288.547693
 20
-181.584252
 30
0.0
  0
VERTEX
  5
187
  8
TEAM-BODY
 10
279.741669
 20
-159.689583
 30
0.0
  0
VERTEX
  5
188
  8
TEAM-BODY
 10
268.548987
 20
-138.565411
 30
0.0
  0
VERTEX
  5
189
  8
TEAM-BODY
 10
255.065141
 20
-118.391959
 30
0.0
  0
VERTEX
  5
18A
  8
TEAM-BODY
 10
239.405168
 20
-99.341341
 30
0.0
  0
VERTEX
  5
18B
  8
TEAM-BODY
 10
221.702675
 20
-81.576089
 30
0.0
  0
VERTEX
  5
18C
  8
TEAM-BODY
 10
202.108693
 20
-65.247771
 30
0.0
  0
VERTEX
  5
18D
  8
TEAM-BODY
 10
180.790391
 20
-50.495693
 30
0.0
  0
VERTEX
  5
18E
  8
TEAM-BODY
 10
157.929649
 20
-37.445716
 30
0.0
  0
VERTEX
  5
18F
  8
TEAM-BODY
 10
133.721507
 20
-26.209177
 30
0.0
  0
VERTEX
  5
190
  8
TEAM-BODY
 10
108.3725
 20
-16.881943
 30
0.0
  0
VERTEX
  5
191
  8
TEAM-BODY
 10
82.098897
 20
-9.543589
 30
0.0
  0
VERTEX
  5
192
  8
TEAM-BODY
 10
55.124855
 20
-4.256725
 30
0.0
  0
VERTEX
  5
193
  8
TEAM-BODY
 10
27.680508
 20
-1.066456
 30
0.0
  0
VERTEX
  5
194
  8
TEAM-BODY
 10
0.0
 20
0.0
 30
0.0
  0
VERTEX
  5
195
  8
TEAM-BODY
 10
-27.680508
 20
-1.066456
 30
0.0
  0
VERTEX
  5
196
  8
TEAM-BODY
 10
-55.124855
 20
-4.256725
 30
0.0
  0
VERTEX
  5
197
  8
TEAM-BODY
 10
-82.098897
 20
-9.543589
 30
0.0
  0
VERTEX
  5
198
  8
TEAM-BODY
 10
-108.3725
 20
-16.881943
 30
0.0
  0
VERTEX
  5
199
  8
TEAM-BODY
 10
-133.721507
 20
-26.209177
 30
0.0
  0
VERTEX
  5
19A
  8
TEAM-BODY
 10
-157.929649
 20
-37.445716
 30
0.0
  0
VERTEX
  5
19B
  8
TEAM-BODY
 10
-180.790391
 20
-50.495693
 30
0.0
  0
VERTEX
  5
19C
  8
TEAM-BODY
 10
-202.108693
 20
-65.247771
 30
0.0
  0
VERTEX
  5
19D
  8
TEAM-BODY
 10
-221.702675
 20
-81.576089
 30
0.0
  0
VERTEX
  5
19E
  8
TEAM-BODY
 10
-239.405168
 20
-99.341341
 30
0.0
  0
VERTEX
  5
19F
  8
TEAM-BODY
 10
-255.065141
 20
-118.391959
 30
0.0
  0
VERTEX
  5
1A0
  8
TEAM-BODY
 10
-268.548987
 20
-138.565411
 30
0.0
  0
VERTEX
  5
1A1
  8
TEAM-BODY
 10
-279.741669
 20
-159.689583
 30
0.0
  0
VERTEX
  5
1A2
  8
TEAM-BODY
 10
-288.547693
 20
-181.584252
 30
0.0
  0
VERTEX
  5
1A3
  8
TEAM-BODY
 10
-294.89193
 20
-204.062621
 30
0.0
  0
VERTEX
  5
1A4
  8
TEAM-BODY
 10
-298.720253
 20
-226.93291
 30
0.0
  0
SEQEND
  5
1A5
  8
TEAM-BODY
  0
POLYLINE
  5
34
  8
TEAM-BODY
 66
     1
 10
0.0
 20
0.0
 30
0.0
 70
   128
  0
VERTEX
  5
1A6
  8
TEAM-BODY
 10
237.5
 20
-287.5
 30
0.0
  0
VERTEX
  5
1A7
  8
TEAM-BODY
 10
236.281464
 20
-268.53094
 30
0.0
  0
VERTEX
  5
1A8
  8
TEAM-BODY
 10
232.638361
 20
-249.756527
 30
0.0
  0
VERTEX
  5
1A9
  8
TEAM-BODY
 10
226.608073
 20
-231.369414
 30
0.0
  0
VERTEX
  5
1AA
  8
TEAM-BODY
 10
218.25248
 20
-213.558277
 30
0.0
  0
VERTEX
  5
1AB
  8
TEAM-BODY
 10
207.657321
 20
-196.505882
 30
0.0
  0
VERTEX
  5
1AC
  8
TEAM-BODY
 10
194.931317
 20
-180.38721
 30
0.0
  0
VERTEX
  5
1AD
  8
TEAM-BODY
 10
180.205054
 20
-165.367659
 30
0.0
  0
VERTEX
  5
1AE
  8
TEAM-BODY
 10
163.629643
 20
-151.601352
 30
0.0
  0
VERTEX
  5
1AF
  8
TEAM-BODY
 10
145.375171
 20
-139.229549
 30
0.0
  0
VERTEX
  5
1B0
  8
TEAM-BODY
 10
125.628952
 20
-128.379202
 30
0.0
  0
VERTEX
  5
1B1
  8
TEAM-BODY
 10
104.593611
 20
-119.161649
 30
0.0
  0
VERTEX
  5
1B2
  8
TEAM-BODY
 10
82.484998
 20
-111.671475
 30
0.0
  0
VERTEX
  5
1B3
  8
TEAM-BODY
 10
59.529976
 20
-105.98554
 30
0.0
  0
VERTEX
  5
1B4
  8
TEAM-BODY
 10
35.964097
 20
-102.162189
 30
0.0
  0
VERTEX
  5
1B5
  8
TEAM-BODY
 10
12.029178
 20
-100.240655
 30
0.0
  0
VERTEX
  5
1B6
  8
TEAM-BODY
 10
-12.029178
 20
-100.240655
 30
0.0
  0
VERTEX
  5
1B7
  8
TEAM-BODY
 10
-35.964097
 20
-102.162189
 30
0.0
  0
VERTEX
  5
1B8
  8
TEAM-BODY
 10
-59.529976
 20
-105.98554
 30
0.0
  0
VERTEX
  5
1B9
  8
TEAM-BODY
 10
-82.484998
 20
-111.671475
 30
0.0
  0
VERTEX
  5
1BA
  8
TEAM-BODY
 10
-104.593611
 20
-119.161649
 30
0.0
  0
VERTEX
  5
1BB
  8
TEAM-BODY
 10
-125.628952
 20
-128.379202
 30
0.0
  0
VERTEX
  5
1BC
  8
TEAM-BODY
 10
-145.375171
 20
-139.229549
 30
0.0
  0
VERTEX
  5
1BD
  8
TEAM-BODY
 10
-163.629643
 20
-151.601352
 30
0.0
  0
VERTEX
  5
1BE
  8
TEAM-BODY
 10
-180.205054
 20
-165.367659
 30
0.0
  0
VERTEX
  5
1BF
  8
TEAM-BODY
 10
-194.931317
 20
-180.38721
 30
0.0
  0
VERTEX
  5
1C0
  8
TEAM-BODY
 10
-207.657321
 20
-196.505882
 30
0.0
  0
VERTEX
  5
1C1
  8
TEAM-BODY
 10
-218.25248
 20
-213.558277
 30
0.0
  0
VERTEX
  5
1C2
  8
TEAM-BODY
 10
-226.608073
 20
-231.369414
 30
0.0
  0
VERTEX
  5
1C3
  8
TEAM-BODY
 10
-232.638361
 20
-249.756527
 30
0.0
  0
VERTEX
  5
1C4
  8
TEAM-BODY
 10
-236.281464
 20
-268.53094
 30
0.0
  0
VERTEX
  5
1C5
  8
TEAM-BODY
 10
-237.5
 20
-287.5
 30
0.0
  0
SEQEND
  5
1C6
  8
TEAM-BODY
  0
DIMENSION
  5
35
  8
TEAM-MAS
  2
*D1
 10
300.0
 20
-578.173075
 30
0.0
 11
0.0
 21
-578.173075
 31
0.0
 12
-4000.0
 22
-104000.0
 32
0.0
 13
-300.0
 23
-250.0
 33
0.0
 14
300.0
 24
-250.0
 34
0.0
1001
ACAD
1000
DSTYLE
1002
{
1070
    40
1040
1.0
1002
}
  0
POLYLINE
  5
43
  8
TEAM-BODY
 66
     1
 10
0.0
 20
0.0
 30
0.0
 70
   128
210
0.0
220
0.0
230
-1.0
  0
VERTEX
  5
1C7
  8
TEAM-BODY
 10
-237.5
 20
-287.5
 30
0.0
  0
VERTEX
  5
1C8
  8
TEAM-BODY
 10
-236.281464
 20
-306.46906
 30
0.0
  0
VERTEX
  5
1C9
  8
TEAM-BODY
 10
-232.638361
 20
-325.243473
 30
0.0
  0
VERTEX
  5
1CA
  8
TEAM-BODY
 10
-226.608073
 20
-343.630586
 30
0.0
  0
VERTEX
  5
1CB
  8
TEAM-BODY
 10
-218.25248
 20
-361.441723
 30
0.0
  0
VERTEX
  5
1CC
  8
TEAM-BODY
 10
-207.657321
 20
-378.494118
 30
0.0
  0
VERTEX
  5
1CD
  8
TEAM-BODY
 10
-194.931317
 20
-394.61279
 30
0.0
  0
VERTEX
  5
1CE
  8
TEAM-BODY
 10
-180.205054
 20
-409.632341
 30
0.0
  0
VERTEX
  5
1CF
  8
TEAM-BODY
 10
-163.629643
 20
-423.398648
 30
0.0
  0
VERTEX
  5
1D0
  8
TEAM-BODY
 10
-145.375171
 20
-435.770451
 30
0.0
  0
VERTEX
  5
1D1
  8
TEAM-BODY
 10
-125.628952
 20
-446.620798
 30
0.0
  0
VERTEX
  5
1D2
  8
TEAM-BODY
 10
-104.593611
 20
-455.838351
 30
0.0
  0
VERTEX
  5
1D3
  8
TEAM-BODY
 10
-82.484998
 20
-463.328525
 30
0.0
  0
VERTEX
  5
1D4
  8
TEAM-BODY
 10
-59.529976
 20
-469.01446
 30
0.0
  0
VERTEX
  5
1D5
  8
TEAM-BODY
 10
-35.964097
 20
-472.837811
 30
0.0
  0
VERTEX
  5
1D6
  8
TEAM-BODY
 10
-12.029178
 20
-474.759345
 30
0.0
  0
VERTEX
  5
1D7
  8
TEAM-BODY
 10
12.029178
 20
-474.759345
 30
0.0
  0
VERTEX
  5
1D8
  8
TEAM-BODY
 10
35.964097
 20
-472.837811
 30
0.0
  0
VERTEX
  5
1D9
  8
TEAM-BODY
 10
59.529976
 20
-469.01446
 30
0.0
  0
VERTEX
  5
1DA
  8
TEAM-BODY
 10
82.484998
 20
-463.328525
 30
0.0
  0
VERTEX
  5
1DB
  8
TEAM-BODY
 10
104.593611
 20
-455.838351
 30
0.0
  0
VERTEX
  5
1DC
  8
TEAM-BODY
 10
125.628952
 20
-446.620798
 30
0.0
  0
VERTEX
  5
1DD
  8
TEAM-BODY
 10
145.375171
 20
-435.770451
 30
0.0
  0
VERTEX
  5
1DE
  8
TEAM-BODY
 10
163.629643
 20
-423.398648
 30
0.0
  0
VERTEX
  5
1DF
  8
TEAM-BODY
 10
180.205054
 20
-409.632341
 30
0.0
  0
VERTEX
  5
1E0
  8
TEAM-BODY
 10
194.931317
 20
-394.61279
 30
0.0
  0
VERTEX
  5
1E1
  8
TEAM-BODY
 10
207.657321
 20
-378.494118
 30
0.0
  0
VERTEX
  5
1E2
  8
TEAM-BODY
 10
218.25248
 20
-361.441723
 30
0.0
  0
VERTEX
  5
1E3
  8
TEAM-BODY
 10
226.608073
 20
-343.630586
 30
0.0
  0
VERTEX
  5
1E4
  8
TEAM-BODY
 10
232.638361
 20
-325.243473
 30
0.0
  0
VERTEX
  5
1E5
  8
TEAM-BODY
 10
236.281464
 20
-306.46906
 30
0.0
  0
VERTEX
  5
1E6
  8
TEAM-BODY
 10
237.5
 20
-287.5
 30
0.0
  0
SEQEND
  5
1E7
  8
TEAM-BODY
  0
DIMENSION
  5
44
  8
TEAM-MAS
  2
*D0
 10
-339.585832
 20
-100.0
 30
0.0
 11
-339.585832
 21
-287.5
 31
0.0
 12
-4000.0
 22
-104000.0
 32
0.0
 13
0.0
 23
-475.0
 33
0.0
 14
0.0
 24
-100.0
 34
0.0
 50
90.0
1001
ACAD
1000
DSTYLE
1002
{
1070
    40
1040
1.0
1002
}
  0
CIRCLE
  5
52
  8
TEAM-INSP
 10
0.0
 20
0.0
 30
0.0
 40
10.0
  0
CIRCLE
  5
54
  8
TEAM-DET1
 10
0.0
 20
-287.5
 30
0.0
 40
30.0
  0
CIRCLE
  5
56
  8
TEAM-KAN
 10
0.0
 20
-287.5
 30
0.0
 40
20.0
  0
LINE
  5
58
  8
TEAM-AXE
 10
35.0
 20
-287.5
 30
0.0
 11
-35.0
 21
-287.5
 31
0.0
  0
LINE
  5
5B
  8
TEAM-AXE
 10
0.0
 20
-322.5
 30
0.0
 11
0.0
 21
-252.5
 31
0.0
  0
DIMENSION
  5
5C
  8
TEAM-MAS
  2
*D4
 10
339.784125
 20
0.0
 30
0.0
 11
339.784125
 21
-143.7
 31
0.0
 12
-4000.0
 22
-104000.0
 32
0.0
  1
<>.5
 13
0.0
 23
-287.4
 33
0.0
 14
0.0
 24
0.0
 34
0.0
 50
270.0
1001
ACAD
1000
DSTYLE
1002
{
1070
    40
1040
1.0
1002
}
  0
DIMENSION
  5
6A
  8
TEAM-MAS
  2
*D3
 10
386.37517
 20
0.0
 30
0.0
 11
386.37517
 21
-250.0
 31
0.0
 12
-4000.0
 22
-104000.0
 32
0.0
 13
0.0
 23
-500.0
 33
0.0
 14
0.0
 24
0.0
 34
0.0
 50
270.0
1001
ACAD
1000
DSTYLE
1002
{
1070
    40
1040
1.0
1002
}
  0
POLYLINE
  5
78
  8
TEAM-DET1
 66
     1
 10
0.0
 20
0.0
 30
0.0
 70
   129
  0
VERTEX
  5
1E8
  8
TEAM-DET1
 10
-20.0
 20
-109.173702
 30
0.0
  0
VERTEX
  5
1E9
  8
TEAM-DET1
 10
-19.638574
 20
-110.209595
 30
0.0
  0
VERTEX
  5
1EA
  8
TEAM-DET1
 10
-18.567359
 20
-111.208048
 30
0.0
  0
VERTEX
  5
1EB
  8
TEAM-DET1
 10
-16.825071
 20
-112.132975
 30
0.0
  0
VERTEX
  5
1EC
  8
TEAM-DET1
 10
-14.474681
 20
-112.950945
 30
0.0
  0
VERTEX
  5
1ED
  8
TEAM-DET1
 10
-11.601138
 20
-113.632396
 30
0.0
  0
VERTEX
  5
1EE
  8
TEAM-DET1
 10
-8.3083
 20
-114.152699
 30
0.0
  0
VERTEX
  5
1EF
  8
TEAM-DET1
 10
-4.715179
 20
-114.493047
 30
0.0
  0
VERTEX
  5
1F0
  8
TEAM-DET1
 10
-0.951638
 20
-114.641141
 30
0.0
  0
VERTEX
  5
1F1
  8
TEAM-DET1
 10
2.846297
 20
-114.591627
 30
0.0
  0
VERTEX
  5
1F2
  8
TEAM-DET1
 10
6.541359
 20
-114.346295
 30
0.0
  0
VERTEX
  5
1F3
  8
TEAM-DET1
 10
10.0
 20
-113.914012
 30
0.0
  0
VERTEX
  5
1F4
  8
TEAM-DET1
 10
13.097215
 20
-113.310402
 30
0.0
  0
VERTEX
  5
1F5
  8
TEAM-DET1
 10
15.721062
 20
-112.557281
 30
0.0
  0
VERTEX
  5
1F6
  8
TEAM-DET1
 10
17.776709
 20
-111.681868
 30
0.0
  0
VERTEX
  5
1F7
  8
TEAM-DET1
 10
19.189859
 20
-110.715804
 30
0.0
  0
VERTEX
  5
1F8
  8
TEAM-DET1
 10
19.909438
 20
-109.694005
 30
0.0
  0
VERTEX
  5
1F9
  8
TEAM-DET1
 10
19.909438
 20
-108.6534
 30
0.0
  0
VERTEX
  5
1FA
  8
TEAM-DET1
 10
19.189859
 20
-107.6316
 30
0.0
  0
VERTEX
  5
1FB
  8
TEAM-DET1
 10
17.776709
 20
-106.665536
 30
0.0
  0
VERTEX
  5
1FC
  8
TEAM-DET1
 10
15.721062
 20
-105.790124
 30
0.0
  0
VERTEX
  5
1FD
  8
TEAM-DET1
 10
13.097215
 20
-105.037002
 30
0.0
  0
VERTEX
  5
1FE
  8
TEAM-DET1
 10
10.0
 20
-104.433392
 30
0.0
  0
VERTEX
  5
1FF
  8
TEAM-DET1
 10
6.541359
 20
-104.00111
 30
0.0
  0
VERTEX
  5
200
  8
TEAM-DET1
 10
2.846297
 20
-103.755778
 30
0.0
  0
VERTEX
  5
201
  8
TEAM-DET1
 10
-0.951638
 20
-103.706264
 30
0.0
  0
VERTEX
  5
202
  8
TEAM-DET1
 10
-4.715179
 20
-103.854357
 30
0.0
  0
VERTEX
  5
203
  8
TEAM-DET1
 10
-8.3083
 20
-104.194706
 30
0.0
  0
VERTEX
  5
204
  8
TEAM-DET1
 10
-11.601138
 20
-104.715008
 30
0.0
  0
VERTEX
  5
205
  8
TEAM-DET1
 10
-14.474681
 20
-105.396459
 30
0.0
  0
VERTEX
  5
206
  8
TEAM-DET1
 10
-16.825071
 20
-106.21443
 30
0.0
  0
VERTEX
  5
207
  8
TEAM-DET1
 10
-18.567359
 20
-107.139356
 30
0.0
  0
VERTEX
  5
208
  8
TEAM-DET1
 10
-19.638574
 20
-108.137809
 30
0.0
  0
SEQEND
  5
209
  8
TEAM-DET1
  0
LINE
  5
79
  8
TEAM-AXE
 10
20.0
 20
-109.173702
 30
0.0
 11
-20.0
 21
-109.173702
 31
0.0
  0
LINE
  5
7A
  8
TEAM-AXE
 10
0.0
 20
-114.647341
 30
0.0
 11
0.0
 21
-103.700064
 31
0.0
  0
LINE
  5
7B
  8
TEAM-AXE
 10
20.0
 20
-50.0
 30
0.0
 11
-20.0
 21
-50.0
 31
0.0
  0
CIRCLE
  5
7C
  8
TEAM-DET1
 10
0.0
 20
-50.0
 30
0.0
 40
18.0
  0
LINE
  5
7D
  8
TEAM-AXE
 10
0.0
 20
-70.0
 30
0.0
 11
0.0
 21
-30.0
 31
0.0
  0
ENDSEC
  0
EOF
