  0
SECTION
  2
HEADER
  9
$ACADVER
  1
AC1009
  9
$INSBASE
 10
0.0
 20
0.0
 30
0.0
  9
$EXTMIN
 10
-323.473209
 20
-521.034893
 30
-0.000006
  9
$EXTMAX
 10
386.456632
 20
10.003598
 30
0.0
  9
$LIMMIN
 10
-323.473209
 20
-521.034893
  9
$LIMMAX
 10
386.456632
 20
10.003598
  9
$ORTHOMODE
 70
     1
  9
$REGENMODE
 70
     1
  9
$FILLMODE
 70
     1
  9
$QTEXTMODE
 70
     0
  9
$MIRRTEXT
 70
     0
  9
$DRAGMODE
 70
     2
  9
$LTSCALE
 40
50.0
  9
$OSMODE
 70
     7
  9
$ATTMODE
 70
     1
  9
$TEXTSIZE
 40
200.0
  9
$TRACEWID
 40
1.0
  9
$TEXTSTYLE
  7
STANDARD
  9
$CLAYER
  8
TEAM-MAS
  9
$CELTYPE
  6
BYLAYER
  9
$CECOLOR
 62
   256
  9
$DIMSCALE
 40
1.0
  9
$DIMASZ
 40
20.0
  9
$DIMEXO
 40
10.0
  9
$DIMDLI
 40
1.0
  9
$DIMRND
 40
0.0
  9
$DIMDLE
 40
0.0
  9
$DIMEXE
 40
1.0
  9
$DIMTP
 40
0.0
  9
$DIMTM
 40
0.0
  9
$DIMTXT
 40
35.0
  9
$DIMCEN
 40
1.0
  9
$DIMTSZ
 40
0.0
  9
$DIMTOL
 70
     0
  9
$DIMLIM
 70
     0
  9
$DIMTIH
 70
     0
  9
$DIMTOH
 70
     0
  9
$DIMSE1
 70
     0
  9
$DIMSE2
 70
     0
  9
$DIMTAD
 70
     0
  9
$DIMZIN
 70
     0
  9
$DIMBLK
  1

  9
$DIMASO
 70
     1
  9
$DIMSHO
 70
     0
  9
$DIMPOST
  1

  9
$DIMAPOST
  1

  9
$DIMALT
 70
     0
  9
$DIMALTD
 70
     2
  9
$DIMALTF
 40
25.4
  9
$DIMLFAC
 40
1.0
  9
$DIMTOFL
 70
     0
  9
$DIMTVP
 40
0.0
  9
$DIMTIX
 70
     0
  9
$DIMSOXD
 70
     0
  9
$DIMSAH
 70
     0
  9
$DIMBLK1
  1

  9
$DIMBLK2
  1

  9
$DIMSTYLE
  2
TEAM
  9
$DIMCLRD
 70
     9
  9
$DIMCLRE
 70
     9
  9
$DIMCLRT
 70
    11
  9
$DIMTFAC
 40
1.0
  9
$DIMGAP
 40
7.0
  9
$LUNITS
 70
     2
  9
$LUPREC
 70
     1
  9
$SKETCHINC
 40
1.0
  9
$FILLETRAD
 40
44.0
  9
$AUNITS
 70
     0
  9
$AUPREC
 70
     0
  9
$MENU
  1
ROPLANS
  9
$ELEVATION
 40
0.0
  9
$PELEVATION
 40
0.0
  9
$THICKNESS
 40
0.0
  9
$LIMCHECK
 70
     0
  9
$BLIPMODE
 70
     1
  9
$CHAMFERA
 40
0.0
  9
$CHAMFERB
 40
0.0
  9
$SKPOLY
 70
     0
  9
$TDCREATE
 40
2450392.957851
  9
$TDUPDATE
 40
2455981.928629
  9
$TDINDWG
 40
3.777306
  9
$TDUSRTIMER
 40
3.777306
  9
$USRTIMER
 70
     1
  9
$ANGBASE
 50
0.0
  9
$ANGDIR
 70
     0
  9
$PDMODE
 70
     0
  9
$PDSIZE
 40
0.0
  9
$PLINEWID
 40
0.0
  9
$COORDS
 70
     2
  9
$SPLFRAME
 70
     0
  9
$SPLINETYPE
 70
     6
  9
$SPLINESEGS
 70
     8
  9
$ATTDIA
 70
     0
  9
$ATTREQ
 70
     0
  9
$HANDLING
 70
     1
  9
$HANDSEED
  5
217
  9
$SURFTAB1
 70
    36
  9
$SURFTAB2
 70
    36
  9
$SURFTYPE
 70
     6
  9
$SURFU
 70
     6
  9
$SURFV
 70
     6
  9
$UCSNAME
  2

  9
$UCSORG
 10
0.0
 20
0.0
 30
0.0
  9
$UCSXDIR
 10
1.0
 20
0.0
 30
0.0
  9
$UCSYDIR
 10
0.0
 20
1.0
 30
0.0
  9
$PUCSNAME
  2

  9
$PUCSORG
 10
0.0
 20
0.0
 30
0.0
  9
$PUCSXDIR
 10
1.0
 20
0.0
 30
0.0
  9
$PUCSYDIR
 10
0.0
 20
1.0
 30
0.0
  9
$USERI1
 70
     0
  9
$USERI2
 70
     0
  9
$USERI3
 70
     0
  9
$USERI4
 70
     0
  9
$USERI5
 70
     0
  9
$USERR1
 40
0.0
  9
$USERR2
 40
0.0
  9
$USERR3
 40
0.0
  9
$USERR4
 40
0.0
  9
$USERR5
 40
0.0
  9
$WORLDVIEW
 70
     1
  9
$SHADEDGE
 70
     0
  9
$SHADEDIF
 70
    70
  9
$TILEMODE
 70
     1
  9
$MAXACTVP
 70
    16
  9
$PLIMCHECK
 70
     0
  9
$PEXTMIN
 10
-0.805942
 20
0.005011
 30
0.0
  9
$PEXTMAX
 10
20.250094
 20
11.356329
 30
0.0
  9
$PLIMMIN
 10
0.0
 20
0.0
  9
$PLIMMAX
 10
12.0
 20
9.0
  9
$UNITMODE
 70
     0
  9
$VISRETAIN
 70
     0
  9
$PLINEGEN
 70
     0
  9
$PSLTSCALE
 70
     0
  0
ENDSEC
  0
SECTION
  2
TABLES
  0
TABLE
  2
VPORT
 70
     2
  0
VPORT
  2
*ACTIVE
 70
     0
 10
0.0
 20
0.0
 11
1.0
 21
1.0
 12
31.491711
 22
-255.515648
 13
0.0
 23
0.0
 14
1.0
 24
1.0
 15
50.0
 25
50.0
 16
0.0
 26
0.0
 36
1.0
 17
0.0
 27
0.0
 37
0.0
 40
534.367886
 41
1.903766
 42
50.0
 43
0.0
 44
0.0
 50
0.0
 51
0.0
 71
     0
 72
   100
 73
     1
 74
     1
 75
     0
 76
     0
 77
     0
 78
     0
  0
ENDTAB
  0
TABLE
  2
LTYPE
 70
     2
  0
LTYPE
  2
CONTINUOUS
 70
     0
  3
Solid Line
 72
    65
 73
     0
 40
0.0
  0
LTYPE
  2
31
 70
     0
  3

 72
    65
 73
     4
 40
2.1
 49
1.5
 49
-0.3
 49
0.0
 49
-0.3
  0
ENDTAB
  0
TABLE
  2
LAYER
 70
     9
  0
LAYER
  2
0
 70
     0
 62
     7
  6
CONTINUOUS
  0
LAYER
  2
DEFPOINTS
 70
     0
 62
     7
  6
CONTINUOUS
  0
LAYER
  2
TEAM-BODY
 70
     0
 62
     2
  6
CONTINUOUS
  0
LAYER
  2
TEAM-AXE
 70
     0
 62
    10
  6
31
  0
LAYER
  2
TEAM-MAS
 70
     0
 62
     9
  6
CONTINUOUS
  0
LAYER
  2
TEAM-TXT
 70
     0
 62
    11
  6
CONTINUOUS
  0
LAYER
  2
TEAM-DET1
 70
     0
 62
     4
  6
CONTINUOUS
  0
LAYER
  2
TEAM-KAN
 70
     0
 62
     6
  6
CONTINUOUS
  0
LAYER
  2
TEAM-INSP
 70
     0
 62
     5
  6
CONTINUOUS
  0
ENDTAB
  0
TABLE
  2
STYLE
 70
     2
  0
STYLE
  2
STANDARD
 70
     0
 40
0.0
 41
1.0
 50
0.0
 71
     0
 42
200.0
  3
txt
  4

  0
STYLE
  2
TEAM
 70
     0
 40
0.0
 41
0.8
 50
15.0
 71
     0
 42
7.0
  3
ROMANS.shx
  4

  0
ENDTAB
  0
TABLE
  2
VIEW
 70
     0
  0
ENDTAB
  0
TABLE
  2
UCS
 70
     0
  0
ENDTAB
  0
TABLE
  2
APPID
 70
     1
  0
APPID
  2
ACAD
 70
     0
  0
ENDTAB
  0
TABLE
  2
DIMSTYLE
 70
     1
  0
DIMSTYLE
  2
TEAM
 70
     0
  3

  4

  5

  6

  7

 40
1.0
 41
20.0
 42
10.0
 43
1.0
 44
1.0
 45
0.0
 46
0.0
 47
0.0
 48
0.0
140
35.0
141
1.0
142
0.0
143
25.4
144
1.0
145
0.0
146
1.0
147
7.0
 71
     0
 72
     0
 73
     0
 74
     0
 75
     0
 76
     0
 77
     0
 78
     0
170
     0
171
     2
172
     0
173
     0
174
     0
175
     0
176
     9
177
     9
178
    11
  0
ENDTAB
  0
ENDSEC
  0
SECTION
  2
BLOCKS
  0
BLOCK
  8
0
  2
$MODEL_SPACE
 70
     0
 10
0.0
 20
0.0
 30
0.0
  3
$MODEL_SPACE
  1

  0
ENDBLK
  5
160
  8
0
  0
BLOCK
 67
     1
  8
0
  2
$PAPER_SPACE
 70
     0
 10
0.0
 20
0.0
 30
0.0
  3
$PAPER_SPACE
  1

  0
ENDBLK
  5
15E
 67
     1
  8
0
  0
BLOCK
  8
0
  2
*D0
 70
     1
 10
0.0
 20
0.0
 30
0.0
  3
*D0
  1

  0
LINE
  5
42
  8
0
  6
BYBLOCK
 62
     9
 10
4237.5
 20
111777.5
 30
0.0
 11
4237.5
 21
111538.951421
 31
0.0
  0
LINE
  5
43
  8
0
  6
BYBLOCK
 62
     9
 10
3762.5
 20
111777.5
 30
0.0
 11
3762.5
 21
111538.951421
 31
0.0
  0
LINE
  5
44
  8
0
  6
BYBLOCK
 62
     9
 10
4217.5
 20
111539.951421
 30
0.0
 11
4053.666667
 21
111539.951421
 31
0.0
  0
LINE
  5
45
  8
0
  6
BYBLOCK
 62
     9
 10
3782.5
 20
111539.951421
 30
0.0
 11
3946.333333
 21
111539.951421
 31
0.0
  0
SOLID
  5
46
  8
0
  6
BYBLOCK
 62
     9
 10
4217.5
 20
111543.284754
 30
0.0
 11
4217.5
 21
111536.618087
 31
0.0
 12
4237.5
 22
111539.951421
 32
0.0
 13
4237.5
 23
111539.951421
 33
0.0
  0
SOLID
  5
47
  8
0
  6
BYBLOCK
 62
     9
 10
3782.5
 20
111543.284754
 30
0.0
 11
3782.5
 21
111536.618087
 31
0.0
 12
3762.5
 22
111539.951421
 32
0.0
 13
3762.5
 23
111539.951421
 33
0.0
  0
TEXT
  5
48
  8
0
  6
BYBLOCK
 62
    11
 10
3953.333333
 20
111522.451421
 30
0.0
 40
35.0
  1
475
  0
POINT
  5
49
  8
DEFPOINTS
  6
BYBLOCK
 62
     0
 10
4237.5
 20
111787.5
 30
0.0
  0
POINT
  5
4A
  8
DEFPOINTS
  6
BYBLOCK
 62
     0
 10
3762.5
 20
111787.5
 30
0.0
  0
POINT
  5
4B
  8
DEFPOINTS
  6
BYBLOCK
 62
     0
 10
3762.5
 20
111539.951421
 30
0.0
  0
ENDBLK
  5
4D
  8
0
  0
BLOCK
  8
0
  2
*D1
 70
     1
 10
0.0
 20
0.0
 30
0.0
  3
*D1
  1

  0
LINE
  5
31
  8
0
  6
BYBLOCK
 62
     9
 10
3737.5
 20
111777.5
 30
0.0
 11
3737.5
 21
111495.475467
 31
0.0
  0
LINE
  5
32
  8
0
  6
BYBLOCK
 62
     9
 10
4262.5
 20
111777.5
 30
0.0
 11
4262.5
 21
111495.475467
 31
0.0
  0
LINE
  5
33
  8
0
  6
BYBLOCK
 62
     9
 10
3757.5
 20
111496.475467
 30
0.0
 11
3946.333333
 21
111496.475467
 31
0.0
  0
LINE
  5
34
  8
0
  6
BYBLOCK
 62
     9
 10
4242.5
 20
111496.475467
 30
0.0
 11
4053.666667
 21
111496.475467
 31
0.0
  0
SOLID
  5
35
  8
0
  6
BYBLOCK
 62
     9
 10
3757.5
 20
111499.8088
 30
0.0
 11
3757.5
 21
111493.142133
 31
0.0
 12
3737.5
 22
111496.475467
 32
0.0
 13
3737.5
 23
111496.475467
 33
0.0
  0
SOLID
  5
36
  8
0
  6
BYBLOCK
 62
     9
 10
4242.5
 20
111499.8088
 30
0.0
 11
4242.5
 21
111493.142133
 31
0.0
 12
4262.5
 22
111496.475467
 32
0.0
 13
4262.5
 23
111496.475467
 33
0.0
  0
TEXT
  5
37
  8
0
  6
BYBLOCK
 62
    11
 10
3953.333333
 20
111478.975467
 30
0.0
 40
35.0
  1
525
  0
POINT
  5
38
  8
DEFPOINTS
  6
BYBLOCK
 62
     0
 10
3737.5
 20
111787.5
 30
0.0
  0
POINT
  5
39
  8
DEFPOINTS
  6
BYBLOCK
 62
     0
 10
4262.5
 20
111787.5
 30
0.0
  0
POINT
  5
3A
  8
DEFPOINTS
  6
BYBLOCK
 62
     0
 10
4262.5
 20
111496.475467
 30
0.0
  0
ENDBLK
  5
3C
  8
0
  0
BLOCK
  8
0
  2
*D2
 70
     1
 10
0.0
 20
0.0
 30
0.0
  3
*D2
  1

  0
LINE
  5
22
  8
0
  6
BYBLOCK
 62
     9
 10
3990.0
 20
111600.0
 30
0.0
 11
3693.070886
 21
111600.0
 31
0.0
  0
LINE
  5
23
  8
0
  6
BYBLOCK
 62
     9
 10
3990.0
 20
111975.0
 30
0.0
 11
3693.070886
 21
111975.0
 31
0.0
  0
LINE
  5
24
  8
0
  6
BYBLOCK
 62
     9
 10
3694.070886
 20
111620.0
 30
0.0
 11
3694.070886
 21
111733.833333
 31
0.0
  0
LINE
  5
25
  8
0
  6
BYBLOCK
 62
     9
 10
3694.070886
 20
111955.0
 30
0.0
 11
3694.070886
 21
111841.166667
 31
0.0
  0
SOLID
  5
26
  8
0
  6
BYBLOCK
 62
     9
 10
3690.737553
 20
111620.0
 30
0.0
 11
3697.404219
 21
111620.0
 31
0.0
 12
3694.070886
 22
111600.0
 32
0.0
 13
3694.070886
 23
111600.0
 33
0.0
  0
SOLID
  5
27
  8
0
  6
BYBLOCK
 62
     9
 10
3690.737553
 20
111955.0
 30
0.0
 11
3697.404219
 21
111955.0
 31
0.0
 12
3694.070886
 22
111975.0
 32
0.0
 13
3694.070886
 23
111975.0
 33
0.0
  0
TEXT
  5
28
  8
0
  6
BYBLOCK
 62
    11
 10
3711.570886
 20
111740.833333
 30
0.0
 40
35.0
  1
375
 50
90.0
  0
POINT
  5
29
  8
DEFPOINTS
  6
BYBLOCK
 62
     0
 10
4000.0
 20
111600.0
 30
0.0
  0
POINT
  5
2B
  8
DEFPOINTS
  6
BYBLOCK
 62
     0
 10
4000.0
 20
111975.0
 30
0.0
  0
POINT
  5
2C
  8
DEFPOINTS
  6
BYBLOCK
 62
     0
 10
3694.070886
 20
111975.0
 30
0.0
  0
ENDBLK
  5
2E
  8
0
  0
BLOCK
  8
0
  2
*D3
 70
     1
 10
0.0
 20
0.0
 30
0.0
  3
*D3
  1

  0
LINE
  5
63
  8
0
  6
BYBLOCK
 62
     9
 10
4010.0
 20
111575.0
 30
0.0
 11
4369.913804
 21
111575.0
 31
0.0
  0
LINE
  5
64
  8
0
  6
BYBLOCK
 62
     9
 10
4010.0
 20
112000.0
 30
0.0
 11
4369.913804
 21
112000.0
 31
0.0
  0
LINE
  5
65
  8
0
  6
BYBLOCK
 62
     9
 10
4368.913804
 20
111595.0
 30
0.0
 11
4368.913804
 21
111733.833333
 31
0.0
  0
LINE
  5
66
  8
0
  6
BYBLOCK
 62
     9
 10
4368.913804
 20
111980.0
 30
0.0
 11
4368.913804
 21
111841.166667
 31
0.0
  0
SOLID
  5
67
  8
0
  6
BYBLOCK
 62
     9
 10
4365.580471
 20
111595.0
 30
0.0
 11
4372.247137
 21
111595.0
 31
0.0
 12
4368.913804
 22
111575.0
 32
0.0
 13
4368.913804
 23
111575.0
 33
0.0
  0
SOLID
  5
68
  8
0
  6
BYBLOCK
 62
     9
 10
4365.580471
 20
111980.0
 30
0.0
 11
4372.247137
 21
111980.0
 31
0.0
 12
4368.913804
 22
112000.0
 32
0.0
 13
4368.913804
 23
112000.0
 33
0.0
  0
TEXT
  5
69
  8
0
  6
BYBLOCK
 62
    11
 10
4386.413804
 20
111740.833333
 30
0.0
 40
35.0
  1
425
 50
90.0
  0
POINT
  5
6A
  8
DEFPOINTS
  6
BYBLOCK
 62
     0
 10
4000.0
 20
111575.0
 30
0.0
  0
POINT
  5
6B
  8
DEFPOINTS
  6
BYBLOCK
 62
     0
 10
4000.0
 20
112000.0
 30
0.0
  0
POINT
  5
6C
  8
DEFPOINTS
  6
BYBLOCK
 62
     0
 10
4368.913804
 20
112000.0
 30
0.0
  0
ENDBLK
  5
6E
  8
0
  0
BLOCK
  8
0
  2
*D4
 70
     1
 10
0.0
 20
0.0
 30
0.0
  3
*D4
  1

  0
LINE
  5
55
  8
0
  6
BYBLOCK
 62
     9
 10
4040.865753
 20
111787.6
 30
0.0
 11
4323.322759
 21
111787.6
 31
0.0
  0
LINE
  5
56
  8
0
  6
BYBLOCK
 62
     9
 10
4010.0
 20
112000.0
 30
0.0
 11
4323.322759
 21
112000.0
 31
0.0
  0
LINE
  5
57
  8
0
  6
BYBLOCK
 62
     9
 10
4322.322759
 20
111807.6
 30
0.0
 11
4322.322759
 21
111822.633333
 31
0.0
  0
LINE
  5
58
  8
0
  6
BYBLOCK
 62
     9
 10
4322.322759
 20
111980.0
 30
0.0
 11
4322.322759
 21
111964.966667
 31
0.0
  0
TEXT
  5
59
  8
0
  6
BYBLOCK
 62
    11
 10
4339.822759
 20
111829.633333
 30
0.0
 40
35.0
  1
212.5
 50
90.0
  0
SOLID
  5
5A
  8
0
  6
BYBLOCK
 62
     9
 10
4318.989426
 20
111807.6
 30
0.0
 11
4325.656093
 21
111807.6
 31
0.0
 12
4322.322759
 22
111787.6
 32
0.0
 13
4322.322759
 23
111787.6
 33
0.0
  0
SOLID
  5
5B
  8
0
  6
BYBLOCK
 62
     9
 10
4318.989426
 20
111980.0
 30
0.0
 11
4325.656093
 21
111980.0
 31
0.0
 12
4322.322759
 22
112000.0
 32
0.0
 13
4322.322759
 23
112000.0
 33
0.0
  0
POINT
  5
5C
  8
DEFPOINTS
  6
BYBLOCK
 62
     0
 10
4030.865753
 20
111787.6
 30
0.0
  0
POINT
  5
5D
  8
DEFPOINTS
  6
BYBLOCK
 62
     0
 10
4000.0
 20
112000.0
 30
0.0
  0
POINT
  5
5E
  8
DEFPOINTS
  6
BYBLOCK
 62
     0
 10
4322.322759
 20
112000.0
 30
0.0
  0
ENDBLK
  5
60
  8
0
  0
ENDSEC
  0
SECTION
  2
ENTITIES
  0
DIMENSION
  5
20
  8
TEAM-MAS
  2
*D2
 10
-305.929114
 20
-25.0
 30
0.0
 11
-305.929114
 21
-212.5
 31
0.0
 12
-4000.0
 22
-112000.0
 32
0.0
 13
0.0
 23
-400.0
 33
0.0
 14
0.0
 24
-25.0
 34
0.0
 50
90.0
1001
ACAD
1000
DSTYLE
1002
{
1070
    40
1040
1.0
1002
}
  0
DIMENSION
  5
2F
  8
TEAM-MAS
  2
*D1
 10
262.5
 20
-503.524533
 30
0.0
 11
0.0
 21
-503.524533
 31
0.0
 12
-4000.0
 22
-112000.0
 32
0.0
 13
-262.5
 23
-212.5
 33
0.0
 14
262.5
 24
-212.5
 34
0.0
1001
ACAD
1000
DSTYLE
1002
{
1070
    40
1040
1.0
1002
}
  0
TEXT
  5
3D
  8
TEAM-TXT
 10
-124.91523
 20
-310.146665
 30
0.0
 40
30.0
  1
team 233104
 41
0.8
 51
15.0
  7
TEAM
  0
DIMENSION
  5
40
  8
TEAM-MAS
  2
*D0
 10
-237.5
 20
-460.048579
 30
0.0
 11
0.0
 21
-460.048579
 31
0.0
 12
-4000.0
 22
-112000.0
 32
0.0
 13
237.5
 23
-212.5
 33
0.0
 14
-237.5
 24
-212.5
 34
0.0
1001
ACAD
1000
DSTYLE
1002
{
1070
    40
1040
1.0
1002
}
  0
POLYLINE
  5
4E
  8
TEAM-BODY
 66
     1
 10
0.0
 20
0.0
 30
0.0
 70
   128
  0
VERTEX
  5
166
  8
TEAM-BODY
 10
262.5
 20
-212.5
 30
0.0
  0
VERTEX
  5
167
  8
TEAM-BODY
 10
261.380221
 20
-192.892974
 30
0.0
  0
VERTEX
  5
168
  8
TEAM-BODY
 10
258.030439
 20
-173.453227
 30
0.0
  0
VERTEX
  5
169
  8
TEAM-BODY
 10
252.479231
 20
-154.346615
 30
0.0
  0
VERTEX
  5
16A
  8
TEAM-BODY
 10
244.77396
 20
-135.736146
 30
0.0
  0
VERTEX
  5
16B
  8
TEAM-BODY
 10
234.980364
 20
-117.780599
 30
0.0
  0
VERTEX
  5
16C
  8
TEAM-BODY
 10
223.181998
 20
-100.633165
 30
0.0
  0
VERTEX
  5
16D
  8
TEAM-BODY
 10
209.479522
 20
-84.44014
 30
0.0
  0
VERTEX
  5
16E
  8
TEAM-BODY
 10
193.989841
 20
-69.339676
 30
0.0
  0
VERTEX
  5
16F
  8
TEAM-BODY
 10
176.845106
 20
-55.460605
 30
0.0
  0
VERTEX
  5
170
  8
TEAM-BODY
 10
158.191592
 20
-42.921339
 30
0.0
  0
VERTEX
  5
171
  8
TEAM-BODY
 10
138.188443
 20
-31.828859
 30
0.0
  0
VERTEX
  5
172
  8
TEAM-BODY
 10
117.006318
 20
-22.277801
 30
0.0
  0
VERTEX
  5
173
  8
TEAM-BODY
 10
94.825937
 20
-14.349651
 30
0.0
  0
VERTEX
  5
174
  8
TEAM-BODY
 10
71.836535
 20
-8.112051
 30
0.0
  0
VERTEX
  5
175
  8
TEAM-BODY
 10
48.234248
 20
-3.618216
 30
0.0
  0
VERTEX
  5
176
  8
TEAM-BODY
 10
24.220444
 20
-0.906488
 30
0.0
  0
VERTEX
  5
177
  8
TEAM-BODY
 10
0.0
 20
0.0
 30
0.0
  0
VERTEX
  5
178
  8
TEAM-BODY
 10
-24.220444
 20
-0.906488
 30
0.0
  0
VERTEX
  5
179
  8
TEAM-BODY
 10
-48.234248
 20
-3.618216
 30
0.0
  0
VERTEX
  5
17A
  8
TEAM-BODY
 10
-71.836535
 20
-8.112051
 30
0.0
  0
VERTEX
  5
17B
  8
TEAM-BODY
 10
-94.825937
 20
-14.349651
 30
0.0
  0
VERTEX
  5
17C
  8
TEAM-BODY
 10
-117.006318
 20
-22.277801
 30
0.0
  0
VERTEX
  5
17D
  8
TEAM-BODY
 10
-138.188443
 20
-31.828859
 30
0.0
  0
VERTEX
  5
17E
  8
TEAM-BODY
 10
-158.191592
 20
-42.921339
 30
0.0
  0
VERTEX
  5
17F
  8
TEAM-BODY
 10
-176.845106
 20
-55.460605
 30
0.0
  0
VERTEX
  5
180
  8
TEAM-BODY
 10
-193.989841
 20
-69.339676
 30
0.0
  0
VERTEX
  5
181
  8
TEAM-BODY
 10
-209.479522
 20
-84.44014
 30
0.0
  0
VERTEX
  5
182
  8
TEAM-BODY
 10
-223.181998
 20
-100.633165
 30
0.0
  0
VERTEX
  5
183
  8
TEAM-BODY
 10
-234.980364
 20
-117.780599
 30
0.0
  0
VERTEX
  5
184
  8
TEAM-BODY
 10
-244.77396
 20
-135.736146
 30
0.0
  0
VERTEX
  5
185
  8
TEAM-BODY
 10
-252.479231
 20
-154.346615
 30
0.0
  0
VERTEX
  5
186
  8
TEAM-BODY
 10
-258.030439
 20
-173.453227
 30
0.0
  0
VERTEX
  5
187
  8
TEAM-BODY
 10
-261.380221
 20
-192.892974
 30
0.0
  0
VERTEX
  5
188
  8
TEAM-BODY
 10
-262.5
 20
-212.5
 30
0.0
  0
SEQEND
  5
189
  8
TEAM-BODY
  0
POLYLINE
  5
50
  8
TEAM-BODY
 66
     1
 10
0.0
 20
0.0
 30
0.0
 70
   128
  0
VERTEX
  5
18A
  8
TEAM-BODY
 10
237.5
 20
-212.5
 30
0.0
  0
VERTEX
  5
18B
  8
TEAM-BODY
 10
236.424582
 20
-194.676992
 30
0.0
  0
VERTEX
  5
18C
  8
TEAM-BODY
 10
233.208066
 20
-177.015392
 30
0.0
  0
VERTEX
  5
18D
  8
TEAM-BODY
 10
227.879581
 20
-159.675146
 30
0.0
  0
VERTEX
  5
18E
  8
TEAM-BODY
 10
220.487384
 20
-142.81329
 30
0.0
  0
VERTEX
  5
18F
  8
TEAM-BODY
 10
211.098419
 20
-126.582527
 30
0.0
  0
VERTEX
  5
190
  8
TEAM-BODY
 10
199.797714
 20
-111.129847
 30
0.0
  0
VERTEX
  5
191
  8
TEAM-BODY
 10
186.68761
 20
-96.59519
 30
0.0
  0
VERTEX
  5
192
  8
TEAM-BODY
 10
171.886834
 20
-83.110185
 30
0.0
  0
VERTEX
  5
193
  8
TEAM-BODY
 10
155.529424
 20
-70.796955
 30
0.0
  0
VERTEX
  5
194
  8
TEAM-BODY
 10
137.763516
 20
-59.767009
 30
0.0
  0
VERTEX
  5
195
  8
TEAM-BODY
 10
118.75
 20
-50.120237
 30
0.0
  0
VERTEX
  5
196
  8
TEAM-BODY
 10
98.661066
 20
-41.944001
 30
0.0
  0
VERTEX
  5
197
  8
TEAM-BODY
 10
77.678641
 20
-35.312346
 30
0.0
  0
VERTEX
  5
198
  8
TEAM-BODY
 10
55.992747
 20
-30.285331
 30
0.0
  0
VERTEX
  5
199
  8
TEAM-BODY
 10
33.799774
 20
-26.90848
 30
0.0
  0
VERTEX
  5
19A
  8
TEAM-BODY
 10
11.300705
 20
-25.212374
 30
0.0
  0
VERTEX
  5
19B
  8
TEAM-BODY
 10
-11.300705
 20
-25.212374
 30
0.0
  0
VERTEX
  5
19C
  8
TEAM-BODY
 10
-33.799774
 20
-26.90848
 30
0.0
  0
VERTEX
  5
19D
  8
TEAM-BODY
 10
-55.992747
 20
-30.285331
 30
0.0
  0
VERTEX
  5
19E
  8
TEAM-BODY
 10
-77.678641
 20
-35.312346
 30
0.0
  0
VERTEX
  5
19F
  8
TEAM-BODY
 10
-98.661066
 20
-41.944001
 30
0.0
  0
VERTEX
  5
1A0
  8
TEAM-BODY
 10
-118.75
 20
-50.120237
 30
0.0
  0
VERTEX
  5
1A1
  8
TEAM-BODY
 10
-137.763516
 20
-59.767009
 30
0.0
  0
VERTEX
  5
1A2
  8
TEAM-BODY
 10
-155.529424
 20
-70.796955
 30
0.0
  0
VERTEX
  5
1A3
  8
TEAM-BODY
 10
-171.886834
 20
-83.110185
 30
0.0
  0
VERTEX
  5
1A4
  8
TEAM-BODY
 10
-186.68761
 20
-96.59519
 30
0.0
  0
VERTEX
  5
1A5
  8
TEAM-BODY
 10
-199.797714
 20
-111.129847
 30
0.0
  0
VERTEX
  5
1A6
  8
TEAM-BODY
 10
-211.098419
 20
-126.582527
 30
0.0
  0
VERTEX
  5
1A7
  8
TEAM-BODY
 10
-220.487384
 20
-142.81329
 30
0.0
  0
VERTEX
  5
1A8
  8
TEAM-BODY
 10
-227.879581
 20
-159.675146
 30
0.0
  0
VERTEX
  5
1A9
  8
TEAM-BODY
 10
-233.208066
 20
-177.015392
 30
0.0
  0
VERTEX
  5
1AA
  8
TEAM-BODY
 10
-236.424582
 20
-194.676992
 30
0.0
  0
VERTEX
  5
1AB
  8
TEAM-BODY
 10
-237.5
 20
-212.5
 30
0.0
  0
SEQEND
  5
1AC
  8
TEAM-BODY
  0
POLYLINE
  5
51
  8
TEAM-BODY
 66
     1
 10
0.0
 20
0.0
 30
0.0
 70
   128
210
0.0
220
0.0
230
-1.0
  0
VERTEX
  5
1AD
  8
TEAM-BODY
 10
-262.5
 20
-212.5
 30
0.0
  0
VERTEX
  5
1AE
  8
TEAM-BODY
 10
-261.380221
 20
-232.107026
 30
0.0
  0
VERTEX
  5
1AF
  8
TEAM-BODY
 10
-258.030439
 20
-251.546773
 30
0.0
  0
VERTEX
  5
1B0
  8
TEAM-BODY
 10
-252.479231
 20
-270.653385
 30
0.0
  0
VERTEX
  5
1B1
  8
TEAM-BODY
 10
-244.77396
 20
-289.263854
 30
0.0
  0
VERTEX
  5
1B2
  8
TEAM-BODY
 10
-234.980364
 20
-307.219401
 30
0.0
  0
VERTEX
  5
1B3
  8
TEAM-BODY
 10
-223.181998
 20
-324.366835
 30
0.0
  0
VERTEX
  5
1B4
  8
TEAM-BODY
 10
-209.479522
 20
-340.55986
 30
0.0
  0
VERTEX
  5
1B5
  8
TEAM-BODY
 10
-193.989841
 20
-355.660324
 30
0.0
  0
VERTEX
  5
1B6
  8
TEAM-BODY
 10
-176.845106
 20
-369.539395
 30
0.0
  0
VERTEX
  5
1B7
  8
TEAM-BODY
 10
-158.191592
 20
-382.078661
 30
0.0
  0
VERTEX
  5
1B8
  8
TEAM-BODY
 10
-138.188443
 20
-393.171141
 30
0.0
  0
VERTEX
  5
1B9
  8
TEAM-BODY
 10
-117.006318
 20
-402.722199
 30
0.0
  0
VERTEX
  5
1BA
  8
TEAM-BODY
 10
-94.825937
 20
-410.650349
 30
0.0
  0
VERTEX
  5
1BB
  8
TEAM-BODY
 10
-71.836535
 20
-416.887949
 30
0.0
  0
VERTEX
  5
1BC
  8
TEAM-BODY
 10
-48.234248
 20
-421.381784
 30
0.0
  0
VERTEX
  5
1BD
  8
TEAM-BODY
 10
-24.220444
 20
-424.093512
 30
0.0
  0
VERTEX
  5
1BE
  8
TEAM-BODY
 10
0.0
 20
-425.0
 30
0.0
  0
VERTEX
  5
1BF
  8
TEAM-BODY
 10
24.220444
 20
-424.093512
 30
0.0
  0
VERTEX
  5
1C0
  8
TEAM-BODY
 10
48.234248
 20
-421.381784
 30
0.0
  0
VERTEX
  5
1C1
  8
TEAM-BODY
 10
71.836535
 20
-416.887949
 30
0.0
  0
VERTEX
  5
1C2
  8
TEAM-BODY
 10
94.825937
 20
-410.650349
 30
0.0
  0
VERTEX
  5
1C3
  8
TEAM-BODY
 10
117.006318
 20
-402.722199
 30
0.0
  0
VERTEX
  5
1C4
  8
TEAM-BODY
 10
138.188443
 20
-393.171141
 30
0.0
  0
VERTEX
  5
1C5
  8
TEAM-BODY
 10
158.191592
 20
-382.078661
 30
0.0
  0
VERTEX
  5
1C6
  8
TEAM-BODY
 10
176.845106
 20
-369.539395
 30
0.0
  0
VERTEX
  5
1C7
  8
TEAM-BODY
 10
193.989841
 20
-355.660324
 30
0.0
  0
VERTEX
  5
1C8
  8
TEAM-BODY
 10
209.479522
 20
-340.55986
 30
0.0
  0
VERTEX
  5
1C9
  8
TEAM-BODY
 10
223.181998
 20
-324.366835
 30
0.0
  0
VERTEX
  5
1CA
  8
TEAM-BODY
 10
234.980364
 20
-307.219401
 30
0.0
  0
VERTEX
  5
1CB
  8
TEAM-BODY
 10
244.77396
 20
-289.263854
 30
0.0
  0
VERTEX
  5
1CC
  8
TEAM-BODY
 10
252.479231
 20
-270.653385
 30
0.0
  0
VERTEX
  5
1CD
  8
TEAM-BODY
 10
258.030439
 20
-251.546773
 30
0.0
  0
VERTEX
  5
1CE
  8
TEAM-BODY
 10
261.380221
 20
-232.107026
 30
0.0
  0
VERTEX
  5
1CF
  8
TEAM-BODY
 10
262.5
 20
-212.5
 30
0.0
  0
SEQEND
  5
1D0
  8
TEAM-BODY
  0
POLYLINE
  5
52
  8
TEAM-BODY
 66
     1
 10
0.0
 20
0.0
 30
0.0
 70
   128
210
0.0
220
0.0
230
-1.0
  0
VERTEX
  5
1D1
  8
TEAM-BODY
 10
-237.5
 20
-212.5
 30
0.0
  0
VERTEX
  5
1D2
  8
TEAM-BODY
 10
-236.424582
 20
-230.323008
 30
0.0
  0
VERTEX
  5
1D3
  8
TEAM-BODY
 10
-233.208066
 20
-247.984608
 30
0.0
  0
VERTEX
  5
1D4
  8
TEAM-BODY
 10
-227.879581
 20
-265.324854
 30
0.0
  0
VERTEX
  5
1D5
  8
TEAM-BODY
 10
-220.487384
 20
-282.18671
 30
0.0
  0
VERTEX
  5
1D6
  8
TEAM-BODY
 10
-211.098419
 20
-298.417473
 30
0.0
  0
VERTEX
  5
1D7
  8
TEAM-BODY
 10
-199.797714
 20
-313.870153
 30
0.0
  0
VERTEX
  5
1D8
  8
TEAM-BODY
 10
-186.68761
 20
-328.40481
 30
0.0
  0
VERTEX
  5
1D9
  8
TEAM-BODY
 10
-171.886834
 20
-341.889815
 30
0.0
  0
VERTEX
  5
1DA
  8
TEAM-BODY
 10
-155.529424
 20
-354.203045
 30
0.0
  0
VERTEX
  5
1DB
  8
TEAM-BODY
 10
-137.763516
 20
-365.232991
 30
0.0
  0
VERTEX
  5
1DC
  8
TEAM-BODY
 10
-118.75
 20
-374.879763
 30
0.0
  0
VERTEX
  5
1DD
  8
TEAM-BODY
 10
-98.661066
 20
-383.055999
 30
0.0
  0
VERTEX
  5
1DE
  8
TEAM-BODY
 10
-77.678641
 20
-389.687654
 30
0.0
  0
VERTEX
  5
1DF
  8
TEAM-BODY
 10
-55.992747
 20
-394.714669
 30
0.0
  0
VERTEX
  5
1E0
  8
TEAM-BODY
 10
-33.799774
 20
-398.09152
 30
0.0
  0
VERTEX
  5
1E1
  8
TEAM-BODY
 10
-11.300705
 20
-399.787626
 30
0.0
  0
VERTEX
  5
1E2
  8
TEAM-BODY
 10
11.300705
 20
-399.787626
 30
0.0
  0
VERTEX
  5
1E3
  8
TEAM-BODY
 10
33.799774
 20
-398.09152
 30
0.0
  0
VERTEX
  5
1E4
  8
TEAM-BODY
 10
55.992747
 20
-394.714669
 30
0.0
  0
VERTEX
  5
1E5
  8
TEAM-BODY
 10
77.678641
 20
-389.687654
 30
0.0
  0
VERTEX
  5
1E6
  8
TEAM-BODY
 10
98.661066
 20
-383.055999
 30
0.0
  0
VERTEX
  5
1E7
  8
TEAM-BODY
 10
118.75
 20
-374.879763
 30
0.0
  0
VERTEX
  5
1E8
  8
TEAM-BODY
 10
137.763516
 20
-365.232991
 30
0.0
  0
VERTEX
  5
1E9
  8
TEAM-BODY
 10
155.529424
 20
-354.203045
 30
0.0
  0
VERTEX
  5
1EA
  8
TEAM-BODY
 10
171.886834
 20
-341.889815
 30
0.0
  0
VERTEX
  5
1EB
  8
TEAM-BODY
 10
186.68761
 20
-328.40481
 30
0.0
  0
VERTEX
  5
1EC
  8
TEAM-BODY
 10
199.797714
 20
-313.870153
 30
0.0
  0
VERTEX
  5
1ED
  8
TEAM-BODY
 10
211.098419
 20
-298.417473
 30
0.0
  0
VERTEX
  5
1EE
  8
TEAM-BODY
 10
220.487384
 20
-282.18671
 30
0.0
  0
VERTEX
  5
1EF
  8
TEAM-BODY
 10
227.879581
 20
-265.324854
 30
0.0
  0
VERTEX
  5
1F0
  8
TEAM-BODY
 10
233.208066
 20
-247.984608
 30
0.0
  0
VERTEX
  5
1F1
  8
TEAM-BODY
 10
236.424582
 20
-230.323008
 30
0.0
  0
VERTEX
  5
1F2
  8
TEAM-BODY
 10
237.5
 20
-212.5
 30
0.0
  0
SEQEND
  5
1F3
  8
TEAM-BODY
  0
DIMENSION
  5
53
  8
TEAM-MAS
  2
*D4
 10
322.322759
 20
0.0
 30
0.0
 11
322.322759
 21
-106.2
 31
0.0
 12
-4000.0
 22
-112000.0
 32
0.0
 70
   128
  1
<>.5
 13
30.865753
 23
-212.4
 33
0.0
 14
0.0
 24
0.0
 34
0.0
 50
270.0
1001
ACAD
1000
DSTYLE
1002
{
1070
    40
1040
1.0
1002
}
  0
DIMENSION
  5
61
  8
TEAM-MAS
  2
*D3
 10
368.913804
 20
0.0
 30
0.0
 11
368.913804
 21
-212.5
 31
0.0
 12
-4000.0
 22
-112000.0
 32
0.0
 13
0.0
 23
-425.0
 33
0.0
 14
0.0
 24
0.0
 34
0.0
 50
270.0
1001
ACAD
1000
DSTYLE
1002
{
1070
    40
1040
1.0
1002
}
  0
CIRCLE
  5
6F
  8
TEAM-DET1
 10
0.0
 20
-212.5
 30
0.0
 40
30.0
  0
CIRCLE
  5
71
  8
TEAM-KAN
 10
0.0
 20
-212.5
 30
0.0
 40
20.0
  0
LINE
  5
73
  8
TEAM-AXE
 10
35.0
 20
-212.5
 30
0.0
 11
-35.0
 21
-212.5
 31
0.0
  0
LINE
  5
76
  8
TEAM-AXE
 10
0.0
 20
-247.5
 30
0.0
 11
0.0
 21
-177.5
 31
0.0
  0
CIRCLE
  5
77
  8
TEAM-INSP
 10
0.0
 20
0.0
 30
0.0
 40
10.0
  0
POLYLINE
  5
79
  8
TEAM-DET1
 66
     1
 10
0.0
 20
0.0
 30
0.0
 70
   129
  0
VERTEX
  5
1F4
  8
TEAM-DET1
 10
-20.0
 20
-33.076116
 30
0.0
  0
VERTEX
  5
1F5
  8
TEAM-DET1
 10
-19.638574
 20
-34.112009
 30
0.0
  0
VERTEX
  5
1F6
  8
TEAM-DET1
 10
-18.567359
 20
-35.110462
 30
0.0
  0
VERTEX
  5
1F7
  8
TEAM-DET1
 10
-16.825071
 20
-36.035389
 30
0.0
  0
VERTEX
  5
1F8
  8
TEAM-DET1
 10
-14.474681
 20
-36.853359
 30
0.0
  0
VERTEX
  5
1F9
  8
TEAM-DET1
 10
-11.601138
 20
-37.53481
 30
0.0
  0
VERTEX
  5
1FA
  8
TEAM-DET1
 10
-8.3083
 20
-38.055113
 30
0.0
  0
VERTEX
  5
1FB
  8
TEAM-DET1
 10
-4.715179
 20
-38.395461
 30
0.0
  0
VERTEX
  5
1FC
  8
TEAM-DET1
 10
-0.951638
 20
-38.543555
 30
0.0
  0
VERTEX
  5
1FD
  8
TEAM-DET1
 10
2.846297
 20
-38.494041
 30
0.0
  0
VERTEX
  5
1FE
  8
TEAM-DET1
 10
6.541359
 20
-38.248709
 30
0.0
  0
VERTEX
  5
1FF
  8
TEAM-DET1
 10
10.0
 20
-37.816426
 30
0.0
  0
VERTEX
  5
200
  8
TEAM-DET1
 10
13.097215
 20
-37.212816
 30
0.0
  0
VERTEX
  5
201
  8
TEAM-DET1
 10
15.721062
 20
-36.459695
 30
0.0
  0
VERTEX
  5
202
  8
TEAM-DET1
 10
17.776709
 20
-35.584282
 30
0.0
  0
VERTEX
  5
203
  8
TEAM-DET1
 10
19.189859
 20
-34.618218
 30
0.0
  0
VERTEX
  5
204
  8
TEAM-DET1
 10
19.909438
 20
-33.596419
 30
0.0
  0
VERTEX
  5
205
  8
TEAM-DET1
 10
19.909438
 20
-32.555814
 30
0.0
  0
VERTEX
  5
206
  8
TEAM-DET1
 10
19.189859
 20
-31.534014
 30
0.0
  0
VERTEX
  5
207
  8
TEAM-DET1
 10
17.776709
 20
-30.56795
 30
0.0
  0
VERTEX
  5
208
  8
TEAM-DET1
 10
15.721062
 20
-29.692538
 30
0.0
  0
VERTEX
  5
209
  8
TEAM-DET1
 10
13.097215
 20
-28.939416
 30
0.0
  0
VERTEX
  5
20A
  8
TEAM-DET1
 10
10.0
 20
-28.335806
 30
0.0
  0
VERTEX
  5
20B
  8
TEAM-DET1
 10
6.541359
 20
-27.903524
 30
0.0
  0
VERTEX
  5
20C
  8
TEAM-DET1
 10
2.846297
 20
-27.658192
 30
0.0
  0
VERTEX
  5
20D
  8
TEAM-DET1
 10
-0.951638
 20
-27.608678
 30
0.0
  0
VERTEX
  5
20E
  8
TEAM-DET1
 10
-4.715179
 20
-27.756771
 30
0.0
  0
VERTEX
  5
20F
  8
TEAM-DET1
 10
-8.3083
 20
-28.09712
 30
0.0
  0
VERTEX
  5
210
  8
TEAM-DET1
 10
-11.601138
 20
-28.617422
 30
0.0
  0
VERTEX
  5
211
  8
TEAM-DET1
 10
-14.474681
 20
-29.298873
 30
0.0
  0
VERTEX
  5
212
  8
TEAM-DET1
 10
-16.825071
 20
-30.116844
 30
0.0
  0
VERTEX
  5
213
  8
TEAM-DET1
 10
-18.567359
 20
-31.04177
 30
0.0
  0
VERTEX
  5
214
  8
TEAM-DET1
 10
-19.638574
 20
-32.040223
 30
0.0
  0
SEQEND
  5
215
  8
TEAM-DET1
  0
LINE
  5
7A
  8
TEAM-AXE
 10
20.0
 20
-33.076116
 30
0.0
 11
-20.0
 21
-33.076116
 31
0.0
  0
LINE
  5
7B
  8
TEAM-AXE
 10
0.0
 20
-38.549755
 30
0.0
 11
0.0
 21
-27.602478
 31
0.0
  0
ENDSEC
  0
EOF
