  0
SECTION
  2
HEADER
  9
$ACADVER
  1
AC1009
  9
$INSBASE
 10
0.0
 20
0.0
 30
0.0
  9
$EXTMIN
 10
-323.473209
 20
-547.761667
 30
-0.000006
  9
$EXTMAX
 10
386.456632
 20
10.007996
 30
0.0
  9
$LIMMIN
 10
-323.473209
 20
-547.761667
  9
$LIMMAX
 10
386.456632
 20
10.007996
  9
$ORTHOMODE
 70
     1
  9
$REGENMODE
 70
     1
  9
$FILLMODE
 70
     1
  9
$QTEXTMODE
 70
     0
  9
$MIRRTEXT
 70
     0
  9
$DRAGMODE
 70
     2
  9
$LTSCALE
 40
50.0
  9
$OSMODE
 70
     7
  9
$ATTMODE
 70
     1
  9
$TEXTSIZE
 40
200.0
  9
$TRACEWID
 40
1.0
  9
$TEXTSTYLE
  7
STANDARD
  9
$CLAYER
  8
TEAM-MAS
  9
$CELTYPE
  6
BYLAYER
  9
$CECOLOR
 62
   256
  9
$DIMSCALE
 40
1.0
  9
$DIMASZ
 40
20.0
  9
$DIMEXO
 40
10.0
  9
$DIMDLI
 40
1.0
  9
$DIMRND
 40
0.0
  9
$DIMDLE
 40
0.0
  9
$DIMEXE
 40
1.0
  9
$DIMTP
 40
0.0
  9
$DIMTM
 40
0.0
  9
$DIMTXT
 40
35.0
  9
$DIMCEN
 40
1.0
  9
$DIMTSZ
 40
0.0
  9
$DIMTOL
 70
     0
  9
$DIMLIM
 70
     0
  9
$DIMTIH
 70
     0
  9
$DIMTOH
 70
     0
  9
$DIMSE1
 70
     0
  9
$DIMSE2
 70
     0
  9
$DIMTAD
 70
     0
  9
$DIMZIN
 70
     0
  9
$DIMBLK
  1

  9
$DIMASO
 70
     1
  9
$DIMSHO
 70
     0
  9
$DIMPOST
  1

  9
$DIMAPOST
  1

  9
$DIMALT
 70
     0
  9
$DIMALTD
 70
     2
  9
$DIMALTF
 40
25.4
  9
$DIMLFAC
 40
1.0
  9
$DIMTOFL
 70
     0
  9
$DIMTVP
 40
0.0
  9
$DIMTIX
 70
     0
  9
$DIMSOXD
 70
     0
  9
$DIMSAH
 70
     0
  9
$DIMBLK1
  1

  9
$DIMBLK2
  1

  9
$DIMSTYLE
  2
TEAM
  9
$DIMCLRD
 70
     9
  9
$DIMCLRE
 70
     9
  9
$DIMCLRT
 70
    11
  9
$DIMTFAC
 40
1.0
  9
$DIMGAP
 40
7.0
  9
$LUNITS
 70
     2
  9
$LUPREC
 70
     1
  9
$SKETCHINC
 40
1.0
  9
$FILLETRAD
 40
44.0
  9
$AUNITS
 70
     0
  9
$AUPREC
 70
     0
  9
$MENU
  1
ROPLANS
  9
$ELEVATION
 40
0.0
  9
$PELEVATION
 40
0.0
  9
$THICKNESS
 40
0.0
  9
$LIMCHECK
 70
     0
  9
$BLIPMODE
 70
     1
  9
$CHAMFERA
 40
0.0
  9
$CHAMFERB
 40
0.0
  9
$SKPOLY
 70
     0
  9
$TDCREATE
 40
2450392.957851
  9
$TDUPDATE
 40
2455981.928629
  9
$TDINDWG
 40
3.777306
  9
$TDUSRTIMER
 40
3.777306
  9
$USRTIMER
 70
     1
  9
$ANGBASE
 50
0.0
  9
$ANGDIR
 70
     0
  9
$PDMODE
 70
     0
  9
$PDSIZE
 40
0.0
  9
$PLINEWID
 40
0.0
  9
$COORDS
 70
     2
  9
$SPLFRAME
 70
     0
  9
$SPLINETYPE
 70
     6
  9
$SPLINESEGS
 70
     8
  9
$ATTDIA
 70
     0
  9
$ATTREQ
 70
     0
  9
$HANDLING
 70
     1
  9
$HANDSEED
  5
E9
  9
$SURFTAB1
 70
    36
  9
$SURFTAB2
 70
    36
  9
$SURFTYPE
 70
     6
  9
$SURFU
 70
     6
  9
$SURFV
 70
     6
  9
$UCSNAME
  2

  9
$UCSORG
 10
0.0
 20
0.0
 30
0.0
  9
$UCSXDIR
 10
1.0
 20
0.0
 30
0.0
  9
$UCSYDIR
 10
0.0
 20
1.0
 30
0.0
  9
$PUCSNAME
  2

  9
$PUCSORG
 10
0.0
 20
0.0
 30
0.0
  9
$PUCSXDIR
 10
1.0
 20
0.0
 30
0.0
  9
$PUCSYDIR
 10
0.0
 20
1.0
 30
0.0
  9
$USERI1
 70
     0
  9
$USERI2
 70
     0
  9
$USERI3
 70
     0
  9
$USERI4
 70
     0
  9
$USERI5
 70
     0
  9
$USERR1
 40
0.0
  9
$USERR2
 40
0.0
  9
$USERR3
 40
0.0
  9
$USERR4
 40
0.0
  9
$USERR5
 40
0.0
  9
$WORLDVIEW
 70
     1
  9
$SHADEDGE
 70
     0
  9
$SHADEDIF
 70
    70
  9
$TILEMODE
 70
     1
  9
$MAXACTVP
 70
    16
  9
$PLIMCHECK
 70
     0
  9
$PEXTMIN
 10
-0.805942
 20
0.005011
 30
0.0
  9
$PEXTMAX
 10
20.250094
 20
11.356329
 30
0.0
  9
$PLIMMIN
 10
0.0
 20
0.0
  9
$PLIMMAX
 10
12.0
 20
9.0
  9
$UNITMODE
 70
     0
  9
$VISRETAIN
 70
     0
  9
$PLINEGEN
 70
     0
  9
$PSLTSCALE
 70
     0
  0
ENDSEC
  0
SECTION
  2
TABLES
  0
TABLE
  2
VPORT
 70
     2
  0
VPORT
  2
*ACTIVE
 70
     0
 10
0.0
 20
0.0
 11
1.0
 21
1.0
 12
31.491711
 22
-268.876835
 13
0.0
 23
0.0
 14
1.0
 24
1.0
 15
50.0
 25
50.0
 16
0.0
 26
0.0
 36
1.0
 17
0.0
 27
0.0
 37
0.0
 40
561.266651
 41
1.903766
 42
50.0
 43
0.0
 44
0.0
 50
0.0
 51
0.0
 71
     0
 72
   100
 73
     1
 74
     1
 75
     0
 76
     0
 77
     0
 78
     0
  0
ENDTAB
  0
TABLE
  2
LTYPE
 70
     2
  0
LTYPE
  2
CONTINUOUS
 70
     0
  3
Solid Line
 72
    65
 73
     0
 40
0.0
  0
LTYPE
  2
31
 70
     0
  3

 72
    65
 73
     4
 40
2.1
 49
1.5
 49
-0.3
 49
0.0
 49
-0.3
  0
ENDTAB
  0
TABLE
  2
LAYER
 70
     9
  0
LAYER
  2
0
 70
     0
 62
     7
  6
CONTINUOUS
  0
LAYER
  2
DEFPOINTS
 70
     0
 62
     7
  6
CONTINUOUS
  0
LAYER
  2
TEAM-BODY
 70
     0
 62
     2
  6
CONTINUOUS
  0
LAYER
  2
TEAM-AXE
 70
     0
 62
    10
  6
31
  0
LAYER
  2
TEAM-MAS
 70
     0
 62
     9
  6
CONTINUOUS
  0
LAYER
  2
TEAM-TXT
 70
     0
 62
    11
  6
CONTINUOUS
  0
LAYER
  2
TEAM-DET1
 70
     0
 62
     4
  6
CONTINUOUS
  0
LAYER
  2
TEAM-KAN
 70
     0
 62
     6
  6
CONTINUOUS
  0
LAYER
  2
TEAM-INSP
 70
     0
 62
     5
  6
CONTINUOUS
  0
ENDTAB
  0
TABLE
  2
STYLE
 70
     2
  0
STYLE
  2
STANDARD
 70
     0
 40
0.0
 41
1.0
 50
0.0
 71
     0
 42
200.0
  3
txt
  4

  0
STYLE
  2
TEAM
 70
     0
 40
0.0
 41
0.8
 50
15.0
 71
     0
 42
7.0
  3
ROMANS.shx
  4

  0
ENDTAB
  0
TABLE
  2
VIEW
 70
     0
  0
ENDTAB
  0
TABLE
  2
UCS
 70
     0
  0
ENDTAB
  0
TABLE
  2
APPID
 70
     1
  0
APPID
  2
ACAD
 70
     0
  0
ENDTAB
  0
TABLE
  2
DIMSTYLE
 70
     1
  0
DIMSTYLE
  2
TEAM
 70
     0
  3

  4

  5

  6

  7

 40
1.0
 41
20.0
 42
10.0
 43
1.0
 44
1.0
 45
0.0
 46
0.0
 47
0.0
 48
0.0
140
35.0
141
1.0
142
0.0
143
25.4
144
1.0
145
0.0
146
1.0
147
7.0
 71
     0
 72
     0
 73
     0
 74
     0
 75
     0
 76
     0
 77
     0
 78
     0
170
     0
171
     2
172
     0
173
     0
174
     0
175
     0
176
     9
177
     9
178
    11
  0
ENDTAB
  0
ENDSEC
  0
SECTION
  2
BLOCKS
  0
BLOCK
  8
0
  2
$MODEL_SPACE
 70
     0
 10
0.0
 20
0.0
 30
0.0
  3
$MODEL_SPACE
  1

  0
ENDBLK
  5
D2
  8
0
  0
BLOCK
 67
     1
  8
0
  2
$PAPER_SPACE
 70
     0
 10
0.0
 20
0.0
 30
0.0
  3
$PAPER_SPACE
  1

  0
ENDBLK
  5
D0
 67
     1
  8
0
  0
BLOCK
  8
0
  2
*D0
 70
     1
 10
0.0
 20
0.0
 30
0.0
  3
*D0
  1

  0
LINE
  5
3F
  8
0
  6
BYBLOCK
 62
     9
 10
3775.0
 20
119765.0
 30
0.0
 11
3775.0
 21
119468.755521
 31
0.0
  0
LINE
  5
40
  8
0
  6
BYBLOCK
 62
     9
 10
4225.0
 20
119765.0
 30
0.0
 11
4225.0
 21
119468.755521
 31
0.0
  0
LINE
  5
41
  8
0
  6
BYBLOCK
 62
     9
 10
3795.0
 20
119469.755521
 30
0.0
 11
3949.25
 21
119469.755521
 31
0.0
  0
LINE
  5
42
  8
0
  6
BYBLOCK
 62
     9
 10
4205.0
 20
119469.755521
 30
0.0
 11
4050.75
 21
119469.755521
 31
0.0
  0
SOLID
  5
43
  8
0
  6
BYBLOCK
 62
     9
 10
3795.0
 20
119473.088855
 30
0.0
 11
3795.0
 21
119466.422188
 31
0.0
 12
3775.0
 22
119469.755521
 32
0.0
 13
3775.0
 23
119469.755521
 33
0.0
  0
SOLID
  5
44
  8
0
  6
BYBLOCK
 62
     9
 10
4205.0
 20
119473.088855
 30
0.0
 11
4205.0
 21
119466.422188
 31
0.0
 12
4225.0
 22
119469.755521
 32
0.0
 13
4225.0
 23
119469.755521
 33
0.0
  0
TEXT
  5
45
  8
0
  6
BYBLOCK
 62
    11
 10
3956.25
 20
119452.255521
 30
0.0
 40
35.0
  1
450
  0
POINT
  5
46
  8
DEFPOINTS
  6
BYBLOCK
 62
     0
 10
3775.0
 20
119775.0
 30
0.0
  0
POINT
  5
47
  8
DEFPOINTS
  6
BYBLOCK
 62
     0
 10
4225.0
 20
119775.0
 30
0.0
  0
POINT
  5
48
  8
DEFPOINTS
  6
BYBLOCK
 62
     0
 10
4225.0
 20
119469.755521
 30
0.0
  0
ENDBLK
  5
4A
  8
0
  0
BLOCK
  8
0
  2
*D1
 70
     1
 10
0.0
 20
0.0
 30
0.0
  3
*D1
  1

  0
LINE
  5
31
  8
0
  6
BYBLOCK
 62
     9
 10
4200.0
 20
119765.0
 30
0.0
 11
4200.0
 21
119512.231475
 31
0.0
  0
LINE
  5
32
  8
0
  6
BYBLOCK
 62
     9
 10
3800.0
 20
119765.0
 30
0.0
 11
3800.0
 21
119512.231475
 31
0.0
  0
LINE
  5
33
  8
0
  6
BYBLOCK
 62
     9
 10
4180.0
 20
119513.231475
 30
0.0
 11
4047.833333
 21
119513.231475
 31
0.0
  0
LINE
  5
34
  8
0
  6
BYBLOCK
 62
     9
 10
3820.0
 20
119513.231475
 30
0.0
 11
3952.166667
 21
119513.231475
 31
0.0
  0
SOLID
  5
35
  8
0
  6
BYBLOCK
 62
     9
 10
4180.0
 20
119516.564809
 30
0.0
 11
4180.0
 21
119509.898142
 31
0.0
 12
4200.0
 22
119513.231475
 32
0.0
 13
4200.0
 23
119513.231475
 33
0.0
  0
SOLID
  5
36
  8
0
  6
BYBLOCK
 62
     9
 10
3820.0
 20
119516.564809
 30
0.0
 11
3820.0
 21
119509.898142
 31
0.0
 12
3800.0
 22
119513.231475
 32
0.0
 13
3800.0
 23
119513.231475
 33
0.0
  0
TEXT
  5
37
  8
0
  6
BYBLOCK
 62
    11
 10
3959.166667
 20
119495.731475
 30
0.0
 40
35.0
  1
400
  0
POINT
  5
38
  8
DEFPOINTS
  6
BYBLOCK
 62
     0
 10
4200.0
 20
119775.0
 30
0.0
  0
POINT
  5
39
  8
DEFPOINTS
  6
BYBLOCK
 62
     0
 10
3800.0
 20
119775.0
 30
0.0
  0
POINT
  5
3A
  8
DEFPOINTS
  6
BYBLOCK
 62
     0
 10
3800.0
 20
119513.231475
 30
0.0
  0
ENDBLK
  5
3C
  8
0
  0
BLOCK
  8
0
  2
*D2
 70
     1
 10
0.0
 20
0.0
 30
0.0
  3
*D2
  1

  0
LINE
  5
22
  8
0
  6
BYBLOCK
 62
     9
 10
3990.0
 20
119550.0
 30
0.0
 11
3693.070886
 21
119550.0
 31
0.0
  0
LINE
  5
23
  8
0
  6
BYBLOCK
 62
     9
 10
3833.87505
 20
119900.0
 30
0.0
 11
3693.070886
 21
119900.0
 31
0.0
  0
LINE
  5
24
  8
0
  6
BYBLOCK
 62
     9
 10
3694.070886
 20
119570.0
 30
0.0
 11
3694.070886
 21
119674.25
 31
0.0
  0
LINE
  5
25
  8
0
  6
BYBLOCK
 62
     9
 10
3694.070886
 20
119880.0
 30
0.0
 11
3694.070886
 21
119775.75
 31
0.0
  0
SOLID
  5
26
  8
0
  6
BYBLOCK
 62
     9
 10
3690.737553
 20
119570.0
 30
0.0
 11
3697.404219
 21
119570.0
 31
0.0
 12
3694.070886
 22
119550.0
 32
0.0
 13
3694.070886
 23
119550.0
 33
0.0
  0
SOLID
  5
27
  8
0
  6
BYBLOCK
 62
     9
 10
3690.737553
 20
119880.0
 30
0.0
 11
3697.404219
 21
119880.0
 31
0.0
 12
3694.070886
 22
119900.0
 32
0.0
 13
3694.070886
 23
119900.0
 33
0.0
  0
TEXT
  5
28
  8
0
  6
BYBLOCK
 62
    11
 10
3711.570886
 20
119681.25
 30
0.0
 40
35.0
  1
350
 50
90.0
  0
POINT
  5
29
  8
DEFPOINTS
  6
BYBLOCK
 62
     0
 10
4000.0
 20
119550.0
 30
0.0
  0
POINT
  5
2B
  8
DEFPOINTS
  6
BYBLOCK
 62
     0
 10
3843.87505
 20
119900.0
 30
0.0
  0
POINT
  5
2C
  8
DEFPOINTS
  6
BYBLOCK
 62
     0
 10
3694.070886
 20
119900.0
 30
0.0
  0
ENDBLK
  5
2E
  8
0
  0
BLOCK
  8
0
  2
*D3
 70
     1
 10
0.0
 20
0.0
 30
0.0
  3
*D3
  1

  0
LINE
  5
63
  8
0
  6
BYBLOCK
 62
     9
 10
4010.0
 20
119550.0
 30
0.0
 11
4369.913804
 21
119550.0
 31
0.0
  0
LINE
  5
64
  8
0
  6
BYBLOCK
 62
     9
 10
4010.0
 20
120000.0
 30
0.0
 11
4369.913804
 21
120000.0
 31
0.0
  0
LINE
  5
65
  8
0
  6
BYBLOCK
 62
     9
 10
4368.913804
 20
119570.0
 30
0.0
 11
4368.913804
 21
119724.25
 31
0.0
  0
LINE
  5
66
  8
0
  6
BYBLOCK
 62
     9
 10
4368.913804
 20
119980.0
 30
0.0
 11
4368.913804
 21
119825.75
 31
0.0
  0
SOLID
  5
67
  8
0
  6
BYBLOCK
 62
     9
 10
4365.580471
 20
119570.0
 30
0.0
 11
4372.247137
 21
119570.0
 31
0.0
 12
4368.913804
 22
119550.0
 32
0.0
 13
4368.913804
 23
119550.0
 33
0.0
  0
SOLID
  5
68
  8
0
  6
BYBLOCK
 62
     9
 10
4365.580471
 20
119980.0
 30
0.0
 11
4372.247137
 21
119980.0
 31
0.0
 12
4368.913804
 22
120000.0
 32
0.0
 13
4368.913804
 23
120000.0
 33
0.0
  0
TEXT
  5
69
  8
0
  6
BYBLOCK
 62
    11
 10
4386.413804
 20
119731.25
 30
0.0
 40
35.0
  1
450
 50
90.0
  0
POINT
  5
6A
  8
DEFPOINTS
  6
BYBLOCK
 62
     0
 10
4000.0
 20
119550.0
 30
0.0
  0
POINT
  5
6B
  8
DEFPOINTS
  6
BYBLOCK
 62
     0
 10
4000.0
 20
120000.0
 30
0.0
  0
POINT
  5
6C
  8
DEFPOINTS
  6
BYBLOCK
 62
     0
 10
4368.913804
 20
120000.0
 30
0.0
  0
ENDBLK
  5
6E
  8
0
  0
BLOCK
  8
0
  2
*D4
 70
     1
 10
0.0
 20
0.0
 30
0.0
  3
*D4
  1

  0
LINE
  5
55
  8
0
  6
BYBLOCK
 62
     9
 10
4010.0
 20
119824.0
 30
0.0
 11
4323.322759
 21
119824.0
 31
0.0
  0
LINE
  5
56
  8
0
  6
BYBLOCK
 62
     9
 10
4010.0
 20
120000.0
 30
0.0
 11
4323.322759
 21
120000.0
 31
0.0
  0
LINE
  5
57
  8
0
  6
BYBLOCK
 62
     9
 10
4322.322759
 20
119844.0
 30
0.0
 11
4322.322759
 21
119864.166667
 31
0.0
  0
LINE
  5
58
  8
0
  6
BYBLOCK
 62
     9
 10
4322.322759
 20
119980.0
 30
0.0
 11
4322.322759
 21
119959.833333
 31
0.0
  0
TEXT
  5
59
  8
0
  6
BYBLOCK
 62
    11
 10
4339.822759
 20
119871.166667
 30
0.0
 40
35.0
  1
176
 50
90.0
  0
SOLID
  5
5A
  8
0
  6
BYBLOCK
 62
     9
 10
4318.989426
 20
119844.0
 30
0.0
 11
4325.656093
 21
119844.0
 31
0.0
 12
4322.322759
 22
119824.0
 32
0.0
 13
4322.322759
 23
119824.0
 33
0.0
  0
SOLID
  5
5B
  8
0
  6
BYBLOCK
 62
     9
 10
4318.989426
 20
119980.0
 30
0.0
 11
4325.656093
 21
119980.0
 31
0.0
 12
4322.322759
 22
120000.0
 32
0.0
 13
4322.322759
 23
120000.0
 33
0.0
  0
POINT
  5
5C
  8
DEFPOINTS
  6
BYBLOCK
 62
     0
 10
4000.0
 20
119824.0
 30
0.0
  0
POINT
  5
5D
  8
DEFPOINTS
  6
BYBLOCK
 62
     0
 10
4000.0
 20
120000.0
 30
0.0
  0
POINT
  5
5E
  8
DEFPOINTS
  6
BYBLOCK
 62
     0
 10
4322.322759
 20
120000.0
 30
0.0
  0
ENDBLK
  5
60
  8
0
  0
ENDSEC
  0
SECTION
  2
ENTITIES
  0
DIMENSION
  5
20
  8
TEAM-MAS
  2
*D2
 10
-305.929114
 20
-100.0
 30
0.0
 11
-305.929114
 21
-275.0
 31
0.0
 12
-4000.0
 22
-120000.0
 32
0.0
 13
0.0
 23
-450.0
 33
0.0
 14
-156.12495
 24
-100.0
 34
0.0
 50
90.0
1001
ACAD
1000
DSTYLE
1002
{
1070
    40
1040
1.0
1002
}
  0
DIMENSION
  5
2F
  8
TEAM-MAS
  2
*D1
 10
-200.0
 20
-486.768525
 30
0.0
 11
0.0
 21
-486.768525
 31
0.0
 12
-4000.0
 22
-120000.0
 32
0.0
 13
200.0
 23
-225.0
 33
0.0
 14
-200.0
 24
-225.0
 34
0.0
1001
ACAD
1000
DSTYLE
1002
{
1070
    40
1040
1.0
1002
}
  0
DIMENSION
  5
3D
  8
TEAM-MAS
  2
*D0
 10
225.0
 20
-530.244479
 30
0.0
 11
0.0
 21
-530.244479
 31
0.0
 12
-4000.0
 22
-120000.0
 32
0.0
 13
-225.0
 23
-225.0
 33
0.0
 14
225.0
 24
-225.0
 34
0.0
1001
ACAD
1000
DSTYLE
1002
{
1070
    40
1040
1.0
1002
}
  0
TEXT
  5
4B
  8
TEAM-TXT
 10
-124.91523
 20
-310.146665
 30
0.0
 40
30.0
  1
team 233109
 41
0.8
 51
15.0
  7
TEAM
  0
POLYLINE
  5
4E
  8
TEAM-BODY
 66
     1
 10
0.0
 20
0.0
 30
0.0
  0
VERTEX
  5
D8
  8
TEAM-BODY
 10
0.0
 20
-425.0
 30
0.0
 42
-0.629016
  0
VERTEX
  5
D9
  8
TEAM-BODY
 10
-156.12495
 20
-100.0
 30
0.0
  0
VERTEX
  5
DA
  8
TEAM-BODY
 10
0.0
 20
-100.0
 30
0.0
  0
SEQEND
  5
DB
  8
TEAM-BODY
  0
ARC
  5
50
  8
TEAM-BODY
 10
0.0
 20
-225.0
 30
0.0
 40
225.0
 50
90.0
 51
270.0
  0
POLYLINE
  5
51
  8
TEAM-DET1
 66
     1
 10
0.0
 20
0.0
 30
0.0
  0
VERTEX
  5
DC
  8
TEAM-DET1
 10
0.0
 20
-420.0
 30
0.0
 42
-0.624747
  0
VERTEX
  5
DD
  8
TEAM-DET1
 10
-153.704261
 20
-105.0
 30
0.0
  0
VERTEX
  5
DE
  8
TEAM-DET1
 10
0.0
 20
-105.0
 30
0.0
  0
SEQEND
  5
DF
  8
TEAM-DET1
  0
DIMENSION
  5
53
  8
TEAM-MAS
  2
*D4
 10
322.322759
 20
0.0
 30
0.0
 11
322.322759
 21
-88.0
 31
0.0
 12
-4000.0
 22
-120000.0
 32
0.0
 70
   128
 13
0.0
 23
-176.0
 33
0.0
 14
0.0
 24
0.0
 34
0.0
 50
270.0
1001
ACAD
1000
DSTYLE
1002
{
1070
    40
1040
1.0
1002
}
  0
DIMENSION
  5
61
  8
TEAM-MAS
  2
*D3
 10
368.913804
 20
0.0
 30
0.0
 11
368.913804
 21
-225.0
 31
0.0
 12
-4000.0
 22
-120000.0
 32
0.0
 13
0.0
 23
-450.0
 33
0.0
 14
0.0
 24
0.0
 34
0.0
 50
270.0
1001
ACAD
1000
DSTYLE
1002
{
1070
    40
1040
1.0
1002
}
  0
LINE
  5
6F
  8
TEAM-AXE
 10
0.0
 20
-211.0
 30
0.0
 11
0.0
 21
-141.0
 31
0.0
  0
CIRCLE
  5
72
  8
TEAM-DET1
 10
0.0
 20
-176.0
 30
0.0
 40
30.0
  0
CIRCLE
  5
73
  8
TEAM-KAN
 10
0.0
 20
-176.0
 30
0.0
 40
20.0
  0
LINE
  5
75
  8
TEAM-AXE
 10
35.0
 20
-176.0
 30
0.0
 11
-35.0
 21
-176.0
 31
0.0
  0
CIRCLE
  5
76
  8
TEAM-INSP
 10
0.0
 20
0.0
 30
0.0
 40
10.0
  0
ARC
  5
78
  8
TEAM-BODY
 10
0.0
 20
-225.0
 30
0.0
 40
225.0
 50
270.0
 51
90.0
  0
POLYLINE
  5
79
  8
TEAM-BODY
 66
     1
 10
0.0
 20
0.0
 30
0.0
  0
VERTEX
  5
E0
  8
TEAM-BODY
 10
0.0
 20
-425.0
 30
0.0
 42
0.629016
  0
VERTEX
  5
E1
  8
TEAM-BODY
 10
156.12495
 20
-100.0
 30
0.0
  0
VERTEX
  5
E2
  8
TEAM-BODY
 10
0.0
 20
-100.0
 30
0.0
  0
SEQEND
  5
E3
  8
TEAM-BODY
  0
LINE
  5
7A
  8
TEAM-AXE
 10
0.0
 20
-70.0
 30
0.0
 11
0.0
 21
-30.0
 31
0.0
  0
CIRCLE
  5
7B
  8
TEAM-DET1
 10
0.0
 20
-50.0
 30
0.0
 40
18.0
  0
LINE
  5
7C
  8
TEAM-AXE
 10
20.0
 20
-50.0
 30
0.0
 11
-20.0
 21
-50.0
 31
0.0
  0
POLYLINE
  5
7D
  8
TEAM-DET1
 66
     1
 10
0.0
 20
0.0
 30
0.0
  0
VERTEX
  5
E4
  8
TEAM-DET1
 10
0.0
 20
-420.0
 30
0.0
 42
0.624747
  0
VERTEX
  5
E5
  8
TEAM-DET1
 10
153.704261
 20
-105.0
 30
0.0
  0
VERTEX
  5
E6
  8
TEAM-DET1
 10
0.0
 20
-105.0
 30
0.0
  0
SEQEND
  5
E7
  8
TEAM-DET1
  0
ENDSEC
  0
EOF
