  0
SECTION
  2
HEADER
  9
$ACADVER
  1
AC1009
  9
$INSBASE
 10
0.0
 20
0.0
 30
0.0
  9
$EXTMIN
 10
-268.819395
 20
-10.006691
 30
-20.001464
  9
$EXTMAX
 10
436.978774
 20
896.858516
 30
20.002605
  9
$LIMMIN
 10
-268.819395
 20
-10.006691
  9
$LIMMAX
 10
436.978774
 20
896.858516
  9
$ORTHOMODE
 70
     1
  9
$REGENMODE
 70
     1
  9
$FILLMODE
 70
     1
  9
$QTEXTMODE
 70
     0
  9
$MIRRTEXT
 70
     0
  9
$DRAGMODE
 70
     2
  9
$LTSCALE
 40
50.0
  9
$OSMODE
 70
     7
  9
$ATTMODE
 70
     1
  9
$TEXTSIZE
 40
200.0
  9
$TRACEWID
 40
1.0
  9
$TEXTSTYLE
  7
STANDARD
  9
$CLAYER
  8
TEAM-MAS
  9
$CELTYPE
  6
BYLAYER
  9
$CECOLOR
 62
   256
  9
$DIMSCALE
 40
0.0
  9
$DIMASZ
 40
20.0
  9
$DIMEXO
 40
10.0
  9
$DIMDLI
 40
1.0
  9
$DIMRND
 40
0.0
  9
$DIMDLE
 40
0.0
  9
$DIMEXE
 40
1.0
  9
$DIMTP
 40
0.0
  9
$DIMTM
 40
0.0
  9
$DIMTXT
 40
35.0
  9
$DIMCEN
 40
1.0
  9
$DIMTSZ
 40
0.0
  9
$DIMTOL
 70
     0
  9
$DIMLIM
 70
     0
  9
$DIMTIH
 70
     0
  9
$DIMTOH
 70
     0
  9
$DIMSE1
 70
     0
  9
$DIMSE2
 70
     0
  9
$DIMTAD
 70
     0
  9
$DIMZIN
 70
     0
  9
$DIMBLK
  1

  9
$DIMASO
 70
     1
  9
$DIMSHO
 70
     0
  9
$DIMPOST
  1

  9
$DIMAPOST
  1

  9
$DIMALT
 70
     0
  9
$DIMALTD
 70
     2
  9
$DIMALTF
 40
25.4
  9
$DIMLFAC
 40
1.0
  9
$DIMTOFL
 70
     0
  9
$DIMTVP
 40
0.0
  9
$DIMTIX
 70
     0
  9
$DIMSOXD
 70
     0
  9
$DIMSAH
 70
     0
  9
$DIMBLK1
  1

  9
$DIMBLK2
  1

  9
$DIMSTYLE
  2
TEAM
  9
$DIMCLRD
 70
     9
  9
$DIMCLRE
 70
     9
  9
$DIMCLRT
 70
    11
  9
$DIMTFAC
 40
1.0
  9
$DIMGAP
 40
7.0
  9
$LUNITS
 70
     2
  9
$LUPREC
 70
     1
  9
$SKETCHINC
 40
1.0
  9
$FILLETRAD
 40
50.0
  9
$AUNITS
 70
     0
  9
$AUPREC
 70
     0
  9
$MENU
  1
ROPLANS
  9
$ELEVATION
 40
0.0
  9
$PELEVATION
 40
0.0
  9
$THICKNESS
 40
0.0
  9
$LIMCHECK
 70
     0
  9
$BLIPMODE
 70
     1
  9
$CHAMFERA
 40
0.0
  9
$CHAMFERB
 40
0.0
  9
$SKPOLY
 70
     0
  9
$TDCREATE
 40
2450392.957851
  9
$TDUPDATE
 40
2456007.443441
  9
$TDINDWG
 40
2.426484
  9
$TDUSRTIMER
 40
2.426484
  9
$USRTIMER
 70
     1
  9
$ANGBASE
 50
0.0
  9
$ANGDIR
 70
     0
  9
$PDMODE
 70
     0
  9
$PDSIZE
 40
0.0
  9
$PLINEWID
 40
0.0
  9
$COORDS
 70
     2
  9
$SPLFRAME
 70
     0
  9
$SPLINETYPE
 70
     6
  9
$SPLINESEGS
 70
     8
  9
$ATTDIA
 70
     0
  9
$ATTREQ
 70
     0
  9
$HANDLING
 70
     1
  9
$HANDSEED
  5
147
  9
$SURFTAB1
 70
    24
  9
$SURFTAB2
 70
    24
  9
$SURFTYPE
 70
     6
  9
$SURFU
 70
     6
  9
$SURFV
 70
     6
  9
$UCSNAME
  2

  9
$UCSORG
 10
0.0
 20
0.0
 30
0.0
  9
$UCSXDIR
 10
1.0
 20
0.0
 30
0.0
  9
$UCSYDIR
 10
0.0
 20
1.0
 30
0.0
  9
$PUCSNAME
  2

  9
$PUCSORG
 10
0.0
 20
0.0
 30
0.0
  9
$PUCSXDIR
 10
1.0
 20
0.0
 30
0.0
  9
$PUCSYDIR
 10
0.0
 20
1.0
 30
0.0
  9
$USERI1
 70
     0
  9
$USERI2
 70
     0
  9
$USERI3
 70
     0
  9
$USERI4
 70
     0
  9
$USERI5
 70
     0
  9
$USERR1
 40
0.0
  9
$USERR2
 40
0.0
  9
$USERR3
 40
0.0
  9
$USERR4
 40
0.0
  9
$USERR5
 40
0.0
  9
$WORLDVIEW
 70
     1
  9
$SHADEDGE
 70
     0
  9
$SHADEDIF
 70
    70
  9
$TILEMODE
 70
     1
  9
$MAXACTVP
 70
    16
  9
$PLIMCHECK
 70
     0
  9
$PEXTMIN
 10
-0.805942
 20
0.005011
 30
0.0
  9
$PEXTMAX
 10
20.250094
 20
11.356329
 30
0.0
  9
$PLIMMIN
 10
0.0
 20
0.0
  9
$PLIMMAX
 10
12.0
 20
9.0
  9
$UNITMODE
 70
     0
  9
$VISRETAIN
 70
     0
  9
$PLINEGEN
 70
     0
  9
$PSLTSCALE
 70
     0
  0
ENDSEC
  0
SECTION
  2
TABLES
  0
TABLE
  2
VPORT
 70
     2
  0
VPORT
  2
*ACTIVE
 70
     0
 10
0.0
 20
0.0
 11
1.0
 21
1.0
 12
84.079689
 22
443.425912
 13
0.0
 23
0.0
 14
1.0
 24
1.0
 15
50.0
 25
50.0
 16
0.0
 26
0.0
 36
1.0
 17
0.0
 27
0.0
 37
0.0
 40
912.550882
 41
1.903766
 42
50.0
 43
0.0
 44
0.0
 50
0.0
 51
0.0
 71
     0
 72
   100
 73
     1
 74
     1
 75
     0
 76
     0
 77
     0
 78
     0
  0
ENDTAB
  0
TABLE
  2
LTYPE
 70
     3
  0
LTYPE
  2
CONTINUOUS
 70
     0
  3
Solid Line
 72
    65
 73
     0
 40
0.0
  0
LTYPE
  2
31
 70
     0
  3

 72
    65
 73
     4
 40
2.1
 49
1.5
 49
-0.3
 49
0.0
 49
-0.3
  0
LTYPE
  2
22
 70
     0
  3

 72
    65
 73
     2
 40
1.4
 49
1.2
 49
-0.2
  0
ENDTAB
  0
TABLE
  2
LAYER
 70
    12
  0
LAYER
  2
0
 70
     0
 62
     7
  6
CONTINUOUS
  0
LAYER
  2
DEFPOINTS
 70
     0
 62
     7
  6
CONTINUOUS
  0
LAYER
  2
TEAM-BODY
 70
     0
 62
     2
  6
CONTINUOUS
  0
LAYER
  2
TEAM-AXE
 70
     0
 62
    10
  6
31
  0
LAYER
  2
TEAM-MAS
 70
     0
 62
     9
  6
CONTINUOUS
  0
LAYER
  2
TEAM-TXT
 70
     0
 62
    11
  6
CONTINUOUS
  0
LAYER
  2
TEAM-COLD
 70
     0
 62
     3
  6
CONTINUOUS
  0
LAYER
  2
TEAM-HIDE
 70
     0
 62
     8
  6
22
  0
LAYER
  2
TEAM-KAN
 70
     0
 62
     6
  6
CONTINUOUS
  0
LAYER
  2
TEAM-WARM
 70
     0
 62
     1
  6
CONTINUOUS
  0
LAYER
  2
TEAM-NET
 70
     0
 62
    15
  6
CONTINUOUS
  0
LAYER
  2
TEAM-INSP
 70
     0
 62
     5
  6
CONTINUOUS
  0
ENDTAB
  0
TABLE
  2
STYLE
 70
     2
  0
STYLE
  2
STANDARD
 70
     0
 40
0.0
 41
1.0
 50
0.0
 71
     0
 42
200.0
  3
txt
  4

  0
STYLE
  2
TEAM
 70
     0
 40
0.0
 41
0.8
 50
15.0
 71
     0
 42
7.0
  3
ROMANS.shx
  4

  0
ENDTAB
  0
TABLE
  2
VIEW
 70
     0
  0
ENDTAB
  0
TABLE
  2
UCS
 70
     0
  0
ENDTAB
  0
TABLE
  2
APPID
 70
     1
  0
APPID
  2
ACAD
 70
     0
  0
ENDTAB
  0
TABLE
  2
DIMSTYLE
 70
     1
  0
DIMSTYLE
  2
TEAM
 70
     0
  3

  4

  5

  6

  7

 40
0.0
 41
20.0
 42
10.0
 43
1.0
 44
1.0
 45
0.0
 46
0.0
 47
0.0
 48
0.0
140
35.0
141
1.0
142
0.0
143
25.4
144
1.0
145
0.0
146
1.0
147
7.0
 71
     0
 72
     0
 73
     0
 74
     0
 75
     0
 76
     0
 77
     0
 78
     0
170
     0
171
     2
172
     0
173
     0
174
     0
175
     0
176
     9
177
     9
178
    11
  0
ENDTAB
  0
ENDSEC
  0
SECTION
  2
BLOCKS
  0
BLOCK
  8
0
  2
$MODEL_SPACE
 70
     0
 10
0.0
 20
0.0
 30
0.0
  3
$MODEL_SPACE
  1

  0
ENDBLK
  5
140
  8
0
  0
BLOCK
 67
     1
  8
0
  2
$PAPER_SPACE
 70
     0
 10
0.0
 20
0.0
 30
0.0
  3
$PAPER_SPACE
  1

  0
ENDBLK
  5
13E
 67
     1
  8
0
  0
BLOCK
  8
0
  2
*D0
 70
     1
 10
0.0
 20
0.0
 30
0.0
  3
*D0
  1

  0
LINE
  5
5A
  8
0
  6
BYBLOCK
 62
     9
 10
85.0
 20
48600.003522
 30
0.0
 11
325.038397
 21
48600.003522
 31
0.0
  0
LINE
  5
5B
  8
0
  6
BYBLOCK
 62
     9
 10
10.0
 20
48000.0
 30
0.0
 11
325.038397
 21
48000.0
 31
0.0
  0
LINE
  5
5C
  8
0
  6
BYBLOCK
 62
     9
 10
324.038397
 20
48580.003522
 30
0.0
 11
324.038397
 21
48347.835095
 31
0.0
  0
LINE
  5
5D
  8
0
  6
BYBLOCK
 62
     9
 10
324.038397
 20
48020.0
 30
0.0
 11
324.038397
 21
48252.168428
 31
0.0
  0
SOLID
  5
5E
  8
0
  6
BYBLOCK
 62
     9
 10
320.705064
 20
48580.003522
 30
0.0
 11
327.37173
 21
48580.003522
 31
0.0
 12
324.038397
 22
48600.003522
 32
0.0
 13
324.038397
 23
48600.003522
 33
0.0
  0
SOLID
  5
5F
  8
0
  6
BYBLOCK
 62
     9
 10
320.705064
 20
48020.0
 30
0.0
 11
327.37173
 21
48020.0
 31
0.0
 12
324.038397
 22
48000.0
 32
0.0
 13
324.038397
 23
48000.0
 33
0.0
  0
TEXT
  5
60
  8
0
  6
BYBLOCK
 62
    11
 10
341.538397
 20
48259.168428
 30
0.0
 40
35.0
  1
600
 50
90.0
  0
POINT
  5
61
  8
DEFPOINTS
  6
BYBLOCK
 62
     0
 10
75.0
 20
48600.003522
 30
0.0
  0
POINT
  5
62
  8
DEFPOINTS
  6
BYBLOCK
 62
     0
 10
0.0
 20
48000.0
 30
0.0
  0
POINT
  5
63
  8
DEFPOINTS
  6
BYBLOCK
 62
     0
 10
324.038397
 20
48000.0
 30
20.0
  0
ENDBLK
  5
65
  8
0
  0
BLOCK
  8
0
  2
*D1
 70
     1
 10
0.0
 20
0.0
 30
0.0
  3
*D1
  1

  0
LINE
  5
4C
  8
0
  6
BYBLOCK
 62
     9
 10
235.0
 20
48850.0
 30
0.0
 11
371.798792
 21
48850.0
 31
0.0
  0
LINE
  5
4D
  8
0
  6
BYBLOCK
 62
     9
 10
10.0
 20
48550.0
 30
0.0
 11
371.798792
 21
48550.0
 31
0.0
  0
LINE
  5
4E
  8
0
  6
BYBLOCK
 62
     9
 10
370.798792
 20
48830.0
 30
0.0
 11
370.798792
 21
48747.833333
 31
0.0
  0
LINE
  5
4F
  8
0
  6
BYBLOCK
 62
     9
 10
370.798792
 20
48570.0
 30
0.0
 11
370.798792
 21
48652.166667
 31
0.0
  0
SOLID
  5
50
  8
0
  6
BYBLOCK
 62
     9
 10
367.465459
 20
48830.0
 30
0.0
 11
374.132125
 21
48830.0
 31
0.0
 12
370.798792
 22
48850.0
 32
0.0
 13
370.798792
 23
48850.0
 33
0.0
  0
SOLID
  5
51
  8
0
  6
BYBLOCK
 62
     9
 10
367.465459
 20
48570.0
 30
0.0
 11
374.132125
 21
48570.0
 31
0.0
 12
370.798792
 22
48550.0
 32
0.0
 13
370.798792
 23
48550.0
 33
0.0
  0
TEXT
  5
52
  8
0
  6
BYBLOCK
 62
    11
 10
388.298792
 20
48659.166667
 30
0.0
 40
35.0
  1
300
 50
90.0
  0
POINT
  5
53
  8
DEFPOINTS
  6
BYBLOCK
 62
     0
 10
225.0
 20
48850.0
 30
10.0
  0
POINT
  5
54
  8
DEFPOINTS
  6
BYBLOCK
 62
     0
 10
0.0
 20
48550.0
 30
10.0
  0
POINT
  5
55
  8
DEFPOINTS
  6
BYBLOCK
 62
     0
 10
370.798792
 20
48550.0
 30
20.0
  0
ENDBLK
  5
57
  8
0
  0
BLOCK
  8
0
  2
*D2
 70
     1
 10
0.0
 20
0.0
 30
0.0
  3
*D2
  1

  0
LINE
  5
68
  8
0
  6
BYBLOCK
 62
     9
 10
10.0
 20
48550.0
 30
0.0
 11
371.798792
 21
48550.0
 31
0.0
  0
LINE
  5
69
  8
0
  6
BYBLOCK
 62
     9
 10
10.0
 20
48000.0
 30
0.0
 11
371.798792
 21
48000.0
 31
0.0
  0
LINE
  5
6A
  8
0
  6
BYBLOCK
 62
     9
 10
370.798792
 20
48530.0
 30
0.0
 11
370.798792
 21
48325.75
 31
0.0
  0
LINE
  5
6B
  8
0
  6
BYBLOCK
 62
     9
 10
370.798792
 20
48020.0
 30
0.0
 11
370.798792
 21
48224.25
 31
0.0
  0
SOLID
  5
6C
  8
0
  6
BYBLOCK
 62
     9
 10
367.465459
 20
48530.0
 30
0.0
 11
374.132125
 21
48530.0
 31
0.0
 12
370.798792
 22
48550.0
 32
0.0
 13
370.798792
 23
48550.0
 33
0.0
  0
SOLID
  5
6D
  8
0
  6
BYBLOCK
 62
     9
 10
367.465459
 20
48020.0
 30
0.0
 11
374.132125
 21
48020.0
 31
0.0
 12
370.798792
 22
48000.0
 32
0.0
 13
370.798792
 23
48000.0
 33
0.0
  0
TEXT
  5
6E
  8
0
  6
BYBLOCK
 62
    11
 10
388.298792
 20
48231.25
 30
0.0
 40
35.0
  1
550
 50
90.0
  0
POINT
  5
6F
  8
DEFPOINTS
  6
BYBLOCK
 62
     0
 10
0.0
 20
48550.0
 30
10.0
  0
POINT
  5
70
  8
DEFPOINTS
  6
BYBLOCK
 62
     0
 10
0.0
 20
48000.0
 30
10.0
  0
POINT
  5
71
  8
DEFPOINTS
  6
BYBLOCK
 62
     0
 10
370.798792
 20
48000.0
 30
10.0
  0
ENDBLK
  5
73
  8
0
  0
BLOCK
  8
0
  2
*D3
 70
     1
 10
0.0
 20
0.0
 30
0.0
  3
*D3
  1

  0
LINE
  5
3E
  8
0
  6
BYBLOCK
 62
     9
 10
75.0
 20
48590.003522
 30
0.0
 11
75.0
 21
48479.205675
 31
0.0
  0
LINE
  5
3F
  8
0
  6
BYBLOCK
 62
     9
 10
-75.0
 20
48590.003522
 30
0.0
 11
-75.0
 21
48479.205675
 31
0.0
  0
LINE
  5
40
  8
0
  6
BYBLOCK
 62
     9
 10
55.0
 20
48480.205675
 30
0.0
 11
44.916667
 21
48480.205675
 31
0.0
  0
LINE
  5
41
  8
0
  6
BYBLOCK
 62
     9
 10
-55.0
 20
48480.205675
 30
0.0
 11
-44.916667
 21
48480.205675
 31
0.0
  0
TEXT
  5
42
  8
0
  6
BYBLOCK
 62
    11
 10
-37.916667
 20
48462.705675
 30
0.0
 40
35.0
  1
150
  0
SOLID
  5
43
  8
0
  6
BYBLOCK
 62
     9
 10
55.0
 20
48483.539009
 30
0.0
 11
55.0
 21
48476.872342
 31
0.0
 12
75.0
 22
48480.205675
 32
0.0
 13
75.0
 23
48480.205675
 33
0.0
  0
SOLID
  5
44
  8
0
  6
BYBLOCK
 62
     9
 10
-55.0
 20
48483.539009
 30
0.0
 11
-55.0
 21
48476.872342
 31
0.0
 12
-75.0
 22
48480.205675
 32
0.0
 13
-75.0
 23
48480.205675
 33
0.0
  0
POINT
  5
45
  8
DEFPOINTS
  6
BYBLOCK
 62
     0
 10
75.0
 20
48600.003522
 30
20.0
  0
POINT
  5
46
  8
DEFPOINTS
  6
BYBLOCK
 62
     0
 10
-75.0
 20
48600.003522
 30
20.0
  0
POINT
  5
47
  8
DEFPOINTS
  6
BYBLOCK
 62
     0
 10
-75.0
 20
48480.205675
 30
30.0
  0
ENDBLK
  5
49
  8
0
  0
BLOCK
  8
0
  2
*D4
 70
     1
 10
0.0
 20
0.0
 30
0.0
  3
*D4
  1

  0
LINE
  5
B5
  8
0
  6
BYBLOCK
 62
     9
 10
-235.0
 20
48850.0
 30
0.0
 11
-252.296819
 21
48850.0
 31
0.0
  0
LINE
  5
B6
  8
0
  6
BYBLOCK
 62
     9
 10
-235.0
 20
48802.0
 30
0.0
 11
-252.296819
 21
48802.0
 31
0.0
  0
LINE
  5
B7
  8
0
  6
BYBLOCK
 62
     9
 10
-251.296819
 20
48870.0
 30
0.0
 11
-251.296819
 21
48890.0
 31
0.0
  0
LINE
  5
B8
  8
0
  6
BYBLOCK
 62
     9
 10
-251.296819
 20
48782.0
 30
0.0
 11
-251.296819
 21
48762.0
 31
0.0
  0
TEXT
  5
B9
  8
0
  6
BYBLOCK
 62
    11
 10
-233.796819
 20
48750.231916
 30
0.0
 40
35.0
  1
48
 50
90.0
  0
LINE
  5
BA
  8
0
  6
BYBLOCK
 62
     9
 10
-251.296819
 20
48850.0
 30
0.0
 11
-251.296819
 21
48802.0
 31
0.0
  0
SOLID
  5
BB
  8
0
  6
BYBLOCK
 62
     9
 10
-254.630152
 20
48870.0
 30
0.0
 11
-247.963486
 21
48870.0
 31
0.0
 12
-251.296819
 22
48850.0
 32
0.0
 13
-251.296819
 23
48850.0
 33
0.0
  0
SOLID
  5
BC
  8
0
  6
BYBLOCK
 62
     9
 10
-254.630152
 20
48782.0
 30
0.0
 11
-247.963486
 21
48782.0
 31
0.0
 12
-251.296819
 22
48802.0
 32
0.0
 13
-251.296819
 23
48802.0
 33
0.0
  0
POINT
  5
BD
  8
DEFPOINTS
  6
BYBLOCK
 62
     0
 10
-225.0
 20
48850.0
 30
0.0
  0
POINT
  5
BE
  8
DEFPOINTS
  6
BYBLOCK
 62
     0
 10
-225.0
 20
48802.0
 30
0.0
  0
POINT
  5
BF
  8
DEFPOINTS
  6
BYBLOCK
 62
     0
 10
-251.296819
 20
48802.0
 30
0.0
  0
ENDBLK
  5
C1
  8
0
  0
BLOCK
  8
0
  2
*D5
 70
     1
 10
0.0
 20
0.0
 30
0.0
  3
*D5
  1

  0
LINE
  5
A5
  8
0
  6
BYBLOCK
 62
     9
 10
225.0
 20
48860.0
 30
0.0
 11
225.0
 21
48880.333379
 31
0.0
  0
LINE
  5
A6
  8
0
  6
BYBLOCK
 62
     9
 10
-225.0
 20
48860.0
 30
0.0
 11
-225.0
 21
48880.333379
 31
0.0
  0
LINE
  5
A7
  8
0
  6
BYBLOCK
 62
     9
 10
205.0
 20
48879.333379
 30
0.0
 11
50.75
 21
48879.333379
 31
0.0
  0
LINE
  5
A8
  8
0
  6
BYBLOCK
 62
     9
 10
-205.0
 20
48879.333379
 30
0.0
 11
-50.75
 21
48879.333379
 31
0.0
  0
SOLID
  5
A9
  8
0
  6
BYBLOCK
 62
     9
 10
205.0
 20
48882.666713
 30
0.0
 11
205.0
 21
48876.000046
 31
0.0
 12
225.0
 22
48879.333379
 32
0.0
 13
225.0
 23
48879.333379
 33
0.0
  0
SOLID
  5
AA
  8
0
  6
BYBLOCK
 62
     9
 10
-205.0
 20
48882.666713
 30
0.0
 11
-205.0
 21
48876.000046
 31
0.0
 12
-225.0
 22
48879.333379
 32
0.0
 13
-225.0
 23
48879.333379
 33
0.0
  0
TEXT
  5
AB
  8
0
  6
BYBLOCK
 62
    11
 10
-43.75
 20
48861.833379
 30
0.0
 40
35.0
  1
450
  0
POINT
  5
AC
  8
DEFPOINTS
  6
BYBLOCK
 62
     0
 10
225.0
 20
48850.0
 30
0.0
  0
POINT
  5
AD
  8
DEFPOINTS
  6
BYBLOCK
 62
     0
 10
-225.0
 20
48850.0
 30
0.0
  0
POINT
  5
AE
  8
DEFPOINTS
  6
BYBLOCK
 62
     0
 10
-225.0
 20
48879.333379
 30
0.0
  0
ENDBLK
  5
B0
  8
0
  0
BLOCK
  8
0
  2
*D6
 70
     1
 10
0.0
 20
0.0
 30
0.0
  3
*D6
  1

  0
LINE
  5
30
  8
0
  6
BYBLOCK
 62
     9
 10
235.0
 20
48850.0
 30
0.0
 11
420.446092
 21
48850.0
 31
0.0
  0
LINE
  5
31
  8
0
  6
BYBLOCK
 62
     9
 10
10.0
 20
48000.0
 30
0.0
 11
420.446092
 21
48000.0
 31
0.0
  0
LINE
  5
32
  8
0
  6
BYBLOCK
 62
     9
 10
419.446092
 20
48830.0
 30
0.0
 11
419.446092
 21
48475.75
 31
0.0
  0
LINE
  5
33
  8
0
  6
BYBLOCK
 62
     9
 10
419.446092
 20
48020.0
 30
0.0
 11
419.446092
 21
48374.25
 31
0.0
  0
SOLID
  5
34
  8
0
  6
BYBLOCK
 62
     9
 10
416.112758
 20
48830.0
 30
0.0
 11
422.779425
 21
48830.0
 31
0.0
 12
419.446092
 22
48850.0
 32
0.0
 13
419.446092
 23
48850.0
 33
0.0
  0
SOLID
  5
35
  8
0
  6
BYBLOCK
 62
     9
 10
416.112758
 20
48020.0
 30
0.0
 11
422.779425
 21
48020.0
 31
0.0
 12
419.446092
 22
48000.0
 32
0.0
 13
419.446092
 23
48000.0
 33
0.0
  0
TEXT
  5
36
  8
0
  6
BYBLOCK
 62
    11
 10
436.946092
 20
48381.25
 30
0.0
 40
35.0
  1
850
 50
90.0
  0
POINT
  5
37
  8
DEFPOINTS
  6
BYBLOCK
 62
     0
 10
225.0
 20
48850.0
 30
0.0
  0
POINT
  5
38
  8
DEFPOINTS
  6
BYBLOCK
 62
     0
 10
0.0
 20
48000.0
 30
0.0
  0
POINT
  5
39
  8
DEFPOINTS
  6
BYBLOCK
 62
     0
 10
419.446092
 20
48000.0
 30
10.0
  0
ENDBLK
  5
3B
  8
0
  0
BLOCK
  8
0
  2
*D7
 70
     1
 10
0.0
 20
0.0
 30
0.0
  3
*D7
  1

  0
LINE
  5
93
  8
0
  6
BYBLOCK
 62
     9
 10
85.0
 20
48600.003522
 30
0.0
 11
325.038397
 21
48600.003522
 31
0.0
  0
LINE
  5
94
  8
0
  6
BYBLOCK
 62
     9
 10
235.0
 20
48850.0
 30
0.0
 11
325.038397
 21
48850.0
 31
0.0
  0
LINE
  5
95
  8
0
  6
BYBLOCK
 62
     9
 10
324.038397
 20
48620.003522
 30
0.0
 11
324.038397
 21
48674.251761
 31
0.0
  0
LINE
  5
96
  8
0
  6
BYBLOCK
 62
     9
 10
324.038397
 20
48830.0
 30
0.0
 11
324.038397
 21
48775.751761
 31
0.0
  0
SOLID
  5
97
  8
0
  6
BYBLOCK
 62
     9
 10
320.705064
 20
48620.003522
 30
0.0
 11
327.37173
 21
48620.003522
 31
0.0
 12
324.038397
 22
48600.003522
 32
0.0
 13
324.038397
 23
48600.003522
 33
0.0
  0
SOLID
  5
98
  8
0
  6
BYBLOCK
 62
     9
 10
320.705064
 20
48830.0
 30
0.0
 11
327.37173
 21
48830.0
 31
0.0
 12
324.038397
 22
48850.0
 32
0.0
 13
324.038397
 23
48850.0
 33
0.0
  0
TEXT
  5
99
  8
0
  6
BYBLOCK
 62
    11
 10
341.538397
 20
48681.251761
 30
0.0
 40
35.0
  1
250
 50
90.0
  0
POINT
  5
9A
  8
DEFPOINTS
  6
BYBLOCK
 62
     0
 10
75.0
 20
48600.003522
 30
0.0
  0
POINT
  5
9B
  8
DEFPOINTS
  6
BYBLOCK
 62
     0
 10
225.0
 20
48850.0
 30
0.0
  0
POINT
  5
9C
  8
DEFPOINTS
  6
BYBLOCK
 62
     0
 10
324.038397
 20
48850.0
 30
0.0
  0
ENDBLK
  5
9E
  8
0
  0
BLOCK
  8
0
  2
*D8
 70
     1
 10
0.0
 20
0.0
 30
0.0
  3
*D8
  1

  0
LINE
  5
22
  8
0
  6
BYBLOCK
 62
     9
 10
235.0
 20
48850.0
 30
0.0
 11
275.943412
 21
48850.0
 31
0.0
  0
LINE
  5
23
  8
0
  6
BYBLOCK
 62
     9
 10
10.0
 20
48696.002205
 30
0.0
 11
275.943412
 21
48696.002205
 31
0.0
  0
LINE
  5
24
  8
0
  6
BYBLOCK
 62
     9
 10
274.943412
 20
48830.0
 30
0.0
 11
274.943412
 21
48716.002205
 31
0.0
  0
TEXT
  5
25
  8
0
  6
BYBLOCK
 62
    11
 10
292.483399
 20
48641.436165
 30
0.0
 40
35.0
  1
154
 50
90.0
  0
SOLID
  5
26
  8
0
  6
BYBLOCK
 62
     9
 10
271.610078
 20
48830.0
 30
0.0
 11
278.276745
 21
48830.0
 31
0.0
 12
274.943412
 22
48850.0
 32
0.0
 13
274.943412
 23
48850.0
 33
0.0
  0
SOLID
  5
27
  8
0
  6
BYBLOCK
 62
     9
 10
271.610078
 20
48716.002205
 30
0.0
 11
278.276745
 21
48716.002205
 31
0.0
 12
274.943412
 22
48696.002205
 32
0.0
 13
274.943412
 23
48696.002205
 33
0.0
  0
POINT
  5
28
  8
DEFPOINTS
  6
BYBLOCK
 62
     0
 10
225.0
 20
48850.0
 30
0.0
  0
POINT
  5
2A
  8
DEFPOINTS
  6
BYBLOCK
 62
     0
 10
0.0
 20
48696.002205
 30
0.0
  0
POINT
  5
2B
  8
DEFPOINTS
  6
BYBLOCK
 62
     0
 10
274.943412
 20
48696.002205
 30
10.0
  0
ENDBLK
  5
2D
  8
0
  0
ENDSEC
  0
SECTION
  2
ENTITIES
  0
DIMENSION
  5
20
  8
TEAM-MAS
  2
*D8
 10
274.943412
 20
696.002205
 30
10.0
 11
274.983399
 21
682.269499
 31
0.0
 12
0.0
 22
-48000.0
 32
0.0
 70
   128
 13
225.0
 23
850.0
 33
0.0
 14
0.0
 24
696.002205
 34
0.0
 50
270.0
1001
ACAD
1000
DSTYLE
1002
{
1070
    40
1040
1.0
1002
}
  0
DIMENSION
  5
2E
  8
TEAM-MAS
  2
*D6
 10
419.446092
 20
0.0
 30
10.0
 11
419.446092
 21
425.0
 31
0.0
 12
0.0
 22
-48000.0
 32
0.0
 13
225.0
 23
850.0
 33
0.0
 14
0.0
 24
0.0
 34
0.0
 50
270.0
1001
ACAD
1000
DSTYLE
1002
{
1070
    40
1040
1.0
1002
}
  0
DIMENSION
  5
3C
  8
TEAM-MAS
  2
*D3
 10
-75.0
 20
480.205675
 30
10.0
 11
0.0
 21
480.205675
 31
-20.0
 12
0.0
 22
-48000.0
 32
-20.0
 70
   128
 13
75.0
 23
600.003522
 33
0.0
 14
-75.0
 24
600.003522
 34
0.0
1001
ACAD
1000
DSTYLE
1002
{
1070
    40
1040
1.0
1002
}
  0
DIMENSION
  5
4A
  8
TEAM-MAS
  2
*D1
 10
370.798792
 20
550.0
 30
10.0
 11
370.798792
 21
700.0
 31
-10.0
 12
0.0
 22
-48000.0
 32
-10.0
 13
225.0
 23
850.0
 33
0.0
 14
0.0
 24
550.0
 34
0.0
 50
270.0
1001
ACAD
1000
DSTYLE
1002
{
1070
    40
1040
1.0
1002
}
  0
DIMENSION
  5
58
  8
TEAM-MAS
  2
*D0
 10
324.038397
 20
0.0
 30
20.0
 11
324.038397
 21
300.001761
 31
0.0
 12
0.0
 22
-48000.0
 32
0.0
 13
75.0
 23
600.003522
 33
0.0
 14
0.0
 24
0.0
 34
0.0
 50
270.0
1001
ACAD
1000
DSTYLE
1002
{
1070
    40
1040
1.0
1002
}
  0
DIMENSION
  5
66
  8
TEAM-MAS
  2
*D2
 10
370.798792
 20
0.0
 30
0.0
 11
370.798792
 21
275.0
 31
-10.0
 12
0.0
 22
-48000.0
 32
-10.0
 13
0.0
 23
550.0
 33
0.0
 14
0.0
 24
0.0
 34
0.0
 50
270.0
1001
ACAD
1000
DSTYLE
1002
{
1070
    40
1040
1.0
1002
}
  0
TEXT
  5
74
  8
TEAM-TXT
 10
-192.266448
 20
247.380959
 30
0.0
 40
30.0
  1
ANSCHLUSS INDIVIDUELL
 41
0.8
 51
15.0
  7
TEAM
  0
TEXT
  5
77
  8
TEAM-TXT
 10
-192.266448
 20
198.003559
 30
0.0
 40
30.0
  1
EXEMPLE  CONN./JOIN
 41
0.8
 51
15.0
  7
TEAM
  0
ARC
  5
78
  8
TEAM-KAN
 10
-55.734042
 20
681.219093
 30
0.0
 40
30.789693
 50
33.631965
 51
36.354384
  0
ARC
  5
7A
  8
TEAM-KAN
 10
55.734042
 20
681.219093
 30
0.0
 40
30.789693
 50
143.645616
 51
146.368035
  0
LINE
  5
7B
  8
TEAM-AXE
 10
0.0
 20
669.957716
 30
0.0
 11
0.0
 21
850.0
 31
0.0
  0
ARC
  5
7E
  8
TEAM-KAN
 10
-21.974444
 20
711.206553
 30
0.0
 40
15.26826
 50
237.877987
 51
264.755706
  0
LINE
  5
7F
  8
TEAM-KAN
 10
-20.0
 20
696.002205
 30
0.0
 11
-20.0
 21
696.729618
 31
0.0
  0
LINE
  5
80
  8
TEAM-KAN
 10
-23.37
 20
696.002205
 30
0.0
 11
23.37
 21
696.002205
 31
0.0
  0
ARC
  5
81
  8
TEAM-KAN
 10
21.974444
 20
711.206553
 30
0.0
 40
15.26826
 50
275.244294
 51
302.122013
  0
LINE
  5
82
  8
TEAM-KAN
 10
20.0
 20
696.002205
 30
0.0
 11
20.0
 21
696.729618
 31
0.0
  0
CIRCLE
  5
83
  8
TEAM-KAN
 10
0.0
 20
550.0
 30
0.0
 40
20.0
  0
LINE
  5
84
  8
TEAM-AXE
 10
-20.0
 20
550.0
 30
0.0
 11
20.0
 21
550.0
 31
0.0
  0
LINE
  5
85
  8
TEAM-AXE
 10
0.0
 20
530.0
 30
0.0
 11
0.0
 21
570.0
 31
0.0
  0
LINE
  5
86
  8
TEAM-AXE
 10
65.050126
 20
600.003522
 30
0.0
 11
84.949874
 21
600.003522
 31
0.0
  0
LINE
  5
87
  8
TEAM-AXE
 10
75.0
 20
590.003522
 30
0.0
 11
75.0
 21
610.003522
 31
0.0
  0
LINE
  5
88
  8
TEAM-AXE
 10
-75.0
 20
590.003522
 30
0.0
 11
-75.0
 21
610.003522
 31
0.0
  0
LINE
  5
89
  8
TEAM-AXE
 10
-84.949874
 20
600.003522
 30
0.0
 11
-65.050126
 21
600.003522
 31
0.0
  0
CIRCLE
  5
8A
  8
TEAM-COLD
 10
75.0
 20
600.003522
 30
0.0
 40
10.0
  0
CIRCLE
  5
8C
  8
TEAM-WARM
 10
-75.0
 20
600.003522
 30
0.0
 40
10.0
  0
CIRCLE
  5
8E
  8
TEAM-INSP
 10
0.0
 20
0.0
 30
0.0
 40
10.0
  0
TEXT
  5
90
  8
TEAM-TXT
 10
-112.608657
 20
757.877634
 30
0.0
 40
30.0
  1
team 233109
 41
0.8
 51
15.0
  7
TEAM
  0
DIMENSION
  5
91
  8
TEAM-MAS
  2
*D7
 10
324.038397
 20
850.0
 30
0.0
 11
324.038397
 21
725.001761
 31
0.0
 12
0.0
 22
-48000.0
 32
0.0
 13
75.0
 23
600.003522
 33
0.0
 14
225.0
 24
850.0
 34
0.0
 50
270.0
1001
ACAD
1000
DSTYLE
1002
{
1070
    40
1040
1.0
1002
}
  0
LINE
  5
9F
  8
TEAM-BODY
 10
225.0
 20
850.0
 30
0.0
 11
225.0
 21
802.0
 31
0.0
  0
LINE
  5
A1
  8
TEAM-BODY
 10
225.0
 20
802.0
 30
0.0
 11
-225.0
 21
802.0
 31
0.0
  0
DIMENSION
  5
A2
  8
TEAM-NET
  2
*D5
 10
-225.0
 20
879.333379
 30
0.0
 11
0.0
 21
879.333379
 31
0.0
 12
0.0
 22
-48000.0
 32
0.0
 13
225.0
 23
850.0
 33
0.0
 14
-225.0
 24
850.0
 34
0.0
1001
ACAD
1000
DSTYLE
1002
{
1070
    40
1040
1.0
1002
}
  0
LINE
  5
B1
  8
TEAM-BODY
 10
225.0
 20
850.0
 30
0.0
 11
-225.0
 21
850.0
 31
0.0
  0
LINE
  5
B2
  8
TEAM-BODY
 10
-225.0
 20
850.0
 30
0.0
 11
-225.0
 21
802.0
 31
0.0
  0
DIMENSION
  5
B3
  8
TEAM-MAS
  2
*D4
 10
-251.296819
 20
802.0
 30
0.0
 11
-251.296819
 21
779.398582
 31
0.0
 12
0.0
 22
-48000.0
 32
0.0
 70
   128
 13
-225.0
 23
850.0
 33
0.0
 14
-225.0
 24
802.0
 34
0.0
 50
90.0
1001
ACAD
1000
DSTYLE
1002
{
1070
    40
1040
1.0
1002
}
  0
ARC
  5
C2
  8
TEAM-BODY
 10
0.0
 20
908.432392
 30
0.0
 40
210.744544
 50
210.333367
 51
329.666633
  0
ARC
  5
C3
  8
TEAM-HIDE
 10
0.0
 20
910.721605
 30
0.0
 40
208.08284
 50
196.966623
 51
343.033377
  0
ENDSEC
  0
EOF
