  0
SECTION
  2
HEADER
  9
$ACADVER
  1
AC1009
  9
$INSBASE
 10
0.0
 20
0.0
 30
0.0
  9
$EXTMIN
 10
-400.04038
 20
-10.043388
 30
-20.002275
  9
$EXTMAX
 10
709.014012
 20
936.195957
 30
20.002176
  9
$LIMMIN
 10
-400.04038
 20
-10.043388
  9
$LIMMAX
 10
709.014012
 20
936.195957
  9
$ORTHOMODE
 70
     1
  9
$REGENMODE
 70
     1
  9
$FILLMODE
 70
     1
  9
$QTEXTMODE
 70
     0
  9
$MIRRTEXT
 70
     0
  9
$DRAGMODE
 70
     2
  9
$LTSCALE
 40
25.0
  9
$OSMODE
 70
     0
  9
$ATTMODE
 70
     1
  9
$TEXTSIZE
 40
200.0
  9
$TRACEWID
 40
1.0
  9
$TEXTSTYLE
  7
STANDARD
  9
$CLAYER
  8
TEAM-MAS
  9
$CELTYPE
  6
BYLAYER
  9
$CECOLOR
 62
   256
  9
$DIMSCALE
 40
1.0
  9
$DIMASZ
 40
20.0
  9
$DIMEXO
 40
10.0
  9
$DIMDLI
 40
1.0
  9
$DIMRND
 40
0.0
  9
$DIMDLE
 40
0.0
  9
$DIMEXE
 40
1.0
  9
$DIMTP
 40
0.0
  9
$DIMTM
 40
0.0
  9
$DIMTXT
 40
35.0
  9
$DIMCEN
 40
1.0
  9
$DIMTSZ
 40
0.0
  9
$DIMTOL
 70
     0
  9
$DIMLIM
 70
     0
  9
$DIMTIH
 70
     0
  9
$DIMTOH
 70
     0
  9
$DIMSE1
 70
     0
  9
$DIMSE2
 70
     0
  9
$DIMTAD
 70
     0
  9
$DIMZIN
 70
     0
  9
$DIMBLK
  1

  9
$DIMASO
 70
     1
  9
$DIMSHO
 70
     0
  9
$DIMPOST
  1

  9
$DIMAPOST
  1

  9
$DIMALT
 70
     0
  9
$DIMALTD
 70
     2
  9
$DIMALTF
 40
25.4
  9
$DIMLFAC
 40
1.0
  9
$DIMTOFL
 70
     0
  9
$DIMTVP
 40
0.0
  9
$DIMTIX
 70
     0
  9
$DIMSOXD
 70
     0
  9
$DIMSAH
 70
     0
  9
$DIMBLK1
  1

  9
$DIMBLK2
  1

  9
$DIMSTYLE
  2
TEAM
  9
$DIMCLRD
 70
     9
  9
$DIMCLRE
 70
     9
  9
$DIMCLRT
 70
    11
  9
$DIMTFAC
 40
1.0
  9
$DIMGAP
 40
15.0
  9
$LUNITS
 70
     2
  9
$LUPREC
 70
     1
  9
$SKETCHINC
 40
1.0
  9
$FILLETRAD
 40
50.0
  9
$AUNITS
 70
     0
  9
$AUPREC
 70
     0
  9
$MENU
  1
ROPLANS
  9
$ELEVATION
 40
0.0
  9
$PELEVATION
 40
0.0
  9
$THICKNESS
 40
0.0
  9
$LIMCHECK
 70
     0
  9
$BLIPMODE
 70
     1
  9
$CHAMFERA
 40
0.0
  9
$CHAMFERB
 40
0.0
  9
$SKPOLY
 70
     0
  9
$TDCREATE
 40
2450392.957851
  9
$TDUPDATE
 40
2455505.473099
  9
$TDINDWG
 40
2.023557
  9
$TDUSRTIMER
 40
2.023557
  9
$USRTIMER
 70
     1
  9
$ANGBASE
 50
0.0
  9
$ANGDIR
 70
     0
  9
$PDMODE
 70
     0
  9
$PDSIZE
 40
0.0
  9
$PLINEWID
 40
0.0
  9
$COORDS
 70
     2
  9
$SPLFRAME
 70
     0
  9
$SPLINETYPE
 70
     6
  9
$SPLINESEGS
 70
     8
  9
$ATTDIA
 70
     0
  9
$ATTREQ
 70
     0
  9
$HANDLING
 70
     1
  9
$HANDSEED
  5
12F
  9
$SURFTAB1
 70
    24
  9
$SURFTAB2
 70
    24
  9
$SURFTYPE
 70
     6
  9
$SURFU
 70
     6
  9
$SURFV
 70
     6
  9
$UCSNAME
  2

  9
$UCSORG
 10
0.0
 20
0.0
 30
0.0
  9
$UCSXDIR
 10
1.0
 20
0.0
 30
0.0
  9
$UCSYDIR
 10
0.0
 20
1.0
 30
0.0
  9
$PUCSNAME
  2

  9
$PUCSORG
 10
0.0
 20
0.0
 30
0.0
  9
$PUCSXDIR
 10
1.0
 20
0.0
 30
0.0
  9
$PUCSYDIR
 10
0.0
 20
1.0
 30
0.0
  9
$USERI1
 70
     0
  9
$USERI2
 70
     0
  9
$USERI3
 70
     0
  9
$USERI4
 70
     0
  9
$USERI5
 70
     0
  9
$USERR1
 40
0.0
  9
$USERR2
 40
0.0
  9
$USERR3
 40
0.0
  9
$USERR4
 40
0.0
  9
$USERR5
 40
0.0
  9
$WORLDVIEW
 70
     1
  9
$SHADEDGE
 70
     0
  9
$SHADEDIF
 70
    70
  9
$TILEMODE
 70
     1
  9
$MAXACTVP
 70
    16
  9
$PLIMCHECK
 70
     0
  9
$PEXTMIN
 10
-0.805942
 20
0.005011
 30
0.0
  9
$PEXTMAX
 10
20.250094
 20
11.356329
 30
0.0
  9
$PLIMMIN
 10
0.0
 20
0.0
  9
$PLIMMAX
 10
12.0
 20
9.0
  9
$UNITMODE
 70
     0
  9
$VISRETAIN
 70
     0
  9
$PLINEGEN
 70
     0
  9
$PSLTSCALE
 70
     0
  0
ENDSEC
  0
SECTION
  2
TABLES
  0
TABLE
  2
VPORT
 70
     2
  0
VPORT
  2
*ACTIVE
 70
     0
 10
0.0
 20
0.0
 11
1.0
 21
1.0
 12
154.486816
 22
463.076285
 13
0.0
 23
0.0
 14
1.0
 24
1.0
 15
50.0
 25
50.0
 16
0.0
 26
0.0
 36
1.0
 17
0.0
 27
0.0
 37
0.0
 40
952.050436
 41
1.865779
 42
50.0
 43
0.0
 44
0.0
 50
0.0
 51
0.0
 71
     0
 72
   100
 73
     1
 74
     1
 75
     0
 76
     0
 77
     0
 78
     0
  0
ENDTAB
  0
TABLE
  2
LTYPE
 70
     3
  0
LTYPE
  2
CONTINUOUS
 70
     0
  3
Solid Line
 72
    65
 73
     0
 40
0.0
  0
LTYPE
  2
31
 70
     0
  3

 72
    65
 73
     4
 40
2.1
 49
1.5
 49
-0.3
 49
0.0
 49
-0.3
  0
LTYPE
  2
22
 70
     0
  3

 72
    65
 73
     2
 40
1.4
 49
1.2
 49
-0.2
  0
ENDTAB
  0
TABLE
  2
LAYER
 70
    11
  0
LAYER
  2
0
 70
     0
 62
     7
  6
CONTINUOUS
  0
LAYER
  2
DEFPOINTS
 70
     0
 62
     7
  6
CONTINUOUS
  0
LAYER
  2
TEAM-BODY
 70
     0
 62
     2
  6
CONTINUOUS
  0
LAYER
  2
TEAM-AXE
 70
     0
 62
    10
  6
31
  0
LAYER
  2
TEAM-MAS
 70
     0
 62
     9
  6
CONTINUOUS
  0
LAYER
  2
TEAM-TXT
 70
     0
 62
    11
  6
CONTINUOUS
  0
LAYER
  2
TEAM-COLD
 70
     0
 62
     3
  6
CONTINUOUS
  0
LAYER
  2
TEAM-HIDE
 70
     0
 62
     8
  6
22
  0
LAYER
  2
TEAM-KAN
 70
     0
 62
     6
  6
CONTINUOUS
  0
LAYER
  2
TEAM-WARM
 70
     0
 62
     1
  6
CONTINUOUS
  0
LAYER
  2
TEAM-INSP
 70
     0
 62
     5
  6
CONTINUOUS
  0
ENDTAB
  0
TABLE
  2
STYLE
 70
     2
  0
STYLE
  2
STANDARD
 70
     0
 40
0.0
 41
1.0
 50
0.0
 71
     0
 42
200.0
  3
txt
  4

  0
STYLE
  2
TEAM
 70
     0
 40
0.0
 41
0.8
 50
15.0
 71
     0
 42
7.0
  3
ROMANS.shx
  4

  0
ENDTAB
  0
TABLE
  2
VIEW
 70
     0
  0
ENDTAB
  0
TABLE
  2
UCS
 70
     0
  0
ENDTAB
  0
TABLE
  2
APPID
 70
     1
  0
APPID
  2
ACAD
 70
     0
  0
ENDTAB
  0
TABLE
  2
DIMSTYLE
 70
     1
  0
DIMSTYLE
  2
TEAM
 70
     0
  3

  4

  5

  6

  7

 40
1.0
 41
20.0
 42
10.0
 43
1.0
 44
1.0
 45
0.0
 46
0.0
 47
0.0
 48
0.0
140
35.0
141
1.0
142
0.0
143
25.4
144
1.0
145
0.0
146
1.0
147
15.0
 71
     0
 72
     0
 73
     0
 74
     0
 75
     0
 76
     0
 77
     0
 78
     0
170
     0
171
     2
172
     0
173
     0
174
     0
175
     0
176
     9
177
     9
178
    11
  0
ENDTAB
  0
ENDSEC
  0
SECTION
  2
BLOCKS
  0
BLOCK
  8
0
  2
$MODEL_SPACE
 70
     0
 10
0.0
 20
0.0
 30
0.0
  3
$MODEL_SPACE
  1

  0
ENDBLK
  5
128
  8
0
  0
BLOCK
 67
     1
  8
0
  2
$PAPER_SPACE
 70
     0
 10
0.0
 20
0.0
 30
0.0
  3
$PAPER_SPACE
  1

  0
ENDBLK
  5
126
 67
     1
  8
0
  0
BLOCK
  8
0
  2
*D0
 70
     1
 10
0.0
 20
0.0
 30
0.0
  3
*D0
  1

  0
LINE
  5
A6
  8
0
  6
BYBLOCK
 62
     9
 10
85.0
 20
336590.0
 30
0.0
 11
580.196345
 21
336590.0
 31
0.0
  0
LINE
  5
A7
  8
0
  6
BYBLOCK
 62
     9
 10
405.0
 20
336850.0
 30
0.0
 11
580.196345
 21
336850.0
 31
0.0
  0
LINE
  5
A8
  8
0
  6
BYBLOCK
 62
     9
 10
579.196345
 20
336610.0
 30
0.0
 11
579.196345
 21
336673.041831
 31
0.0
  0
LINE
  5
A9
  8
0
  6
BYBLOCK
 62
     9
 10
579.196345
 20
336830.0
 30
0.0
 11
579.196345
 21
336766.958169
 31
0.0
  0
SOLID
  5
AA
  8
0
  6
BYBLOCK
 62
     9
 10
575.863012
 20
336610.0
 30
0.0
 11
582.529678
 21
336610.0
 31
0.0
 12
579.196345
 22
336590.0
 32
0.0
 13
579.196345
 23
336590.0
 33
0.0
  0
SOLID
  5
AB
  8
0
  6
BYBLOCK
 62
     9
 10
575.863012
 20
336830.0
 30
0.0
 11
582.529678
 21
336830.0
 31
0.0
 12
579.196345
 22
336850.0
 32
0.0
 13
579.196345
 23
336850.0
 33
0.0
  0
TEXT
  5
AC
  8
0
  6
BYBLOCK
 62
    11
 10
596.696345
 20
336683.68061
 30
0.0
 40
35.0
  1
260
 50
90.0
  0
POINT
  5
AD
  8
DEFPOINTS
  6
BYBLOCK
 62
     0
 10
75.0
 20
336590.0
 30
0.0
  0
POINT
  5
AE
  8
DEFPOINTS
  6
BYBLOCK
 62
     0
 10
395.0
 20
336850.0
 30
0.0
  0
POINT
  5
AF
  8
DEFPOINTS
  6
BYBLOCK
 62
     0
 10
579.196345
 20
336850.0
 30
0.0
  0
ENDBLK
  5
B1
  8
0
  0
BLOCK
  8
0
  2
*D1
 70
     1
 10
0.0
 20
0.0
 30
0.0
  3
*D1
  1

  0
LINE
  5
4D
  8
0
  6
BYBLOCK
 62
     9
 10
499.527647
 20
336850.0
 30
0.0
 11
639.332141
 21
336850.0
 31
0.0
  0
LINE
  5
4E
  8
0
  6
BYBLOCK
 62
     9
 10
10.0
 20
336500.0
 30
0.0
 11
639.332141
 21
336500.0
 31
0.0
  0
LINE
  5
4F
  8
0
  6
BYBLOCK
 62
     9
 10
638.332141
 20
336830.0
 30
0.0
 11
638.332141
 21
336721.51378
 31
0.0
  0
LINE
  5
50
  8
0
  6
BYBLOCK
 62
     9
 10
638.332141
 20
336520.0
 30
0.0
 11
638.332141
 21
336628.48622
 31
0.0
  0
SOLID
  5
51
  8
0
  6
BYBLOCK
 62
     9
 10
634.998807
 20
336830.0
 30
0.0
 11
641.665474
 21
336830.0
 31
0.0
 12
638.332141
 22
336850.0
 32
0.0
 13
638.332141
 23
336850.0
 33
0.0
  0
SOLID
  5
52
  8
0
  6
BYBLOCK
 62
     9
 10
634.998807
 20
336520.0
 30
0.0
 11
641.665474
 21
336520.0
 31
0.0
 12
638.332141
 22
336500.0
 32
0.0
 13
638.332141
 23
336500.0
 33
0.0
  0
TEXT
  5
53
  8
0
  6
BYBLOCK
 62
    11
 10
655.832141
 20
336638.23622
 30
0.0
 40
35.0
  1
350
 50
90.0
  0
POINT
  5
54
  8
DEFPOINTS
  6
BYBLOCK
 62
     0
 10
489.527647
 20
336850.0
 30
20.0
  0
POINT
  5
55
  8
DEFPOINTS
  6
BYBLOCK
 62
     0
 10
0.0
 20
336500.0
 30
10.0
  0
POINT
  5
56
  8
DEFPOINTS
  6
BYBLOCK
 62
     0
 10
638.332141
 20
336500.0
 30
20.0
  0
ENDBLK
  5
58
  8
0
  0
BLOCK
  8
0
  2
*D2
 70
     1
 10
0.0
 20
0.0
 30
0.0
  3
*D2
  1

  0
LINE
  5
98
  8
0
  6
BYBLOCK
 62
     9
 10
523.738133
 20
336850.0
 30
0.0
 11
692.807376
 21
336850.0
 31
0.0
  0
LINE
  5
99
  8
0
  6
BYBLOCK
 62
     9
 10
10.0
 20
336000.0
 30
0.0
 11
692.807376
 21
336000.0
 31
0.0
  0
LINE
  5
9A
  8
0
  6
BYBLOCK
 62
     9
 10
691.807376
 20
336830.0
 30
0.0
 11
691.807376
 21
336471.51378
 31
0.0
  0
LINE
  5
9B
  8
0
  6
BYBLOCK
 62
     9
 10
691.807376
 20
336020.0
 30
0.0
 11
691.807376
 21
336378.48622
 31
0.0
  0
SOLID
  5
9C
  8
0
  6
BYBLOCK
 62
     9
 10
688.474043
 20
336830.0
 30
0.0
 11
695.14071
 21
336830.0
 31
0.0
 12
691.807376
 22
336850.0
 32
0.0
 13
691.807376
 23
336850.0
 33
0.0
  0
SOLID
  5
9D
  8
0
  6
BYBLOCK
 62
     9
 10
688.474043
 20
336020.0
 30
0.0
 11
695.14071
 21
336020.0
 31
0.0
 12
691.807376
 22
336000.0
 32
0.0
 13
691.807376
 23
336000.0
 33
0.0
  0
TEXT
  5
9E
  8
0
  6
BYBLOCK
 62
    11
 10
709.307376
 20
336388.23622
 30
0.0
 40
35.0
  1
850
 50
90.0
  0
POINT
  5
9F
  8
DEFPOINTS
  6
BYBLOCK
 62
     0
 10
513.738133
 20
336850.0
 30
10.0
  0
POINT
  5
A0
  8
DEFPOINTS
  6
BYBLOCK
 62
     0
 10
0.0
 20
336000.0
 30
0.0
  0
POINT
  5
A1
  8
DEFPOINTS
  6
BYBLOCK
 62
     0
 10
691.807376
 20
336000.0
 30
10.0
  0
ENDBLK
  5
A3
  8
0
  0
BLOCK
  8
0
  2
*D3
 70
     1
 10
0.0
 20
0.0
 30
0.0
  3
*D3
  1

  0
LINE
  5
3F
  8
0
  6
BYBLOCK
 62
     9
 10
10.0
 20
336500.0
 30
0.0
 11
639.332141
 21
336500.0
 31
0.0
  0
LINE
  5
40
  8
0
  6
BYBLOCK
 62
     9
 10
160.0
 20
336000.0
 30
0.0
 11
639.332141
 21
336000.0
 31
0.0
  0
LINE
  5
41
  8
0
  6
BYBLOCK
 62
     9
 10
638.332141
 20
336480.0
 30
0.0
 11
638.332141
 21
336296.51378
 31
0.0
  0
LINE
  5
42
  8
0
  6
BYBLOCK
 62
     9
 10
638.332141
 20
336020.0
 30
0.0
 11
638.332141
 21
336203.48622
 31
0.0
  0
SOLID
  5
43
  8
0
  6
BYBLOCK
 62
     9
 10
634.998807
 20
336480.0
 30
0.0
 11
641.665474
 21
336480.0
 31
0.0
 12
638.332141
 22
336500.0
 32
0.0
 13
638.332141
 23
336500.0
 33
0.0
  0
SOLID
  5
44
  8
0
  6
BYBLOCK
 62
     9
 10
634.998807
 20
336020.0
 30
0.0
 11
641.665474
 21
336020.0
 31
0.0
 12
638.332141
 22
336000.0
 32
0.0
 13
638.332141
 23
336000.0
 33
0.0
  0
TEXT
  5
45
  8
0
  6
BYBLOCK
 62
    11
 10
655.832141
 20
336213.23622
 30
0.0
 40
35.0
  1
500
 50
90.0
  0
POINT
  5
46
  8
DEFPOINTS
  6
BYBLOCK
 62
     0
 10
0.0
 20
336500.0
 30
10.0
  0
POINT
  5
47
  8
DEFPOINTS
  6
BYBLOCK
 62
     0
 10
150.0
 20
336000.0
 30
20.0
  0
POINT
  5
48
  8
DEFPOINTS
  6
BYBLOCK
 62
     0
 10
638.332141
 20
336000.0
 30
10.0
  0
ENDBLK
  5
4A
  8
0
  0
BLOCK
  8
0
  2
*D4
 70
     1
 10
0.0
 20
0.0
 30
0.0
  3
*D4
  1

  0
LINE
  5
22
  8
0
  6
BYBLOCK
 62
     9
 10
85.0
 20
336590.0
 30
0.0
 11
580.196345
 21
336590.0
 31
0.0
  0
LINE
  5
23
  8
0
  6
BYBLOCK
 62
     9
 10
220.0
 20
336000.0
 30
0.0
 11
580.196345
 21
336000.0
 31
0.0
  0
LINE
  5
24
  8
0
  6
BYBLOCK
 62
     9
 10
579.196345
 20
336570.0
 30
0.0
 11
579.196345
 21
336341.57493
 31
0.0
  0
LINE
  5
25
  8
0
  6
BYBLOCK
 62
     9
 10
579.196345
 20
336020.0
 30
0.0
 11
579.196345
 21
336248.42507
 31
0.0
  0
SOLID
  5
26
  8
0
  6
BYBLOCK
 62
     9
 10
575.863012
 20
336570.0
 30
0.0
 11
582.529678
 21
336570.0
 31
0.0
 12
579.196345
 22
336590.0
 32
0.0
 13
579.196345
 23
336590.0
 33
0.0
  0
SOLID
  5
27
  8
0
  6
BYBLOCK
 62
     9
 10
575.863012
 20
336020.0
 30
0.0
 11
582.529678
 21
336020.0
 31
0.0
 12
579.196345
 22
336000.0
 32
0.0
 13
579.196345
 23
336000.0
 33
0.0
  0
TEXT
  5
28
  8
0
  6
BYBLOCK
 62
    11
 10
596.696345
 20
336258.17507
 30
0.0
 40
35.0
  1
590
 50
90.0
  0
POINT
  5
29
  8
DEFPOINTS
  6
BYBLOCK
 62
     0
 10
75.0
 20
336590.0
 30
0.0
  0
POINT
  5
2B
  8
DEFPOINTS
  6
BYBLOCK
 62
     0
 10
210.0
 20
336000.0
 30
10.0
  0
POINT
  5
2C
  8
DEFPOINTS
  6
BYBLOCK
 62
     0
 10
579.196345
 20
336000.0
 30
20.0
  0
ENDBLK
  5
2E
  8
0
  0
BLOCK
  8
0
  2
*D5
 70
     1
 10
0.0
 20
0.0
 30
0.0
  3
*D5
  1

  0
LINE
  5
8B
  8
0
  6
BYBLOCK
 62
     9
 10
200.0
 20
336850.0
 30
0.0
 11
521.738133
 21
336850.0
 31
0.0
  0
LINE
  5
8C
  8
0
  6
BYBLOCK
 62
     9
 10
40.0
 20
336770.000104
 30
0.0
 11
521.738133
 21
336770.000104
 31
0.0
  0
LINE
  5
8D
  8
0
  6
BYBLOCK
 62
     9
 10
520.738133
 20
336830.0
 30
0.0
 11
520.738133
 21
336790.000104
 31
0.0
  0
TEXT
  5
8E
  8
0
  6
BYBLOCK
 62
    11
 10
538.238133
 20
336704.678958
 30
0.0
 40
35.0
  1
80
 50
90.0
  0
SOLID
  5
8F
  8
0
  6
BYBLOCK
 62
     9
 10
517.4048
 20
336830.0
 30
0.0
 11
524.071467
 21
336830.0
 31
0.0
 12
520.738133
 22
336850.0
 32
0.0
 13
520.738133
 23
336850.0
 33
0.0
  0
SOLID
  5
90
  8
0
  6
BYBLOCK
 62
     9
 10
517.4048
 20
336790.000104
 30
0.0
 11
524.071467
 21
336790.000104
 31
0.0
 12
520.738133
 22
336770.000104
 32
0.0
 13
520.738133
 23
336770.000104
 33
0.0
  0
POINT
  5
91
  8
DEFPOINTS
  6
BYBLOCK
 62
     0
 10
190.0
 20
336850.0
 30
10.0
  0
POINT
  5
92
  8
DEFPOINTS
  6
BYBLOCK
 62
     0
 10
30.0
 20
336770.000104
 30
0.0
  0
POINT
  5
93
  8
DEFPOINTS
  6
BYBLOCK
 62
     0
 10
520.738133
 20
336770.000104
 30
10.0
  0
ENDBLK
  5
95
  8
0
  0
BLOCK
  8
0
  2
*D6
 70
     1
 10
0.0
 20
0.0
 30
0.0
  3
*D6
  1

  0
LINE
  5
7D
  8
0
  6
BYBLOCK
 62
     9
 10
400.0
 20
336854.0
 30
0.0
 11
400.0
 21
336921.370125
 31
0.0
  0
LINE
  5
7E
  8
0
  6
BYBLOCK
 62
     9
 10
-400.0
 20
336854.0
 30
0.0
 11
-400.0
 21
336921.370125
 31
0.0
  0
LINE
  5
7F
  8
0
  6
BYBLOCK
 62
     9
 10
380.0
 20
336920.370125
 30
0.0
 11
46.51378
 21
336920.370125
 31
0.0
  0
LINE
  5
80
  8
0
  6
BYBLOCK
 62
     9
 10
-380.0
 20
336920.370125
 30
0.0
 11
-46.51378
 21
336920.370125
 31
0.0
  0
SOLID
  5
81
  8
0
  6
BYBLOCK
 62
     9
 10
380.0
 20
336923.703458
 30
0.0
 11
380.0
 21
336917.036792
 31
0.0
 12
400.0
 22
336920.370125
 32
0.0
 13
400.0
 23
336920.370125
 33
0.0
  0
SOLID
  5
82
  8
0
  6
BYBLOCK
 62
     9
 10
-380.0
 20
336923.703458
 30
0.0
 11
-380.0
 21
336917.036792
 31
0.0
 12
-400.0
 22
336920.370125
 32
0.0
 13
-400.0
 23
336920.370125
 33
0.0
  0
TEXT
  5
83
  8
0
  6
BYBLOCK
 62
    11
 10
-36.76378
 20
336902.870125
 30
0.0
 40
35.0
  1
800
  0
POINT
  5
84
  8
DEFPOINTS
  6
BYBLOCK
 62
     0
 10
400.0
 20
336844.0
 30
0.0
  0
POINT
  5
85
  8
DEFPOINTS
  6
BYBLOCK
 62
     0
 10
-400.0
 20
336844.0
 30
0.0
  0
POINT
  5
86
  8
DEFPOINTS
  6
BYBLOCK
 62
     0
 10
-400.0
 20
336920.370125
 30
0.0
  0
ENDBLK
  5
88
  8
0
  0
BLOCK
  8
0
  2
*D7
 70
     1
 10
0.0
 20
0.0
 30
0.0
  3
*D7
  1

  0
LINE
  5
31
  8
0
  6
BYBLOCK
 62
     9
 10
-75.0
 20
336569.783522
 30
0.0
 11
-75.0
 21
336389.194223
 31
0.0
  0
LINE
  5
32
  8
0
  6
BYBLOCK
 62
     9
 10
75.0
 20
336570.0
 30
0.0
 11
75.0
 21
336389.194223
 31
0.0
  0
LINE
  5
33
  8
0
  6
BYBLOCK
 62
     9
 10
-55.0
 20
336390.194223
 30
0.0
 11
-40.0
 21
336390.194223
 31
0.0
  0
LINE
  5
34
  8
0
  6
BYBLOCK
 62
     9
 10
55.0
 20
336390.194223
 30
0.0
 11
40.0
 21
336390.194223
 31
0.0
  0
TEXT
  5
35
  8
0
  6
BYBLOCK
 62
    11
 10
-33.259084
 20
336400.58305
 30
0.0
 40
35.0
  1
150
  0
SOLID
  5
36
  8
0
  6
BYBLOCK
 62
     9
 10
-55.0
 20
336393.527556
 30
0.0
 11
-55.0
 21
336386.860889
 31
0.0
 12
-75.0
 22
336390.194223
 32
0.0
 13
-75.0
 23
336390.194223
 33
0.0
  0
SOLID
  5
37
  8
0
  6
BYBLOCK
 62
     9
 10
55.0
 20
336393.527556
 30
0.0
 11
55.0
 21
336386.860889
 31
0.0
 12
75.0
 22
336390.194223
 32
0.0
 13
75.0
 23
336390.194223
 33
0.0
  0
POINT
  5
38
  8
DEFPOINTS
  6
BYBLOCK
 62
     0
 10
-75.0
 20
336579.783522
 30
20.0
  0
POINT
  5
39
  8
DEFPOINTS
  6
BYBLOCK
 62
     0
 10
75.0
 20
336580.0
 30
20.0
  0
POINT
  5
3A
  8
DEFPOINTS
  6
BYBLOCK
 62
     0
 10
75.0
 20
336390.194223
 30
30.0
  0
ENDBLK
  5
3C
  8
0
  0
ENDSEC
  0
SECTION
  2
ENTITIES
  0
DIMENSION
  5
20
  8
TEAM-MAS
  2
*D4
 10
579.196345
 20
0.0
 30
20.0
 11
579.196345
 21
295.0
 31
0.0
 12
0.0
 22
-336000.0
 32
0.0
 13
75.0
 23
590.0
 33
0.0
 14
210.0
 24
0.0
 34
10.0
 50
90.0
1001
ACAD
1000
DSTYLE
1002
{
1070
    40
1040
1.0
1002
}
  0
DIMENSION
  5
2F
  8
TEAM-MAS
  2
*D7
 10
75.0
 20
390.194223
 30
10.0
 11
0.004695
 21
418.08305
 31
-20.0
 12
0.0
 22
-336000.0
 32
-20.0
 70
   128
 13
-75.0
 23
579.783522
 33
0.0
 14
75.0
 24
580.0
 34
0.0
1001
ACAD
1000
DSTYLE
1002
{
1070
    40
1040
1.0
1002
}
  0
DIMENSION
  5
3D
  8
TEAM-MAS
  2
*D3
 10
638.332141
 20
0.0
 30
0.0
 11
638.332141
 21
250.0
 31
-10.0
 12
0.0
 22
-336000.0
 32
-10.0
 13
0.0
 23
500.0
 33
0.0
 14
150.0
 24
0.0
 34
10.0
 50
90.0
1001
ACAD
1000
DSTYLE
1002
{
1070
    40
1040
1.0
1002
}
  0
DIMENSION
  5
4B
  8
TEAM-MAS
  2
*D1
 10
638.332141
 20
500.0
 30
10.0
 11
638.332141
 21
675.0
 31
-10.0
 12
0.0
 22
-336000.0
 32
-10.0
 13
489.527647
 23
850.0
 33
10.0
 14
0.0
 24
500.0
 34
0.0
 50
90.0
1001
ACAD
1000
DSTYLE
1002
{
1070
    40
1040
1.0
1002
}
  0
LINE
  5
59
  8
TEAM-BODY
 10
400.0
 20
770.000104
 30
0.0
 11
400.0
 21
850.0
 31
0.0
  0
LINE
  5
5B
  8
TEAM-HIDE
 10
-283.0
 20
850.0
 30
0.0
 11
-257.581628
 21
775.000104
 31
0.0
  0
LINE
  5
5E
  8
TEAM-HIDE
 10
283.0
 20
850.0
 30
0.0
 11
257.581628
 21
775.000104
 31
0.0
  0
LINE
  5
5F
  8
TEAM-BODY
 10
-400.0
 20
850.0
 30
0.0
 11
-400.0
 21
770.000104
 31
0.0
  0
LINE
  5
60
  8
TEAM-HIDE
 10
30.0
 20
770.000104
 30
0.0
 11
30.0
 21
775.000104
 31
0.0
  0
LINE
  5
61
  8
TEAM-HIDE
 10
-30.0
 20
770.000104
 30
0.0
 11
30.0
 21
770.000104
 31
0.0
  0
LINE
  5
62
  8
TEAM-HIDE
 10
-30.0
 20
770.000104
 30
0.0
 11
-30.0
 21
775.000104
 31
0.0
  0
LINE
  5
63
  8
TEAM-HIDE
 10
30.0
 20
775.000104
 30
0.0
 11
257.581628
 21
775.000104
 31
0.0
  0
LINE
  5
64
  8
TEAM-HIDE
 10
-257.581628
 20
775.000104
 30
0.0
 11
-30.0
 21
775.000104
 31
0.0
  0
TEXT
  5
65
  8
TEAM-TXT
 10
-108.836879
 20
795.980438
 30
0.0
 40
30.0
  1
team 233323
 41
0.8
 51
15.0
  7
TEAM
  0
CIRCLE
  5
68
  8
TEAM-WARM
 10
-75.0
 20
589.783522
 30
0.0
 40
10.0
  0
LINE
  5
6A
  8
TEAM-AXE
 10
-65.050126
 20
589.783522
 30
0.0
 11
-84.949874
 21
589.783522
 31
0.0
  0
LINE
  5
6D
  8
TEAM-AXE
 10
-75.0
 20
579.783522
 30
0.0
 11
-75.0
 21
599.783522
 31
0.0
  0
CIRCLE
  5
6E
  8
TEAM-COLD
 10
75.0
 20
590.0
 30
0.0
 40
10.0
  0
LINE
  5
70
  8
TEAM-AXE
 10
75.0
 20
580.0
 30
0.0
 11
75.0
 21
600.0
 31
0.0
  0
LINE
  5
71
  8
TEAM-AXE
 10
84.949874
 20
590.0
 30
0.0
 11
65.050126
 21
590.0
 31
0.0
  0
LINE
  5
72
  8
TEAM-AXE
 10
0.0
 20
480.0
 30
0.0
 11
0.0
 21
520.0
 31
0.0
  0
LINE
  5
73
  8
TEAM-AXE
 10
20.0
 20
500.0
 30
0.0
 11
-20.0
 21
500.0
 31
0.0
  0
CIRCLE
  5
74
  8
TEAM-KAN
 10
0.0
 20
500.0
 30
0.0
 40
20.0
  0
LINE
  5
76
  8
TEAM-AXE
 10
0.0
 20
557.015383
 30
0.0
 11
0.0
 21
868.0
 31
0.0
  0
CIRCLE
  5
77
  8
TEAM-INSP
 10
0.0
 20
0.0
 30
0.0
 40
10.0
  0
LINE
  5
79
  8
TEAM-BODY
 10
400.0
 20
770.000104
 30
0.0
 11
-400.0
 21
770.000104
 31
0.0
  0
LINE
  5
7A
  8
TEAM-BODY
 10
400.0
 20
850.0
 30
0.0
 11
-400.0
 21
850.0
 31
0.0
  0
DIMENSION
  5
7B
  8
TEAM-MAS
  2
*D6
 10
-400.0
 20
920.370125
 30
0.0
 11
0.0
 21
920.370125
 31
0.0
 12
0.0
 22
-336000.0
 32
0.0
 13
400.0
 23
844.0
 33
0.0
 14
-400.0
 24
844.0
 34
0.0
1001
ACAD
1000
DSTYLE
1002
{
1070
    40
1040
1.0
1002
}
  0
DIMENSION
  5
89
  8
TEAM-MAS
  2
*D5
 10
520.738133
 20
770.000104
 30
10.0
 11
520.738133
 21
729.192738
 31
0.0
 12
0.0
 22
-336000.0
 32
0.0
 70
   128
 13
190.0
 23
850.0
 33
10.0
 14
30.0
 24
770.000104
 34
0.0
 50
90.0
1001
ACAD
1000
DSTYLE
1002
{
1070
    40
1040
1.0
1002
}
  0
DIMENSION
  5
96
  8
TEAM-MAS
  2
*D2
 10
691.807376
 20
0.0
 30
10.0
 11
691.807376
 21
425.0
 31
0.0
 12
0.0
 22
-336000.0
 32
0.0
 13
513.738133
 23
850.0
 33
10.0
 14
0.0
 24
0.0
 34
0.0
 50
90.0
1001
ACAD
1000
DSTYLE
1002
{
1070
    40
1040
1.0
1002
}
  0
DIMENSION
  5
A4
  8
TEAM-MAS
  2
*D0
 10
579.196345
 20
850.0
 30
0.0
 11
579.196345
 21
720.0
 31
0.0
 12
0.0
 22
-336000.0
 32
0.0
 13
75.0
 23
590.0
 33
0.0
 14
395.0
 24
850.0
 34
0.0
 50
90.0
1001
ACAD
1000
DSTYLE
1002
{
1070
    40
1040
1.0
1002
}
  0
ENDSEC
  0
EOF
