  0
SECTION
  2
HEADER
  9
$ACADVER
  1
AC1009
  9
$INSBASE
 10
0.0
 20
0.0
 30
0.0
  9
$EXTMIN
 10
-500.024523
 20
-10.022341
 30
-20.002062
  9
$EXTMAX
 10
809.034842
 20
970.46281
 30
20.00034
  9
$LIMMIN
 10
-500.024523
 20
-10.022341
  9
$LIMMAX
 10
809.034842
 20
970.46281
  9
$ORTHOMODE
 70
     1
  9
$REGENMODE
 70
     1
  9
$FILLMODE
 70
     1
  9
$QTEXTMODE
 70
     0
  9
$MIRRTEXT
 70
     0
  9
$DRAGMODE
 70
     2
  9
$LTSCALE
 40
50.0
  9
$OSMODE
 70
     0
  9
$ATTMODE
 70
     1
  9
$TEXTSIZE
 40
200.0
  9
$TRACEWID
 40
1.0
  9
$TEXTSTYLE
  7
STANDARD
  9
$CLAYER
  8
TEAM-MAS
  9
$CELTYPE
  6
BYLAYER
  9
$CECOLOR
 62
   256
  9
$DIMSCALE
 40
1.0
  9
$DIMASZ
 40
20.0
  9
$DIMEXO
 40
10.0
  9
$DIMDLI
 40
1.0
  9
$DIMRND
 40
0.0
  9
$DIMDLE
 40
0.0
  9
$DIMEXE
 40
1.0
  9
$DIMTP
 40
0.0
  9
$DIMTM
 40
0.0
  9
$DIMTXT
 40
35.0
  9
$DIMCEN
 40
1.0
  9
$DIMTSZ
 40
0.0
  9
$DIMTOL
 70
     0
  9
$DIMLIM
 70
     0
  9
$DIMTIH
 70
     0
  9
$DIMTOH
 70
     0
  9
$DIMSE1
 70
     0
  9
$DIMSE2
 70
     0
  9
$DIMTAD
 70
     0
  9
$DIMZIN
 70
     0
  9
$DIMBLK
  1

  9
$DIMASO
 70
     1
  9
$DIMSHO
 70
     0
  9
$DIMPOST
  1

  9
$DIMAPOST
  1

  9
$DIMALT
 70
     0
  9
$DIMALTD
 70
     2
  9
$DIMALTF
 40
25.4
  9
$DIMLFAC
 40
1.0
  9
$DIMTOFL
 70
     0
  9
$DIMTVP
 40
0.0
  9
$DIMTIX
 70
     0
  9
$DIMSOXD
 70
     0
  9
$DIMSAH
 70
     0
  9
$DIMBLK1
  1

  9
$DIMBLK2
  1

  9
$DIMSTYLE
  2
TEAM
  9
$DIMCLRD
 70
     9
  9
$DIMCLRE
 70
     9
  9
$DIMCLRT
 70
    11
  9
$DIMTFAC
 40
1.0
  9
$DIMGAP
 40
15.0
  9
$LUNITS
 70
     2
  9
$LUPREC
 70
     1
  9
$SKETCHINC
 40
1.0
  9
$FILLETRAD
 40
10.0
  9
$AUNITS
 70
     0
  9
$AUPREC
 70
     0
  9
$MENU
  1
ROPLANS
  9
$ELEVATION
 40
0.0
  9
$PELEVATION
 40
0.0
  9
$THICKNESS
 40
0.0
  9
$LIMCHECK
 70
     0
  9
$BLIPMODE
 70
     1
  9
$CHAMFERA
 40
0.0
  9
$CHAMFERB
 40
0.0
  9
$SKPOLY
 70
     0
  9
$TDCREATE
 40
2450392.957851
  9
$TDUPDATE
 40
2455783.909856
  9
$TDINDWG
 40
3.085693
  9
$TDUSRTIMER
 40
3.085693
  9
$USRTIMER
 70
     1
  9
$ANGBASE
 50
0.0
  9
$ANGDIR
 70
     0
  9
$PDMODE
 70
     0
  9
$PDSIZE
 40
0.0
  9
$PLINEWID
 40
0.0
  9
$COORDS
 70
     2
  9
$SPLFRAME
 70
     0
  9
$SPLINETYPE
 70
     6
  9
$SPLINESEGS
 70
     8
  9
$ATTDIA
 70
     0
  9
$ATTREQ
 70
     0
  9
$HANDLING
 70
     1
  9
$HANDSEED
  5
101
  9
$SURFTAB1
 70
    36
  9
$SURFTAB2
 70
    36
  9
$SURFTYPE
 70
     6
  9
$SURFU
 70
     6
  9
$SURFV
 70
     6
  9
$UCSNAME
  2

  9
$UCSORG
 10
0.0
 20
0.0
 30
0.0
  9
$UCSXDIR
 10
1.0
 20
0.0
 30
0.0
  9
$UCSYDIR
 10
0.0
 20
1.0
 30
0.0
  9
$PUCSNAME
  2

  9
$PUCSORG
 10
0.0
 20
0.0
 30
0.0
  9
$PUCSXDIR
 10
1.0
 20
0.0
 30
0.0
  9
$PUCSYDIR
 10
0.0
 20
1.0
 30
0.0
  9
$USERI1
 70
     0
  9
$USERI2
 70
     0
  9
$USERI3
 70
     0
  9
$USERI4
 70
     0
  9
$USERI5
 70
     0
  9
$USERR1
 40
0.0
  9
$USERR2
 40
0.0
  9
$USERR3
 40
0.0
  9
$USERR4
 40
0.0
  9
$USERR5
 40
0.0
  9
$WORLDVIEW
 70
     1
  9
$SHADEDGE
 70
     1
  9
$SHADEDIF
 70
    70
  9
$TILEMODE
 70
     1
  9
$MAXACTVP
 70
    16
  9
$PLIMCHECK
 70
     0
  9
$PEXTMIN
 10
-0.805942
 20
0.005011
 30
0.0
  9
$PEXTMAX
 10
20.250094
 20
11.356329
 30
0.0
  9
$PLIMMIN
 10
0.0
 20
0.0
  9
$PLIMMAX
 10
12.0
 20
9.0
  9
$UNITMODE
 70
     0
  9
$VISRETAIN
 70
     0
  9
$PLINEGEN
 70
     0
  9
$PSLTSCALE
 70
     0
  0
ENDSEC
  0
SECTION
  2
TABLES
  0
TABLE
  2
VPORT
 70
     2
  0
VPORT
  2
*ACTIVE
 70
     0
 10
0.0
 20
0.0
 11
1.0
 21
1.0
 12
154.50516
 22
480.220234
 13
0.0
 23
0.0
 14
1.0
 24
1.0
 15
50.0
 25
50.0
 16
0.0
 26
0.0
 36
1.0
 17
0.0
 27
0.0
 37
0.0
 40
986.506555
 41
1.865779
 42
50.0
 43
0.0
 44
0.0
 50
0.0
 51
0.0
 71
     0
 72
   100
 73
     1
 74
     1
 75
     0
 76
     0
 77
     0
 78
     0
  0
ENDTAB
  0
TABLE
  2
LTYPE
 70
     2
  0
LTYPE
  2
CONTINUOUS
 70
     0
  3
Solid Line
 72
    65
 73
     0
 40
0.0
  0
LTYPE
  2
31
 70
     0
  3

 72
    65
 73
     4
 40
2.1
 49
1.5
 49
-0.3
 49
0.0
 49
-0.3
  0
ENDTAB
  0
TABLE
  2
LAYER
 70
    11
  0
LAYER
  2
0
 70
     0
 62
     7
  6
CONTINUOUS
  0
LAYER
  2
DEFPOINTS
 70
     0
 62
     7
  6
CONTINUOUS
  0
LAYER
  2
TEAM-BODY
 70
     0
 62
     2
  6
CONTINUOUS
  0
LAYER
  2
TEAM-AXE
 70
     0
 62
    10
  6
31
  0
LAYER
  2
TEAM-MAS
 70
     0
 62
     9
  6
CONTINUOUS
  0
LAYER
  2
TEAM-TXT
 70
     0
 62
    11
  6
CONTINUOUS
  0
LAYER
  2
TEAM-DET1
 70
     0
 62
     4
  6
CONTINUOUS
  0
LAYER
  2
TEAM-COLD
 70
     0
 62
     3
  6
CONTINUOUS
  0
LAYER
  2
TEAM-KAN
 70
     0
 62
     6
  6
CONTINUOUS
  0
LAYER
  2
TEAM-WARM
 70
     0
 62
     1
  6
CONTINUOUS
  0
LAYER
  2
TEAM-INSP
 70
     0
 62
     5
  6
CONTINUOUS
  0
ENDTAB
  0
TABLE
  2
STYLE
 70
     2
  0
STYLE
  2
STANDARD
 70
     0
 40
0.0
 41
1.0
 50
0.0
 71
     0
 42
200.0
  3
txt
  4

  0
STYLE
  2
TEAM
 70
     0
 40
0.0
 41
0.8
 50
15.0
 71
     0
 42
7.0
  3
ROMANS.shx
  4

  0
ENDTAB
  0
TABLE
  2
VIEW
 70
     0
  0
ENDTAB
  0
TABLE
  2
UCS
 70
     0
  0
ENDTAB
  0
TABLE
  2
APPID
 70
     1
  0
APPID
  2
ACAD
 70
     0
  0
ENDTAB
  0
TABLE
  2
DIMSTYLE
 70
     1
  0
DIMSTYLE
  2
TEAM
 70
     0
  3

  4

  5

  6

  7

 40
1.0
 41
20.0
 42
10.0
 43
1.0
 44
1.0
 45
0.0
 46
0.0
 47
0.0
 48
0.0
140
35.0
141
1.0
142
0.0
143
25.4
144
1.0
145
0.0
146
1.0
147
15.0
 71
     0
 72
     0
 73
     0
 74
     0
 75
     0
 76
     0
 77
     0
 78
     0
170
     0
171
     2
172
     0
173
     0
174
     0
175
     0
176
     9
177
     9
178
    11
  0
ENDTAB
  0
ENDSEC
  0
SECTION
  2
BLOCKS
  0
BLOCK
  8
0
  2
$MODEL_SPACE
 70
     0
 10
0.0
 20
0.0
 30
0.0
  3
$MODEL_SPACE
  1

  0
ENDBLK
  5
FA
  8
0
  0
BLOCK
 67
     1
  8
0
  2
$PAPER_SPACE
 70
     0
 10
0.0
 20
0.0
 30
0.0
  3
$PAPER_SPACE
  1

  0
ENDBLK
  5
F8
 67
     1
  8
0
  0
BLOCK
  8
0
  2
*D0
 70
     1
 10
0.0
 20
0.0
 30
0.0
  3
*D0
  1

  0
LINE
  5
22
  8
0
  6
BYBLOCK
 62
     9
 10
8085.0
 20
88590.0
 30
0.0
 11
8680.196345
 21
88590.0
 31
0.0
  0
LINE
  5
23
  8
0
  6
BYBLOCK
 62
     9
 10
8287.0
 20
88000.0
 30
0.0
 11
8680.196345
 21
88000.0
 31
0.0
  0
LINE
  5
24
  8
0
  6
BYBLOCK
 62
     9
 10
8679.196345
 20
88570.0
 30
0.0
 11
8679.196345
 21
88341.57493
 31
0.0
  0
LINE
  5
25
  8
0
  6
BYBLOCK
 62
     9
 10
8679.196345
 20
88020.0
 30
0.0
 11
8679.196345
 21
88248.42507
 31
0.0
  0
SOLID
  5
26
  8
0
  6
BYBLOCK
 62
     9
 10
8675.863012
 20
88570.0
 30
0.0
 11
8682.529678
 21
88570.0
 31
0.0
 12
8679.196345
 22
88590.0
 32
0.0
 13
8679.196345
 23
88590.0
 33
0.0
  0
SOLID
  5
27
  8
0
  6
BYBLOCK
 62
     9
 10
8675.863012
 20
88020.0
 30
0.0
 11
8682.529678
 21
88020.0
 31
0.0
 12
8679.196345
 22
88000.0
 32
0.0
 13
8679.196345
 23
88000.0
 33
0.0
  0
TEXT
  5
28
  8
0
  6
BYBLOCK
 62
    11
 10
8696.696345
 20
88258.17507
 30
0.0
 40
35.0
  1
590
 50
90.0
  0
POINT
  5
29
  8
DEFPOINTS
  6
BYBLOCK
 62
     0
 10
8075.0
 20
88590.0
 30
0.0
  0
POINT
  5
2B
  8
DEFPOINTS
  6
BYBLOCK
 62
     0
 10
8277.0
 20
88000.0
 30
10.0
  0
POINT
  5
2C
  8
DEFPOINTS
  6
BYBLOCK
 62
     0
 10
8679.196345
 20
88000.0
 30
20.0
  0
ENDBLK
  5
2E
  8
0
  0
BLOCK
  8
0
  2
*D1
 70
     1
 10
0.0
 20
0.0
 30
0.0
  3
*D1
  1

  0
LINE
  5
76
  8
0
  6
BYBLOCK
 62
     9
 10
7925.0
 20
88569.783522
 30
0.0
 11
7925.0
 21
88389.194223
 31
0.0
  0
LINE
  5
77
  8
0
  6
BYBLOCK
 62
     9
 10
8075.0
 20
88570.0
 30
0.0
 11
8075.0
 21
88389.194223
 31
0.0
  0
LINE
  5
78
  8
0
  6
BYBLOCK
 62
     9
 10
7945.0
 20
88390.194223
 30
0.0
 11
7960.0
 21
88390.194223
 31
0.0
  0
LINE
  5
79
  8
0
  6
BYBLOCK
 62
     9
 10
8055.0
 20
88390.194223
 30
0.0
 11
8040.0
 21
88390.194223
 31
0.0
  0
TEXT
  5
7A
  8
0
  6
BYBLOCK
 62
    11
 10
7966.740916
 20
88400.58305
 30
0.0
 40
35.0
  1
150
  0
SOLID
  5
7B
  8
0
  6
BYBLOCK
 62
     9
 10
7945.0
 20
88393.527556
 30
0.0
 11
7945.0
 21
88386.860889
 31
0.0
 12
7925.0
 22
88390.194223
 32
0.0
 13
7925.0
 23
88390.194223
 33
0.0
  0
SOLID
  5
7C
  8
0
  6
BYBLOCK
 62
     9
 10
8055.0
 20
88393.527556
 30
0.0
 11
8055.0
 21
88386.860889
 31
0.0
 12
8075.0
 22
88390.194223
 32
0.0
 13
8075.0
 23
88390.194223
 33
0.0
  0
POINT
  5
7D
  8
DEFPOINTS
  6
BYBLOCK
 62
     0
 10
7925.0
 20
88579.783522
 30
20.0
  0
POINT
  5
7E
  8
DEFPOINTS
  6
BYBLOCK
 62
     0
 10
8075.0
 20
88580.0
 30
20.0
  0
POINT
  5
7F
  8
DEFPOINTS
  6
BYBLOCK
 62
     0
 10
8075.0
 20
88390.194223
 30
30.0
  0
ENDBLK
  5
81
  8
0
  0
BLOCK
  8
0
  2
*D2
 70
     1
 10
0.0
 20
0.0
 30
0.0
  3
*D2
  1

  0
LINE
  5
68
  8
0
  6
BYBLOCK
 62
     9
 10
8010.0
 20
88500.0
 30
0.0
 11
8739.332141
 21
88500.0
 31
0.0
  0
LINE
  5
69
  8
0
  6
BYBLOCK
 62
     9
 10
8160.0
 20
88000.0
 30
0.0
 11
8739.332141
 21
88000.0
 31
0.0
  0
LINE
  5
6A
  8
0
  6
BYBLOCK
 62
     9
 10
8738.332141
 20
88480.0
 30
0.0
 11
8738.332141
 21
88296.51378
 31
0.0
  0
LINE
  5
6B
  8
0
  6
BYBLOCK
 62
     9
 10
8738.332141
 20
88020.0
 30
0.0
 11
8738.332141
 21
88203.48622
 31
0.0
  0
SOLID
  5
6C
  8
0
  6
BYBLOCK
 62
     9
 10
8734.998807
 20
88480.0
 30
0.0
 11
8741.665474
 21
88480.0
 31
0.0
 12
8738.332141
 22
88500.0
 32
0.0
 13
8738.332141
 23
88500.0
 33
0.0
  0
SOLID
  5
6D
  8
0
  6
BYBLOCK
 62
     9
 10
8734.998807
 20
88020.0
 30
0.0
 11
8741.665474
 21
88020.0
 31
0.0
 12
8738.332141
 22
88000.0
 32
0.0
 13
8738.332141
 23
88000.0
 33
0.0
  0
TEXT
  5
6E
  8
0
  6
BYBLOCK
 62
    11
 10
8755.832141
 20
88213.23622
 30
0.0
 40
35.0
  1
500
 50
90.0
  0
POINT
  5
6F
  8
DEFPOINTS
  6
BYBLOCK
 62
     0
 10
8000.0
 20
88500.0
 30
10.0
  0
POINT
  5
70
  8
DEFPOINTS
  6
BYBLOCK
 62
     0
 10
8150.0
 20
88000.0
 30
20.0
  0
POINT
  5
71
  8
DEFPOINTS
  6
BYBLOCK
 62
     0
 10
8738.332141
 20
88000.0
 30
10.0
  0
ENDBLK
  5
73
  8
0
  0
BLOCK
  8
0
  2
*D3
 70
     1
 10
0.0
 20
0.0
 30
0.0
  3
*D3
  1

  0
LINE
  5
5A
  8
0
  6
BYBLOCK
 62
     9
 10
8599.527647
 20
88850.0
 30
0.0
 11
8739.332141
 21
88850.0
 31
0.0
  0
LINE
  5
5B
  8
0
  6
BYBLOCK
 62
     9
 10
8010.0
 20
88500.0
 30
0.0
 11
8739.332141
 21
88500.0
 31
0.0
  0
LINE
  5
5C
  8
0
  6
BYBLOCK
 62
     9
 10
8738.332141
 20
88830.0
 30
0.0
 11
8738.332141
 21
88721.51378
 31
0.0
  0
LINE
  5
5D
  8
0
  6
BYBLOCK
 62
     9
 10
8738.332141
 20
88520.0
 30
0.0
 11
8738.332141
 21
88628.48622
 31
0.0
  0
SOLID
  5
5E
  8
0
  6
BYBLOCK
 62
     9
 10
8734.998807
 20
88830.0
 30
0.0
 11
8741.665474
 21
88830.0
 31
0.0
 12
8738.332141
 22
88850.0
 32
0.0
 13
8738.332141
 23
88850.0
 33
0.0
  0
SOLID
  5
5F
  8
0
  6
BYBLOCK
 62
     9
 10
8734.998807
 20
88520.0
 30
0.0
 11
8741.665474
 21
88520.0
 31
0.0
 12
8738.332141
 22
88500.0
 32
0.0
 13
8738.332141
 23
88500.0
 33
0.0
  0
TEXT
  5
60
  8
0
  6
BYBLOCK
 62
    11
 10
8755.832141
 20
88638.23622
 30
0.0
 40
35.0
  1
350
 50
90.0
  0
POINT
  5
61
  8
DEFPOINTS
  6
BYBLOCK
 62
     0
 10
8589.527647
 20
88850.0
 30
20.0
  0
POINT
  5
62
  8
DEFPOINTS
  6
BYBLOCK
 62
     0
 10
8000.0
 20
88500.0
 30
10.0
  0
POINT
  5
63
  8
DEFPOINTS
  6
BYBLOCK
 62
     0
 10
8738.332141
 20
88500.0
 30
20.0
  0
ENDBLK
  5
65
  8
0
  0
BLOCK
  8
0
  2
*D4
 70
     1
 10
0.0
 20
0.0
 30
0.0
  3
*D4
  1

  0
LINE
  5
AD
  8
0
  6
BYBLOCK
 62
     9
 10
8510.0
 20
88850.0
 30
0.0
 11
8561.437321
 21
88850.0
 31
0.0
  0
LINE
  5
AE
  8
0
  6
BYBLOCK
 62
     9
 10
8510.0
 20
88840.0
 30
0.0
 11
8561.437321
 21
88840.0
 31
0.0
  0
LINE
  5
AF
  8
0
  6
BYBLOCK
 62
     9
 10
8560.437321
 20
88870.0
 30
0.0
 11
8560.437321
 21
88890.0
 31
0.0
  0
LINE
  5
B0
  8
0
  6
BYBLOCK
 62
     9
 10
8560.437321
 20
88820.0
 30
0.0
 11
8560.437321
 21
88800.0
 31
0.0
  0
TEXT
  5
B1
  8
0
  6
BYBLOCK
 62
    11
 10
8578.445616
 20
88902.823512
 30
0.0
 40
35.0
  1
10
 50
90.0
  0
LINE
  5
B2
  8
0
  6
BYBLOCK
 62
     9
 10
8560.437321
 20
88850.0
 30
0.0
 11
8560.437321
 21
88840.0
 31
0.0
  0
SOLID
  5
B3
  8
0
  6
BYBLOCK
 62
     9
 10
8557.103988
 20
88870.0
 30
0.0
 11
8563.770655
 21
88870.0
 31
0.0
 12
8560.437321
 22
88850.0
 32
0.0
 13
8560.437321
 23
88850.0
 33
0.0
  0
SOLID
  5
B4
  8
0
  6
BYBLOCK
 62
     9
 10
8557.103988
 20
88820.0
 30
0.0
 11
8563.770655
 21
88820.0
 31
0.0
 12
8560.437321
 22
88840.0
 32
0.0
 13
8560.437321
 23
88840.0
 33
0.0
  0
POINT
  5
B5
  8
DEFPOINTS
  6
BYBLOCK
 62
     0
 10
8500.0
 20
88850.0
 30
0.0
  0
POINT
  5
B6
  8
DEFPOINTS
  6
BYBLOCK
 62
     0
 10
8500.0
 20
88840.0
 30
0.0
  0
POINT
  5
B7
  8
DEFPOINTS
  6
BYBLOCK
 62
     0
 10
8560.437321
 20
88840.0
 30
0.0
  0
ENDBLK
  5
B9
  8
0
  0
BLOCK
  8
0
  2
*D5
 70
     1
 10
0.0
 20
0.0
 30
0.0
  3
*D5
  1

  0
LINE
  5
4C
  8
0
  6
BYBLOCK
 62
     9
 10
8500.0
 20
88854.0
 30
0.0
 11
8500.0
 21
88955.638562
 31
0.0
  0
LINE
  5
4D
  8
0
  6
BYBLOCK
 62
     9
 10
7500.0
 20
88854.0
 30
0.0
 11
7500.0
 21
88955.638562
 31
0.0
  0
LINE
  5
4E
  8
0
  6
BYBLOCK
 62
     9
 10
8480.0
 20
88954.638562
 30
0.0
 11
8055.26378
 21
88954.638562
 31
0.0
  0
LINE
  5
4F
  8
0
  6
BYBLOCK
 62
     9
 10
7520.0
 20
88954.638562
 30
0.0
 11
7944.73622
 21
88954.638562
 31
0.0
  0
SOLID
  5
50
  8
0
  6
BYBLOCK
 62
     9
 10
8480.0
 20
88957.971895
 30
0.0
 11
8480.0
 21
88951.305228
 31
0.0
 12
8500.0
 22
88954.638562
 32
0.0
 13
8500.0
 23
88954.638562
 33
0.0
  0
SOLID
  5
51
  8
0
  6
BYBLOCK
 62
     9
 10
7520.0
 20
88957.971895
 30
0.0
 11
7520.0
 21
88951.305228
 31
0.0
 12
7500.0
 22
88954.638562
 32
0.0
 13
7500.0
 23
88954.638562
 33
0.0
  0
TEXT
  5
52
  8
0
  6
BYBLOCK
 62
    11
 10
7954.48622
 20
88937.138562
 30
0.0
 40
35.0
  1
1000
  0
POINT
  5
53
  8
DEFPOINTS
  6
BYBLOCK
 62
     0
 10
8500.0
 20
88844.0
 30
0.0
  0
POINT
  5
54
  8
DEFPOINTS
  6
BYBLOCK
 62
     0
 10
7500.0
 20
88844.0
 30
0.0
  0
POINT
  5
55
  8
DEFPOINTS
  6
BYBLOCK
 62
     0
 10
7500.0
 20
88954.638562
 30
0.0
  0
ENDBLK
  5
57
  8
0
  0
BLOCK
  8
0
  2
*D6
 70
     1
 10
0.0
 20
0.0
 30
0.0
  3
*D6
  1

  0
LINE
  5
3E
  8
0
  6
BYBLOCK
 62
     9
 10
8623.738133
 20
88850.0
 30
0.0
 11
8792.807376
 21
88850.0
 31
0.0
  0
LINE
  5
3F
  8
0
  6
BYBLOCK
 62
     9
 10
8010.0
 20
88000.0
 30
0.0
 11
8792.807376
 21
88000.0
 31
0.0
  0
LINE
  5
40
  8
0
  6
BYBLOCK
 62
     9
 10
8791.807376
 20
88830.0
 30
0.0
 11
8791.807376
 21
88471.51378
 31
0.0
  0
LINE
  5
41
  8
0
  6
BYBLOCK
 62
     9
 10
8791.807376
 20
88020.0
 30
0.0
 11
8791.807376
 21
88378.48622
 31
0.0
  0
SOLID
  5
42
  8
0
  6
BYBLOCK
 62
     9
 10
8788.474043
 20
88830.0
 30
0.0
 11
8795.14071
 21
88830.0
 31
0.0
 12
8791.807376
 22
88850.0
 32
0.0
 13
8791.807376
 23
88850.0
 33
0.0
  0
SOLID
  5
43
  8
0
  6
BYBLOCK
 62
     9
 10
8788.474043
 20
88020.0
 30
0.0
 11
8795.14071
 21
88020.0
 31
0.0
 12
8791.807376
 22
88000.0
 32
0.0
 13
8791.807376
 23
88000.0
 33
0.0
  0
TEXT
  5
44
  8
0
  6
BYBLOCK
 62
    11
 10
8809.307376
 20
88388.23622
 30
0.0
 40
35.0
  1
850
 50
90.0
  0
POINT
  5
45
  8
DEFPOINTS
  6
BYBLOCK
 62
     0
 10
8613.738133
 20
88850.0
 30
10.0
  0
POINT
  5
46
  8
DEFPOINTS
  6
BYBLOCK
 62
     0
 10
8000.0
 20
88000.0
 30
0.0
  0
POINT
  5
47
  8
DEFPOINTS
  6
BYBLOCK
 62
     0
 10
8791.807376
 20
88000.0
 30
10.0
  0
ENDBLK
  5
49
  8
0
  0
BLOCK
  8
0
  2
*D7
 70
     1
 10
0.0
 20
0.0
 30
0.0
  3
*D7
  1

  0
LINE
  5
31
  8
0
  6
BYBLOCK
 62
     9
 10
8200.0
 20
88850.0
 30
0.0
 11
8621.738133
 21
88850.0
 31
0.0
  0
LINE
  5
32
  8
0
  6
BYBLOCK
 62
     9
 10
8040.0
 20
88770.000104
 30
0.0
 11
8621.738133
 21
88770.000104
 31
0.0
  0
LINE
  5
33
  8
0
  6
BYBLOCK
 62
     9
 10
8620.738133
 20
88830.0
 30
0.0
 11
8620.738133
 21
88790.000104
 31
0.0
  0
TEXT
  5
34
  8
0
  6
BYBLOCK
 62
    11
 10
8638.238133
 20
88709.552568
 30
0.0
 40
35.0
  1
80
 50
90.0
  0
SOLID
  5
35
  8
0
  6
BYBLOCK
 62
     9
 10
8617.4048
 20
88830.0
 30
0.0
 11
8624.071467
 21
88830.0
 31
0.0
 12
8620.738133
 22
88850.0
 32
0.0
 13
8620.738133
 23
88850.0
 33
0.0
  0
SOLID
  5
36
  8
0
  6
BYBLOCK
 62
     9
 10
8617.4048
 20
88790.000104
 30
0.0
 11
8624.071467
 21
88790.000104
 31
0.0
 12
8620.738133
 22
88770.000104
 32
0.0
 13
8620.738133
 23
88770.000104
 33
0.0
  0
POINT
  5
37
  8
DEFPOINTS
  6
BYBLOCK
 62
     0
 10
8190.0
 20
88850.0
 30
10.0
  0
POINT
  5
38
  8
DEFPOINTS
  6
BYBLOCK
 62
     0
 10
8030.0
 20
88770.000104
 30
0.0
  0
POINT
  5
39
  8
DEFPOINTS
  6
BYBLOCK
 62
     0
 10
8620.738133
 20
88770.000104
 30
10.0
  0
ENDBLK
  5
3B
  8
0
  0
BLOCK
  8
0
  2
*D8
 70
     1
 10
0.0
 20
0.0
 30
0.0
  3
*D8
  1

  0
LINE
  5
9F
  8
0
  6
BYBLOCK
 62
     9
 10
8085.0
 20
88590.0
 30
0.0
 11
8680.196345
 21
88590.0
 31
0.0
  0
LINE
  5
A0
  8
0
  6
BYBLOCK
 62
     9
 10
8505.0
 20
88850.0
 30
0.0
 11
8680.196345
 21
88850.0
 31
0.0
  0
LINE
  5
A1
  8
0
  6
BYBLOCK
 62
     9
 10
8679.196345
 20
88610.0
 30
0.0
 11
8679.196345
 21
88673.041831
 31
0.0
  0
LINE
  5
A2
  8
0
  6
BYBLOCK
 62
     9
 10
8679.196345
 20
88830.0
 30
0.0
 11
8679.196345
 21
88766.958169
 31
0.0
  0
SOLID
  5
A3
  8
0
  6
BYBLOCK
 62
     9
 10
8675.863012
 20
88610.0
 30
0.0
 11
8682.529678
 21
88610.0
 31
0.0
 12
8679.196345
 22
88590.0
 32
0.0
 13
8679.196345
 23
88590.0
 33
0.0
  0
SOLID
  5
A4
  8
0
  6
BYBLOCK
 62
     9
 10
8675.863012
 20
88830.0
 30
0.0
 11
8682.529678
 21
88830.0
 31
0.0
 12
8679.196345
 22
88850.0
 32
0.0
 13
8679.196345
 23
88850.0
 33
0.0
  0
TEXT
  5
A5
  8
0
  6
BYBLOCK
 62
    11
 10
8696.696345
 20
88683.68061
 30
0.0
 40
35.0
  1
260
 50
90.0
  0
POINT
  5
A6
  8
DEFPOINTS
  6
BYBLOCK
 62
     0
 10
8075.0
 20
88590.0
 30
0.0
  0
POINT
  5
A7
  8
DEFPOINTS
  6
BYBLOCK
 62
     0
 10
8495.0
 20
88850.0
 30
0.0
  0
POINT
  5
A8
  8
DEFPOINTS
  6
BYBLOCK
 62
     0
 10
8679.196345
 20
88850.0
 30
0.0
  0
ENDBLK
  5
AA
  8
0
  0
ENDSEC
  0
SECTION
  2
ENTITIES
  0
DIMENSION
  5
20
  8
TEAM-MAS
  2
*D0
 10
679.196345
 20
0.0
 30
20.0
 11
679.196345
 21
295.0
 31
0.0
 12
-8000.0
 22
-88000.0
 32
0.0
 13
75.0
 23
590.0
 33
0.0
 14
277.0
 24
0.0
 34
10.0
 50
90.0
1001
ACAD
1000
DSTYLE
1002
{
1070
    40
1040
1.0
1002
}
  0
DIMENSION
  5
2F
  8
TEAM-MAS
  2
*D7
 10
620.738133
 20
770.000104
 30
10.0
 11
620.738133
 21
734.066347
 31
0.0
 12
-8000.0
 22
-88000.0
 32
0.0
 70
   128
 13
190.0
 23
850.0
 33
10.0
 14
30.0
 24
770.000104
 34
0.0
 50
90.0
1001
ACAD
1000
DSTYLE
1002
{
1070
    40
1040
1.0
1002
}
  0
DIMENSION
  5
3C
  8
TEAM-MAS
  2
*D6
 10
791.807376
 20
0.0
 30
10.0
 11
791.807376
 21
425.0
 31
0.0
 12
-8000.0
 22
-88000.0
 32
0.0
 13
613.738133
 23
850.0
 33
10.0
 14
0.0
 24
0.0
 34
0.0
 50
90.0
1001
ACAD
1000
DSTYLE
1002
{
1070
    40
1040
1.0
1002
}
  0
DIMENSION
  5
4A
  8
TEAM-MAS
  2
*D5
 10
-500.0
 20
954.638562
 30
0.0
 11
0.0
 21
954.638562
 31
0.0
 12
-8000.0
 22
-88000.0
 32
0.0
 13
500.0
 23
844.0
 33
0.0
 14
-500.0
 24
844.0
 34
0.0
1001
ACAD
1000
DSTYLE
1002
{
1070
    40
1040
1.0
1002
}
  0
DIMENSION
  5
58
  8
TEAM-MAS
  2
*D3
 10
738.332141
 20
500.0
 30
10.0
 11
738.332141
 21
675.0
 31
-10.0
 12
-8000.0
 22
-88000.0
 32
-10.0
 13
589.527647
 23
850.0
 33
10.0
 14
0.0
 24
500.0
 34
0.0
 50
90.0
1001
ACAD
1000
DSTYLE
1002
{
1070
    40
1040
1.0
1002
}
  0
DIMENSION
  5
66
  8
TEAM-MAS
  2
*D2
 10
738.332141
 20
0.0
 30
0.0
 11
738.332141
 21
250.0
 31
-10.0
 12
-8000.0
 22
-88000.0
 32
-10.0
 13
0.0
 23
500.0
 33
0.0
 14
150.0
 24
0.0
 34
10.0
 50
90.0
1001
ACAD
1000
DSTYLE
1002
{
1070
    40
1040
1.0
1002
}
  0
DIMENSION
  5
74
  8
TEAM-MAS
  2
*D1
 10
75.0
 20
390.194223
 30
10.0
 11
0.004695
 21
418.08305
 31
-20.0
 12
-8000.0
 22
-88000.0
 32
-20.0
 70
   128
 13
-75.0
 23
579.783522
 33
0.0
 14
75.0
 24
580.0
 34
0.0
1001
ACAD
1000
DSTYLE
1002
{
1070
    40
1040
1.0
1002
}
  0
LINE
  5
82
  8
TEAM-DET1
 10
30.0
 20
770.000104
 30
0.0
 11
324.581628
 21
770.000104
 31
0.0
  0
LINE
  5
84
  8
TEAM-BODY
 10
500.0
 20
850.0
 30
0.0
 11
-500.0
 21
850.0
 31
0.0
  0
LINE
  5
86
  8
TEAM-BODY
 10
500.0
 20
840.0
 30
0.0
 11
-500.0
 21
840.0
 31
0.0
  0
TEXT
  5
87
  8
TEAM-TXT
 10
-102.315485
 20
794.858543
 30
0.0
 40
30.0
  1
team 233332
 41
0.8
 51
15.0
  7
TEAM
  0
LINE
  5
8A
  8
TEAM-DET1
 10
-346.610879
 20
840.0
 30
0.0
 11
-324.581628
 21
770.000104
 31
0.0
  0
LINE
  5
8B
  8
TEAM-DET1
 10
-30.0
 20
765.000104
 30
0.0
 11
-30.0
 21
770.000104
 31
0.0
  0
LINE
  5
8C
  8
TEAM-DET1
 10
-30.0
 20
765.000104
 30
0.0
 11
30.0
 21
765.000104
 31
0.0
  0
LINE
  5
8D
  8
TEAM-DET1
 10
30.0
 20
765.000104
 30
0.0
 11
30.0
 21
770.000104
 31
0.0
  0
LINE
  5
8E
  8
TEAM-DET1
 10
-324.581628
 20
770.000104
 30
0.0
 11
-30.0
 21
770.000104
 31
0.0
  0
CIRCLE
  5
8F
  8
TEAM-KAN
 10
0.0
 20
500.0
 30
0.0
 40
20.0
  0
LINE
  5
91
  8
TEAM-AXE
 10
20.0
 20
500.0
 30
0.0
 11
-20.0
 21
500.0
 31
0.0
  0
LINE
  5
94
  8
TEAM-AXE
 10
0.0
 20
480.0
 30
0.0
 11
0.0
 21
520.0
 31
0.0
  0
LINE
  5
95
  8
TEAM-AXE
 10
-75.0
 20
579.783522
 30
0.0
 11
-75.0
 21
599.783522
 31
0.0
  0
LINE
  5
96
  8
TEAM-AXE
 10
-65.050126
 20
589.783522
 30
0.0
 11
-84.949874
 21
589.783522
 31
0.0
  0
CIRCLE
  5
97
  8
TEAM-WARM
 10
-75.0
 20
589.783522
 30
0.0
 40
10.0
  0
LINE
  5
99
  8
TEAM-AXE
 10
0.0
 20
557.015383
 30
0.0
 11
0.0
 21
868.0
 31
0.0
  0
LINE
  5
9A
  8
TEAM-BODY
 10
-500.0
 20
850.0
 30
0.0
 11
-500.0
 21
840.0
 31
0.0
  0
CIRCLE
  5
9B
  8
TEAM-INSP
 10
0.0
 20
0.0
 30
0.0
 40
10.0
  0
DIMENSION
  5
9D
  8
TEAM-MAS
  2
*D8
 10
679.196345
 20
850.0
 30
0.0
 11
679.196345
 21
720.0
 31
0.0
 12
-8000.0
 22
-88000.0
 32
0.0
 13
75.0
 23
590.0
 33
0.0
 14
495.0
 24
850.0
 34
0.0
 50
90.0
1001
ACAD
1000
DSTYLE
1002
{
1070
    40
1040
1.0
1002
}
  0
DIMENSION
  5
AB
  8
TEAM-MAS
  2
*D4
 10
560.437321
 20
840.0
 30
0.0
 11
560.945616
 21
923.837292
 31
0.0
 12
-8000.0
 22
-88000.0
 32
0.0
 70
   128
 13
500.0
 23
850.0
 33
0.0
 14
500.0
 24
840.0
 34
0.0
 50
90.0
1001
ACAD
1000
DSTYLE
1002
{
1070
    40
1040
1.0
1002
}
  0
LINE
  5
BA
  8
TEAM-DET1
 10
346.610879
 20
840.0
 30
0.0
 11
324.581628
 21
770.000104
 31
0.0
  0
LINE
  5
BB
  8
TEAM-AXE
 10
84.949874
 20
590.0
 30
0.0
 11
65.050126
 21
590.0
 31
0.0
  0
LINE
  5
BC
  8
TEAM-AXE
 10
75.0
 20
580.0
 30
0.0
 11
75.0
 21
600.0
 31
0.0
  0
CIRCLE
  5
BD
  8
TEAM-COLD
 10
75.0
 20
590.0
 30
0.0
 40
10.0
  0
LINE
  5
BF
  8
TEAM-BODY
 10
500.0
 20
840.0
 30
0.0
 11
500.0
 21
850.0
 31
0.0
  0
ENDSEC
  0
EOF
