  0
SECTION
  2
HEADER
  9
$ACADVER
  1
AC1009
  9
$INSBASE
 10
0.0
 20
0.0
 30
0.0
  9
$EXTMIN
 10
-600.08511
 20
-553.36995
 30
-0.000002
  9
$EXTMAX
 10
742.859388
 20
72.094557
 30
0.000004
  9
$LIMMIN
 10
-600.08511
 20
-553.36995
  9
$LIMMAX
 10
742.859388
 20
72.094557
  9
$ORTHOMODE
 70
     1
  9
$REGENMODE
 70
     1
  9
$FILLMODE
 70
     1
  9
$QTEXTMODE
 70
     0
  9
$MIRRTEXT
 70
     0
  9
$DRAGMODE
 70
     2
  9
$LTSCALE
 40
50.0
  9
$OSMODE
 70
     0
  9
$ATTMODE
 70
     1
  9
$TEXTSIZE
 40
200.0
  9
$TRACEWID
 40
1.0
  9
$TEXTSTYLE
  7
STANDARD
  9
$CLAYER
  8
TEAM-MAS
  9
$CELTYPE
  6
BYLAYER
  9
$CECOLOR
 62
   256
  9
$DIMSCALE
 40
1.0
  9
$DIMASZ
 40
20.0
  9
$DIMEXO
 40
10.0
  9
$DIMDLI
 40
1.0
  9
$DIMRND
 40
0.0
  9
$DIMDLE
 40
0.0
  9
$DIMEXE
 40
1.0
  9
$DIMTP
 40
0.0
  9
$DIMTM
 40
0.0
  9
$DIMTXT
 40
35.0
  9
$DIMCEN
 40
1.0
  9
$DIMTSZ
 40
0.0
  9
$DIMTOL
 70
     0
  9
$DIMLIM
 70
     0
  9
$DIMTIH
 70
     0
  9
$DIMTOH
 70
     0
  9
$DIMSE1
 70
     0
  9
$DIMSE2
 70
     0
  9
$DIMTAD
 70
     0
  9
$DIMZIN
 70
     0
  9
$DIMBLK
  1

  9
$DIMASO
 70
     1
  9
$DIMSHO
 70
     0
  9
$DIMPOST
  1

  9
$DIMAPOST
  1

  9
$DIMALT
 70
     0
  9
$DIMALTD
 70
     2
  9
$DIMALTF
 40
25.4
  9
$DIMLFAC
 40
1.0
  9
$DIMTOFL
 70
     0
  9
$DIMTVP
 40
0.0
  9
$DIMTIX
 70
     0
  9
$DIMSOXD
 70
     0
  9
$DIMSAH
 70
     0
  9
$DIMBLK1
  1

  9
$DIMBLK2
  1

  9
$DIMSTYLE
  2
TEAM
  9
$DIMCLRD
 70
     9
  9
$DIMCLRE
 70
     9
  9
$DIMCLRT
 70
    11
  9
$DIMTFAC
 40
1.0
  9
$DIMGAP
 40
15.0
  9
$LUNITS
 70
     2
  9
$LUPREC
 70
     1
  9
$SKETCHINC
 40
1.0
  9
$FILLETRAD
 40
10.0
  9
$AUNITS
 70
     0
  9
$AUPREC
 70
     0
  9
$MENU
  1
ROPLANS
  9
$ELEVATION
 40
0.0
  9
$PELEVATION
 40
0.0
  9
$THICKNESS
 40
0.0
  9
$LIMCHECK
 70
     0
  9
$BLIPMODE
 70
     1
  9
$CHAMFERA
 40
0.0
  9
$CHAMFERB
 40
0.0
  9
$SKPOLY
 70
     0
  9
$TDCREATE
 40
2450392.957851
  9
$TDUPDATE
 40
2455783.909856
  9
$TDINDWG
 40
3.085693
  9
$TDUSRTIMER
 40
3.085693
  9
$USRTIMER
 70
     1
  9
$ANGBASE
 50
0.0
  9
$ANGDIR
 70
     0
  9
$PDMODE
 70
     0
  9
$PDSIZE
 40
0.0
  9
$PLINEWID
 40
0.0
  9
$COORDS
 70
     2
  9
$SPLFRAME
 70
     0
  9
$SPLINETYPE
 70
     6
  9
$SPLINESEGS
 70
     8
  9
$ATTDIA
 70
     0
  9
$ATTREQ
 70
     0
  9
$HANDLING
 70
     1
  9
$HANDSEED
  5
126
  9
$SURFTAB1
 70
    36
  9
$SURFTAB2
 70
    36
  9
$SURFTYPE
 70
     6
  9
$SURFU
 70
     6
  9
$SURFV
 70
     6
  9
$UCSNAME
  2

  9
$UCSORG
 10
0.0
 20
0.0
 30
0.0
  9
$UCSXDIR
 10
1.0
 20
0.0
 30
0.0
  9
$UCSYDIR
 10
0.0
 20
1.0
 30
0.0
  9
$PUCSNAME
  2

  9
$PUCSORG
 10
0.0
 20
0.0
 30
0.0
  9
$PUCSXDIR
 10
1.0
 20
0.0
 30
0.0
  9
$PUCSYDIR
 10
0.0
 20
1.0
 30
0.0
  9
$USERI1
 70
     0
  9
$USERI2
 70
     0
  9
$USERI3
 70
     0
  9
$USERI4
 70
     0
  9
$USERI5
 70
     0
  9
$USERR1
 40
0.0
  9
$USERR2
 40
0.0
  9
$USERR3
 40
0.0
  9
$USERR4
 40
0.0
  9
$USERR5
 40
0.0
  9
$WORLDVIEW
 70
     1
  9
$SHADEDGE
 70
     1
  9
$SHADEDIF
 70
    70
  9
$TILEMODE
 70
     1
  9
$MAXACTVP
 70
    16
  9
$PLIMCHECK
 70
     0
  9
$PEXTMIN
 10
-0.805942
 20
0.005011
 30
0.0
  9
$PEXTMAX
 10
20.250094
 20
11.356329
 30
0.0
  9
$PLIMMIN
 10
0.0
 20
0.0
  9
$PLIMMAX
 10
12.0
 20
9.0
  9
$UNITMODE
 70
     0
  9
$VISRETAIN
 70
     0
  9
$PLINEGEN
 70
     0
  9
$PSLTSCALE
 70
     0
  0
ENDSEC
  0
SECTION
  2
TABLES
  0
TABLE
  2
VPORT
 70
     2
  0
VPORT
  2
*ACTIVE
 70
     0
 10
0.0
 20
0.0
 11
1.0
 21
1.0
 12
71.387139
 22
-240.637696
 13
0.0
 23
0.0
 14
1.0
 24
1.0
 15
50.0
 25
50.0
 16
0.0
 26
0.0
 36
1.0
 17
0.0
 27
0.0
 37
0.0
 40
722.146112
 41
1.865779
 42
50.0
 43
0.0
 44
0.0
 50
0.0
 51
0.0
 71
     0
 72
   100
 73
     1
 74
     1
 75
     0
 76
     0
 77
     0
 78
     0
  0
ENDTAB
  0
TABLE
  2
LTYPE
 70
     2
  0
LTYPE
  2
CONTINUOUS
 70
     0
  3
Solid Line
 72
    65
 73
     0
 40
0.0
  0
LTYPE
  2
31
 70
     0
  3

 72
    65
 73
     4
 40
2.1
 49
1.5
 49
-0.3
 49
0.0
 49
-0.3
  0
ENDTAB
  0
TABLE
  2
LAYER
 70
     8
  0
LAYER
  2
0
 70
     0
 62
     7
  6
CONTINUOUS
  0
LAYER
  2
DEFPOINTS
 70
     0
 62
     7
  6
CONTINUOUS
  0
LAYER
  2
TEAM-BODY
 70
     0
 62
     2
  6
CONTINUOUS
  0
LAYER
  2
TEAM-AXE
 70
     0
 62
    10
  6
31
  0
LAYER
  2
TEAM-MAS
 70
     0
 62
     9
  6
CONTINUOUS
  0
LAYER
  2
TEAM-TXT
 70
     0
 62
    11
  6
CONTINUOUS
  0
LAYER
  2
TEAM-DET1
 70
     0
 62
     4
  6
CONTINUOUS
  0
LAYER
  2
TEAM-INSP
 70
     0
 62
     5
  6
CONTINUOUS
  0
ENDTAB
  0
TABLE
  2
STYLE
 70
     2
  0
STYLE
  2
STANDARD
 70
     0
 40
0.0
 41
1.0
 50
0.0
 71
     0
 42
200.0
  3
txt
  4

  0
STYLE
  2
TEAM
 70
     0
 40
0.0
 41
0.8
 50
15.0
 71
     0
 42
7.0
  3
ROMANS.shx
  4

  0
ENDTAB
  0
TABLE
  2
VIEW
 70
     0
  0
ENDTAB
  0
TABLE
  2
UCS
 70
     0
  0
ENDTAB
  0
TABLE
  2
APPID
 70
     1
  0
APPID
  2
ACAD
 70
     0
  0
ENDTAB
  0
TABLE
  2
DIMSTYLE
 70
     1
  0
DIMSTYLE
  2
TEAM
 70
     0
  3

  4

  5

  6

  7

 40
1.0
 41
20.0
 42
10.0
 43
1.0
 44
1.0
 45
0.0
 46
0.0
 47
0.0
 48
0.0
140
35.0
141
1.0
142
0.0
143
25.4
144
1.0
145
0.0
146
1.0
147
15.0
 71
     0
 72
     0
 73
     0
 74
     0
 75
     0
 76
     0
 77
     0
 78
     0
170
     0
171
     2
172
     0
173
     0
174
     0
175
     0
176
     9
177
     9
178
    11
  0
ENDTAB
  0
ENDSEC
  0
SECTION
  2
BLOCKS
  0
BLOCK
  8
0
  2
$MODEL_SPACE
 70
     0
 10
0.0
 20
0.0
 30
0.0
  3
$MODEL_SPACE
  1

  0
ENDBLK
  5
101
  8
0
  0
BLOCK
 67
     1
  8
0
  2
$PAPER_SPACE
 70
     0
 10
0.0
 20
0.0
 30
0.0
  3
$PAPER_SPACE
  1

  0
ENDBLK
  5
FF
 67
     1
  8
0
  0
BLOCK
  8
0
  2
*D0
 70
     1
 10
0.0
 20
0.0
 30
0.0
  3
*D0
  1

  0
LINE
  5
61
  8
0
  6
BYBLOCK
 62
     9
 10
4610.0
 20
99525.0
 30
0.0
 11
4726.584976
 21
99525.0
 31
0.0
  0
LINE
  5
62
  8
0
  6
BYBLOCK
 62
     9
 10
4010.0
 20
100000.0
 30
0.0
 11
4726.584976
 21
100000.0
 31
0.0
  0
LINE
  5
63
  8
0
  6
BYBLOCK
 62
     9
 10
4725.584976
 20
99545.0
 30
0.0
 11
4725.584976
 21
99713.525126
 31
0.0
  0
LINE
  5
64
  8
0
  6
BYBLOCK
 62
     9
 10
4725.584976
 20
99980.0
 30
0.0
 11
4725.584976
 21
99811.474874
 31
0.0
  0
SOLID
  5
65
  8
0
  6
BYBLOCK
 62
     9
 10
4722.251642
 20
99545.0
 30
0.0
 11
4728.918309
 21
99545.0
 31
0.0
 12
4725.584976
 22
99525.0
 32
0.0
 13
4725.584976
 23
99525.0
 33
0.0
  0
SOLID
  5
66
  8
0
  6
BYBLOCK
 62
     9
 10
4722.251642
 20
99980.0
 30
0.0
 11
4728.918309
 21
99980.0
 31
0.0
 12
4725.584976
 22
100000.0
 32
0.0
 13
4725.584976
 23
100000.0
 33
0.0
  0
TEXT
  5
67
  8
0
  6
BYBLOCK
 62
    11
 10
4743.084976
 20
99723.275126
 30
0.0
 40
35.0
  1
475
 50
90.0
  0
POINT
  5
68
  8
DEFPOINTS
  6
BYBLOCK
 62
     0
 10
4600.0
 20
99525.0
 30
0.0
  0
POINT
  5
69
  8
DEFPOINTS
  6
BYBLOCK
 62
     0
 10
4000.0
 20
100000.0
 30
0.0
  0
POINT
  5
6A
  8
DEFPOINTS
  6
BYBLOCK
 62
     0
 10
4725.584976
 20
100000.0
 30
0.0
  0
ENDBLK
  5
6C
  8
0
  0
BLOCK
  8
0
  2
*D1
 70
     1
 10
0.0
 20
0.0
 30
0.0
  3
*D1
  1

  0
LINE
  5
6F
  8
0
  6
BYBLOCK
 62
     9
 10
4610.0
 20
100000.0
 30
0.0
 11
4667.53641
 21
100000.0
 31
0.0
  0
LINE
  5
70
  8
0
  6
BYBLOCK
 62
     9
 10
4050.0
 20
99780.0
 30
0.0
 11
4667.53641
 21
99780.0
 31
0.0
  0
LINE
  5
71
  8
0
  6
BYBLOCK
 62
     9
 10
4666.53641
 20
99980.0
 30
0.0
 11
4666.53641
 21
99936.958169
 31
0.0
  0
LINE
  5
72
  8
0
  6
BYBLOCK
 62
     9
 10
4666.53641
 20
99800.0
 30
0.0
 11
4666.53641
 21
99843.041831
 31
0.0
  0
SOLID
  5
73
  8
0
  6
BYBLOCK
 62
     9
 10
4663.203077
 20
99980.0
 30
0.0
 11
4669.869744
 21
99980.0
 31
0.0
 12
4666.53641
 22
100000.0
 32
0.0
 13
4666.53641
 23
100000.0
 33
0.0
  0
SOLID
  5
74
  8
0
  6
BYBLOCK
 62
     9
 10
4663.203077
 20
99800.0
 30
0.0
 11
4669.869744
 21
99800.0
 31
0.0
 12
4666.53641
 22
99780.0
 32
0.0
 13
4666.53641
 23
99780.0
 33
0.0
  0
TEXT
  5
75
  8
0
  6
BYBLOCK
 62
    11
 10
4684.03641
 20
99853.68061
 30
0.0
 40
35.0
  1
220
 50
90.0
  0
POINT
  5
76
  8
DEFPOINTS
  6
BYBLOCK
 62
     0
 10
4600.0
 20
100000.0
 30
0.0
  0
POINT
  5
77
  8
DEFPOINTS
  6
BYBLOCK
 62
     0
 10
4040.0
 20
99780.0
 30
0.0
  0
POINT
  5
78
  8
DEFPOINTS
  6
BYBLOCK
 62
     0
 10
4666.53641
 20
99780.0
 30
0.0
  0
ENDBLK
  5
7A
  8
0
  0
BLOCK
  8
0
  2
*D2
 70
     1
 10
0.0
 20
0.0
 30
0.0
  3
*D2
  1

  0
LINE
  5
31
  8
0
  6
BYBLOCK
 62
     9
 10
3400.0
 20
99515.0
 30
0.0
 11
3400.0
 21
99461.420109
 31
0.0
  0
LINE
  5
32
  8
0
  6
BYBLOCK
 62
     9
 10
4600.0
 20
99515.0
 30
0.0
 11
4600.0
 21
99461.420109
 31
0.0
  0
LINE
  5
33
  8
0
  6
BYBLOCK
 62
     9
 10
3420.0
 20
99462.420109
 30
0.0
 11
3944.73622
 21
99462.420109
 31
0.0
  0
LINE
  5
34
  8
0
  6
BYBLOCK
 62
     9
 10
4580.0
 20
99462.420109
 30
0.0
 11
4055.26378
 21
99462.420109
 31
0.0
  0
SOLID
  5
35
  8
0
  6
BYBLOCK
 62
     9
 10
3420.0
 20
99465.753442
 30
0.0
 11
3420.0
 21
99459.086776
 31
0.0
 12
3400.0
 22
99462.420109
 32
0.0
 13
3400.0
 23
99462.420109
 33
0.0
  0
SOLID
  5
36
  8
0
  6
BYBLOCK
 62
     9
 10
4580.0
 20
99465.753442
 30
0.0
 11
4580.0
 21
99459.086776
 31
0.0
 12
4600.0
 22
99462.420109
 32
0.0
 13
4600.0
 23
99462.420109
 33
0.0
  0
TEXT
  5
37
  8
0
  6
BYBLOCK
 62
    11
 10
3954.48622
 20
99444.920109
 30
0.0
 40
35.0
  1
1200
  0
POINT
  5
38
  8
DEFPOINTS
  6
BYBLOCK
 62
     0
 10
3400.0
 20
99525.0
 30
0.0
  0
POINT
  5
39
  8
DEFPOINTS
  6
BYBLOCK
 62
     0
 10
4600.0
 20
99525.0
 30
0.0
  0
POINT
  5
3A
  8
DEFPOINTS
  6
BYBLOCK
 62
     0
 10
4600.0
 20
99462.420109
 30
0.0
  0
ENDBLK
  5
3C
  8
0
  0
BLOCK
  8
0
  2
*D3
 70
     1
 10
0.0
 20
0.0
 30
0.0
  3
*D3
  1

  0
LINE
  5
44
  8
0
  6
BYBLOCK
 62
     9
 10
3565.0
 20
99993.0
 30
0.0
 11
3565.0
 21
100055.773537
 31
0.0
  0
LINE
  5
45
  8
0
  6
BYBLOCK
 62
     9
 10
3400.0
 20
100010.0
 30
0.0
 11
3400.0
 21
100055.773537
 31
0.0
  0
LINE
  5
46
  8
0
  6
BYBLOCK
 62
     9
 10
3545.0
 20
100054.773537
 30
0.0
 11
3526.224874
 21
100054.773537
 31
0.0
  0
LINE
  5
47
  8
0
  6
BYBLOCK
 62
     9
 10
3420.0
 20
100054.773537
 30
0.0
 11
3438.775126
 21
100054.773537
 31
0.0
  0
SOLID
  5
48
  8
0
  6
BYBLOCK
 62
     9
 10
3545.0
 20
100058.10687
 30
0.0
 11
3545.0
 21
100051.440204
 31
0.0
 12
3565.0
 22
100054.773537
 32
0.0
 13
3565.0
 23
100054.773537
 33
0.0
  0
SOLID
  5
49
  8
0
  6
BYBLOCK
 62
     9
 10
3420.0
 20
100058.10687
 30
0.0
 11
3420.0
 21
100051.440204
 31
0.0
 12
3400.0
 22
100054.773537
 32
0.0
 13
3400.0
 23
100054.773537
 33
0.0
  0
TEXT
  5
4A
  8
0
  6
BYBLOCK
 62
    11
 10
3448.525126
 20
100037.273537
 30
0.0
 40
35.0
  1
165
  0
POINT
  5
4B
  8
DEFPOINTS
  6
BYBLOCK
 62
     0
 10
3565.0
 20
99983.0
 30
0.0
  0
POINT
  5
4C
  8
DEFPOINTS
  6
BYBLOCK
 62
     0
 10
3400.0
 20
100000.0
 30
0.0
  0
POINT
  5
4D
  8
DEFPOINTS
  6
BYBLOCK
 62
     0
 10
3400.0
 20
100054.773537
 30
0.0
  0
ENDBLK
  5
4F
  8
0
  0
BLOCK
  8
0
  2
*D4
 70
     1
 10
0.0
 20
0.0
 30
0.0
  3
*D4
  1

  0
LINE
  5
22
  8
0
  6
BYBLOCK
 62
     9
 10
4435.0
 20
99918.0
 30
0.0
 11
4435.0
 21
100055.773537
 31
0.0
  0
LINE
  5
23
  8
0
  6
BYBLOCK
 62
     9
 10
3565.0
 20
99918.0
 30
0.0
 11
3565.0
 21
100055.773537
 31
0.0
  0
LINE
  5
24
  8
0
  6
BYBLOCK
 62
     9
 10
4415.0
 20
100054.773537
 30
0.0
 11
4046.51378
 21
100054.773537
 31
0.0
  0
LINE
  5
25
  8
0
  6
BYBLOCK
 62
     9
 10
3585.0
 20
100054.773537
 30
0.0
 11
3953.48622
 21
100054.773537
 31
0.0
  0
SOLID
  5
26
  8
0
  6
BYBLOCK
 62
     9
 10
4415.0
 20
100058.10687
 30
0.0
 11
4415.0
 21
100051.440204
 31
0.0
 12
4435.0
 22
100054.773537
 32
0.0
 13
4435.0
 23
100054.773537
 33
0.0
  0
SOLID
  5
27
  8
0
  6
BYBLOCK
 62
     9
 10
3585.0
 20
100058.10687
 30
0.0
 11
3585.0
 21
100051.440204
 31
0.0
 12
3565.0
 22
100054.773537
 32
0.0
 13
3565.0
 23
100054.773537
 33
0.0
  0
TEXT
  5
28
  8
0
  6
BYBLOCK
 62
    11
 10
3963.23622
 20
100037.273537
 30
0.0
 40
35.0
  1
870
  0
POINT
  5
29
  8
DEFPOINTS
  6
BYBLOCK
 62
     0
 10
4435.0
 20
99908.0
 30
0.0
  0
POINT
  5
2B
  8
DEFPOINTS
  6
BYBLOCK
 62
     0
 10
3565.0
 20
99908.0
 30
0.0
  0
POINT
  5
2C
  8
DEFPOINTS
  6
BYBLOCK
 62
     0
 10
3565.0
 20
100054.773537
 30
0.0
  0
ENDBLK
  5
2E
  8
0
  0
BLOCK
  8
0
  2
*D5
 70
     1
 10
0.0
 20
0.0
 30
0.0
  3
*D5
  1

  0
LINE
  5
53
  8
0
  6
BYBLOCK
 62
     9
 10
4600.0
 20
100010.0
 30
0.0
 11
4600.0
 21
100055.773537
 31
0.0
  0
LINE
  5
54
  8
0
  6
BYBLOCK
 62
     9
 10
4435.0
 20
99993.0
 30
0.0
 11
4435.0
 21
100055.773537
 31
0.0
  0
LINE
  5
55
  8
0
  6
BYBLOCK
 62
     9
 10
4580.0
 20
100054.773537
 30
0.0
 11
4561.224874
 21
100054.773537
 31
0.0
  0
LINE
  5
56
  8
0
  6
BYBLOCK
 62
     9
 10
4455.0
 20
100054.773537
 30
0.0
 11
4473.775126
 21
100054.773537
 31
0.0
  0
SOLID
  5
57
  8
0
  6
BYBLOCK
 62
     9
 10
4580.0
 20
100058.10687
 30
0.0
 11
4580.0
 21
100051.440204
 31
0.0
 12
4600.0
 22
100054.773537
 32
0.0
 13
4600.0
 23
100054.773537
 33
0.0
  0
SOLID
  5
58
  8
0
  6
BYBLOCK
 62
     9
 10
4455.0
 20
100058.10687
 30
0.0
 11
4455.0
 21
100051.440204
 31
0.0
 12
4435.0
 22
100054.773537
 32
0.0
 13
4435.0
 23
100054.773537
 33
0.0
  0
TEXT
  5
59
  8
0
  6
BYBLOCK
 62
    11
 10
4483.525126
 20
100037.273537
 30
0.0
 40
35.0
  1
165
  0
POINT
  5
5A
  8
DEFPOINTS
  6
BYBLOCK
 62
     0
 10
4600.0
 20
100000.0
 30
0.0
  0
POINT
  5
5B
  8
DEFPOINTS
  6
BYBLOCK
 62
     0
 10
4435.0
 20
99983.0
 30
0.0
  0
POINT
  5
5C
  8
DEFPOINTS
  6
BYBLOCK
 62
     0
 10
4435.0
 20
100054.773537
 30
0.0
  0
ENDBLK
  5
5E
  8
0
  0
ENDSEC
  0
SECTION
  2
ENTITIES
  0
DIMENSION
  5
20
  8
TEAM-MAS
  2
*D4
 10
-435.0
 20
54.773537
 30
0.0
 11
0.0
 21
54.773537
 31
0.0
 12
-4000.0
 22
-100000.0
 32
0.0
 13
435.0
 23
-92.0
 33
0.0
 14
-435.0
 24
-92.0
 34
0.0
1001
ACAD
1000
DSTYLE
1002
{
1070
    40
1040
1.0
1002
}
  0
DIMENSION
  5
2F
  8
TEAM-MAS
  2
*D2
 10
600.0
 20
-537.579891
 30
0.0
 11
0.0
 21
-537.579891
 31
0.0
 12
-4000.0
 22
-100000.0
 32
0.0
 13
-600.0
 23
-475.0
 33
0.0
 14
600.0
 24
-475.0
 34
0.0
1001
ACAD
1000
DSTYLE
1002
{
1070
    40
1040
1.0
1002
}
  0
POLYLINE
  5
3D
  8
TEAM-BODY
 66
     1
 10
0.0
 20
0.0
 30
0.0
  0
VERTEX
  5
107
  8
TEAM-BODY
 10
0.0
 20
-92.0
 30
0.0
  0
VERTEX
  5
108
  8
TEAM-BODY
 10
-435.0
 20
-92.0
 30
0.0
  0
VERTEX
  5
109
  8
TEAM-BODY
 10
-435.0
 20
-455.0
 30
0.0
  0
VERTEX
  5
10A
  8
TEAM-BODY
 10
0.0
 20
-455.0
 30
0.0
  0
SEQEND
  5
10B
  8
TEAM-BODY
  0
POLYLINE
  5
3F
  8
TEAM-BODY
 66
     1
 10
0.0
 20
0.0
 30
0.0
  0
VERTEX
  5
10C
  8
TEAM-BODY
 10
0.0
 20
-475.0
 30
0.0
  0
VERTEX
  5
10D
  8
TEAM-BODY
 10
-600.0
 20
-475.0
 30
0.0
  0
VERTEX
  5
10E
  8
TEAM-BODY
 10
-600.0
 20
0.0
 30
0.0
  0
VERTEX
  5
10F
  8
TEAM-BODY
 10
0.0
 20
0.0
 30
0.0
  0
SEQEND
  5
110
  8
TEAM-BODY
  0
ARC
  5
40
  8
TEAM-BODY
 10
-954.109164
 20
-263.847739
 30
0.0
 40
553.18488
 50
339.784712
 51
359.052017
  0
LINE
  5
41
  8
TEAM-BODY
 10
-401.0
 20
-169.0
 30
0.0
 11
-435.0
 21
-92.0
 31
0.0
  0
DIMENSION
  5
42
  8
TEAM-MAS
  2
*D3
 10
-600.0
 20
54.773537
 30
0.0
 11
-517.5
 21
54.773537
 31
0.0
 12
-4000.0
 22
-100000.0
 32
0.0
 13
-435.0
 23
-17.0
 33
0.0
 14
-600.0
 24
0.0
 34
0.0
1001
ACAD
1000
DSTYLE
1002
{
1070
    40
1040
1.0
1002
}
  0
LINE
  5
50
  8
TEAM-BODY
 10
-417.0
 20
-132.764706
 30
0.0
 11
-417.0
 21
-396.238286
 31
0.0
  0
DIMENSION
  5
51
  8
TEAM-MAS
  2
*D5
 10
435.0
 20
54.773537
 30
0.0
 11
517.5
 21
54.773537
 31
0.0
 12
-4000.0
 22
-100000.0
 32
0.0
 13
600.0
 23
0.0
 33
0.0
 14
435.0
 24
-17.0
 34
0.0
1001
ACAD
1000
DSTYLE
1002
{
1070
    40
1040
1.0
1002
}
  0
DIMENSION
  5
5F
  8
TEAM-MAS
  2
*D0
 10
725.584976
 20
0.0
 30
0.0
 11
725.584976
 21
-237.5
 31
0.0
 12
-4000.0
 22
-100000.0
 32
0.0
 13
600.0
 23
-475.0
 33
0.0
 14
0.0
 24
0.0
 34
0.0
 50
90.0
1001
ACAD
1000
DSTYLE
1002
{
1070
    40
1040
1.0
1002
}
  0
DIMENSION
  5
6D
  8
TEAM-MAS
  2
*D1
 10
666.53641
 20
-220.0
 30
0.0
 11
666.53641
 21
-110.0
 31
0.0
 12
-4000.0
 22
-100000.0
 32
0.0
 13
600.0
 23
0.0
 33
0.0
 14
40.0
 24
-220.0
 34
0.0
 50
90.0
1001
ACAD
1000
DSTYLE
1002
{
1070
    40
1040
1.0
1002
}
  0
POLYLINE
  5
7B
  8
TEAM-BODY
 66
     1
 10
0.0
 20
0.0
 30
0.0
  0
VERTEX
  5
111
  8
TEAM-BODY
 10
0.0
 20
-273.0
 30
0.0
  0
VERTEX
  5
112
  8
TEAM-BODY
 10
-401.0
 20
-273.0
 30
0.0
  0
VERTEX
  5
113
  8
TEAM-BODY
 10
-401.0
 20
-169.0
 30
0.0
  0
VERTEX
  5
114
  8
TEAM-BODY
 10
0.0
 20
-169.0
 30
0.0
  0
SEQEND
  5
115
  8
TEAM-BODY
  0
POLYLINE
  5
7C
  8
TEAM-BODY
 66
     1
 10
0.0
 20
0.0
 30
0.0
  0
VERTEX
  5
116
  8
TEAM-BODY
 10
0.0
 20
-475.0
 30
0.0
  0
VERTEX
  5
117
  8
TEAM-BODY
 10
600.0
 20
-475.0
 30
0.0
  0
VERTEX
  5
118
  8
TEAM-BODY
 10
600.0
 20
0.0
 30
0.0
  0
VERTEX
  5
119
  8
TEAM-BODY
 10
0.0
 20
0.0
 30
0.0
  0
SEQEND
  5
11A
  8
TEAM-BODY
  0
POLYLINE
  5
7D
  8
TEAM-BODY
 66
     1
 10
0.0
 20
0.0
 30
0.0
  0
VERTEX
  5
11B
  8
TEAM-BODY
 10
0.0
 20
-92.0
 30
0.0
  0
VERTEX
  5
11C
  8
TEAM-BODY
 10
435.0
 20
-92.0
 30
0.0
  0
VERTEX
  5
11D
  8
TEAM-BODY
 10
435.0
 20
-455.0
 30
0.0
  0
VERTEX
  5
11E
  8
TEAM-BODY
 10
0.0
 20
-455.0
 30
0.0
  0
SEQEND
  5
11F
  8
TEAM-BODY
  0
POLYLINE
  5
7E
  8
TEAM-BODY
 66
     1
 10
0.0
 20
0.0
 30
0.0
  0
VERTEX
  5
120
  8
TEAM-BODY
 10
0.0
 20
-273.0
 30
0.0
  0
VERTEX
  5
121
  8
TEAM-BODY
 10
401.0
 20
-273.0
 30
0.0
  0
VERTEX
  5
122
  8
TEAM-BODY
 10
401.0
 20
-169.0
 30
0.0
  0
VERTEX
  5
123
  8
TEAM-BODY
 10
0.0
 20
-169.0
 30
0.0
  0
SEQEND
  5
124
  8
TEAM-BODY
  0
LINE
  5
7F
  8
TEAM-BODY
 10
417.0
 20
-132.764706
 30
0.0
 11
417.0
 21
-396.238286
 31
0.0
  0
ARC
  5
80
  8
TEAM-BODY
 10
954.109164
 20
-263.847739
 30
0.0
 40
553.18488
 50
180.947983
 51
200.215288
  0
LINE
  5
81
  8
TEAM-BODY
 10
401.0
 20
-169.0
 30
0.0
 11
435.0
 21
-92.0
 31
0.0
  0
TEXT
  5
82
  8
TEAM-TXT
 10
-108.836879
 20
-373.287499
 30
0.0
 40
30.0
  1
team 233333
 41
0.8
 51
15.0
  7
TEAM
  0
CIRCLE
  5
85
  8
TEAM-DET1
 10
0.0
 20
-50.586677
 30
0.0
 40
18.0
  0
LINE
  5
87
  8
TEAM-AXE
 10
-20.0
 20
-50.586677
 30
0.0
 11
20.0
 21
-50.586677
 31
0.0
  0
LINE
  5
8A
  8
TEAM-AXE
 10
0.0
 20
-70.586677
 30
0.0
 11
0.0
 21
-30.586677
 31
0.0
  0
LINE
  5
8B
  8
TEAM-AXE
 10
-40.0
 20
-220.0
 30
0.0
 11
40.0
 21
-220.0
 31
0.0
  0
CIRCLE
  5
8C
  8
TEAM-BODY
 10
0.0
 20
-220.0
 30
0.0
 40
20.0
  0
CIRCLE
  5
8D
  8
TEAM-INSP
 10
0.0
 20
0.0
 30
0.0
 40
10.0
  0
CIRCLE
  5
8F
  8
TEAM-DET1
 10
0.0
 20
-220.0
 30
0.0
 40
30.0
  0
LINE
  5
90
  8
TEAM-AXE
 10
0.0
 20
-260.0
 30
0.0
 11
0.0
 21
-180.0
 31
0.0
  0
ENDSEC
  0
EOF
