  0
SECTION
  2
HEADER
  9
$ACADVER
  1
AC1009
  9
$INSBASE
 10
0.0
 20
0.0
 30
0.0
  9
$EXTMIN
 10
-20.039365
 20
-10.031091
 30
-10.000357
  9
$EXTMAX
 10
784.065754
 20
936.930368
 30
20.002291
  9
$LIMMIN
 10
-20.039365
 20
-10.031091
  9
$LIMMAX
 10
784.065754
 20
936.930368
  9
$ORTHOMODE
 70
     1
  9
$REGENMODE
 70
     1
  9
$FILLMODE
 70
     1
  9
$QTEXTMODE
 70
     0
  9
$MIRRTEXT
 70
     0
  9
$DRAGMODE
 70
     2
  9
$LTSCALE
 40
50.0
  9
$OSMODE
 70
     0
  9
$ATTMODE
 70
     1
  9
$TEXTSIZE
 40
200.0
  9
$TRACEWID
 40
1.0
  9
$TEXTSTYLE
  7
STANDARD
  9
$CLAYER
  8
TEAM-MAS
  9
$CELTYPE
  6
BYLAYER
  9
$CECOLOR
 62
   256
  9
$DIMSCALE
 40
1.0
  9
$DIMASZ
 40
20.0
  9
$DIMEXO
 40
10.0
  9
$DIMDLI
 40
1.0
  9
$DIMRND
 40
0.0
  9
$DIMDLE
 40
0.0
  9
$DIMEXE
 40
1.0
  9
$DIMTP
 40
0.0
  9
$DIMTM
 40
0.0
  9
$DIMTXT
 40
35.0
  9
$DIMCEN
 40
1.0
  9
$DIMTSZ
 40
0.0
  9
$DIMTOL
 70
     0
  9
$DIMLIM
 70
     0
  9
$DIMTIH
 70
     0
  9
$DIMTOH
 70
     0
  9
$DIMSE1
 70
     0
  9
$DIMSE2
 70
     0
  9
$DIMTAD
 70
     0
  9
$DIMZIN
 70
     0
  9
$DIMBLK
  1

  9
$DIMASO
 70
     1
  9
$DIMSHO
 70
     0
  9
$DIMPOST
  1

  9
$DIMAPOST
  1

  9
$DIMALT
 70
     0
  9
$DIMALTD
 70
     2
  9
$DIMALTF
 40
25.4
  9
$DIMLFAC
 40
1.0
  9
$DIMTOFL
 70
     0
  9
$DIMTVP
 40
0.0
  9
$DIMTIX
 70
     0
  9
$DIMSOXD
 70
     0
  9
$DIMSAH
 70
     0
  9
$DIMBLK1
  1

  9
$DIMBLK2
  1

  9
$DIMSTYLE
  2
TEAM
  9
$DIMCLRD
 70
     9
  9
$DIMCLRE
 70
     9
  9
$DIMCLRT
 70
    11
  9
$DIMTFAC
 40
1.0
  9
$DIMGAP
 40
15.0
  9
$LUNITS
 70
     2
  9
$LUPREC
 70
     1
  9
$SKETCHINC
 40
1.0
  9
$FILLETRAD
 40
10.0
  9
$AUNITS
 70
     0
  9
$AUPREC
 70
     0
  9
$MENU
  1
ROPLANS
  9
$ELEVATION
 40
0.0
  9
$PELEVATION
 40
0.0
  9
$THICKNESS
 40
0.0
  9
$LIMCHECK
 70
     0
  9
$BLIPMODE
 70
     1
  9
$CHAMFERA
 40
0.0
  9
$CHAMFERB
 40
0.0
  9
$SKPOLY
 70
     0
  9
$TDCREATE
 40
2450392.957851
  9
$TDUPDATE
 40
2455783.909856
  9
$TDINDWG
 40
3.085693
  9
$TDUSRTIMER
 40
3.085693
  9
$USRTIMER
 70
     1
  9
$ANGBASE
 50
0.0
  9
$ANGDIR
 70
     0
  9
$PDMODE
 70
     0
  9
$PDSIZE
 40
0.0
  9
$PLINEWID
 40
0.0
  9
$COORDS
 70
     2
  9
$SPLFRAME
 70
     0
  9
$SPLINETYPE
 70
     6
  9
$SPLINESEGS
 70
     8
  9
$ATTDIA
 70
     0
  9
$ATTREQ
 70
     0
  9
$HANDLING
 70
     1
  9
$HANDSEED
  5
F1
  9
$SURFTAB1
 70
    36
  9
$SURFTAB2
 70
    36
  9
$SURFTYPE
 70
     6
  9
$SURFU
 70
     6
  9
$SURFV
 70
     6
  9
$UCSNAME
  2

  9
$UCSORG
 10
0.0
 20
0.0
 30
0.0
  9
$UCSXDIR
 10
1.0
 20
0.0
 30
0.0
  9
$UCSYDIR
 10
0.0
 20
1.0
 30
0.0
  9
$PUCSNAME
  2

  9
$PUCSORG
 10
0.0
 20
0.0
 30
0.0
  9
$PUCSXDIR
 10
1.0
 20
0.0
 30
0.0
  9
$PUCSYDIR
 10
0.0
 20
1.0
 30
0.0
  9
$USERI1
 70
     0
  9
$USERI2
 70
     0
  9
$USERI3
 70
     0
  9
$USERI4
 70
     0
  9
$USERI5
 70
     0
  9
$USERR1
 40
0.0
  9
$USERR2
 40
0.0
  9
$USERR3
 40
0.0
  9
$USERR4
 40
0.0
  9
$USERR5
 40
0.0
  9
$WORLDVIEW
 70
     1
  9
$SHADEDGE
 70
     1
  9
$SHADEDIF
 70
    70
  9
$TILEMODE
 70
     1
  9
$MAXACTVP
 70
    16
  9
$PLIMCHECK
 70
     0
  9
$PEXTMIN
 10
-0.805942
 20
0.005011
 30
0.0
  9
$PEXTMAX
 10
20.250094
 20
11.356329
 30
0.0
  9
$PLIMMIN
 10
0.0
 20
0.0
  9
$PLIMMAX
 10
12.0
 20
9.0
  9
$UNITMODE
 70
     0
  9
$VISRETAIN
 70
     0
  9
$PLINEGEN
 70
     0
  9
$PSLTSCALE
 70
     0
  0
ENDSEC
  0
SECTION
  2
TABLES
  0
TABLE
  2
VPORT
 70
     2
  0
VPORT
  2
*ACTIVE
 70
     0
 10
0.0
 20
0.0
 11
1.0
 21
1.0
 12
382.013195
 22
463.449638
 13
0.0
 23
0.0
 14
1.0
 24
1.0
 15
50.0
 25
50.0
 16
0.0
 26
0.0
 36
1.0
 17
0.0
 27
0.0
 37
0.0
 40
952.776985
 41
1.865779
 42
50.0
 43
0.0
 44
0.0
 50
0.0
 51
0.0
 71
     0
 72
   100
 73
     1
 74
     1
 75
     0
 76
     0
 77
     0
 78
     0
  0
ENDTAB
  0
TABLE
  2
LTYPE
 70
     3
  0
LTYPE
  2
CONTINUOUS
 70
     0
  3
Solid Line
 72
    65
 73
     0
 40
0.0
  0
LTYPE
  2
31
 70
     0
  3

 72
    65
 73
     4
 40
2.1
 49
1.5
 49
-0.3
 49
0.0
 49
-0.3
  0
LTYPE
  2
22
 70
     0
  3

 72
    65
 73
     2
 40
1.4
 49
1.2
 49
-0.2
  0
ENDTAB
  0
TABLE
  2
LAYER
 70
    11
  0
LAYER
  2
0
 70
     0
 62
     7
  6
CONTINUOUS
  0
LAYER
  2
DEFPOINTS
 70
     0
 62
     7
  6
CONTINUOUS
  0
LAYER
  2
TEAM-BODY
 70
     0
 62
     2
  6
CONTINUOUS
  0
LAYER
  2
TEAM-AXE
 70
     0
 62
    10
  6
31
  0
LAYER
  2
TEAM-MAS
 70
     0
 62
     9
  6
CONTINUOUS
  0
LAYER
  2
TEAM-TXT
 70
     0
 62
    11
  6
CONTINUOUS
  0
LAYER
  2
TEAM-DET1
 70
     0
 62
     4
  6
CONTINUOUS
  0
LAYER
  2
TEAM-COLD
 70
     0
 62
     3
  6
CONTINUOUS
  0
LAYER
  2
TEAM-HIDE
 70
     0
 62
     8
  6
22
  0
LAYER
  2
TEAM-KAN
 70
     0
 62
     6
  6
CONTINUOUS
  0
LAYER
  2
TEAM-INSP
 70
     0
 62
     5
  6
CONTINUOUS
  0
ENDTAB
  0
TABLE
  2
STYLE
 70
     2
  0
STYLE
  2
STANDARD
 70
     0
 40
0.0
 41
1.0
 50
0.0
 71
     0
 42
200.0
  3
txt
  4

  0
STYLE
  2
TEAM
 70
     0
 40
0.0
 41
0.8
 50
15.0
 71
     0
 42
7.0
  3
ROMANS.shx
  4

  0
ENDTAB
  0
TABLE
  2
VIEW
 70
     0
  0
ENDTAB
  0
TABLE
  2
UCS
 70
     0
  0
ENDTAB
  0
TABLE
  2
APPID
 70
     1
  0
APPID
  2
ACAD
 70
     0
  0
ENDTAB
  0
TABLE
  2
DIMSTYLE
 70
     1
  0
DIMSTYLE
  2
TEAM
 70
     0
  3

  4

  5

  6

  7

 40
1.0
 41
20.0
 42
10.0
 43
1.0
 44
1.0
 45
0.0
 46
0.0
 47
0.0
 48
0.0
140
35.0
141
1.0
142
0.0
143
25.4
144
1.0
145
0.0
146
1.0
147
15.0
 71
     0
 72
     0
 73
     0
 74
     0
 75
     0
 76
     0
 77
     0
 78
     0
170
     0
171
     2
172
     0
173
     0
174
     0
175
     0
176
     9
177
     9
178
    11
  0
ENDTAB
  0
ENDSEC
  0
SECTION
  2
BLOCKS
  0
BLOCK
  8
0
  2
$MODEL_SPACE
 70
     0
 10
0.0
 20
0.0
 30
0.0
  3
$MODEL_SPACE
  1

  0
ENDBLK
  5
EA
  8
0
  0
BLOCK
 67
     1
  8
0
  2
$PAPER_SPACE
 70
     0
 10
0.0
 20
0.0
 30
0.0
  3
$PAPER_SPACE
  1

  0
ENDBLK
  5
E8
 67
     1
  8
0
  0
BLOCK
  8
0
  2
*D0
 70
     1
 10
0.0
 20
0.0
 30
0.0
  3
*D0
  1

  0
LINE
  5
22
  8
0
  6
BYBLOCK
 62
     9
 10
12010.0
 20
100590.0
 30
0.0
 11
12655.196345
 21
100590.0
 31
0.0
  0
LINE
  5
23
  8
0
  6
BYBLOCK
 62
     9
 10
12220.0
 20
100000.0
 30
0.0
 11
12655.196345
 21
100000.0
 31
0.0
  0
LINE
  5
24
  8
0
  6
BYBLOCK
 62
     9
 10
12654.196345
 20
100570.0
 30
0.0
 11
12654.196345
 21
100341.57493
 31
0.0
  0
LINE
  5
25
  8
0
  6
BYBLOCK
 62
     9
 10
12654.196345
 20
100020.0
 30
0.0
 11
12654.196345
 21
100248.42507
 31
0.0
  0
SOLID
  5
26
  8
0
  6
BYBLOCK
 62
     9
 10
12650.863012
 20
100570.0
 30
0.0
 11
12657.529678
 21
100570.0
 31
0.0
 12
12654.196345
 22
100590.0
 32
0.0
 13
12654.196345
 23
100590.0
 33
0.0
  0
SOLID
  5
27
  8
0
  6
BYBLOCK
 62
     9
 10
12650.863012
 20
100020.0
 30
0.0
 11
12657.529678
 21
100020.0
 31
0.0
 12
12654.196345
 22
100000.0
 32
0.0
 13
12654.196345
 23
100000.0
 33
0.0
  0
TEXT
  5
28
  8
0
  6
BYBLOCK
 62
    11
 10
12671.696345
 20
100258.17507
 30
0.0
 40
35.0
  1
590
 50
90.0
  0
POINT
  5
29
  8
DEFPOINTS
  6
BYBLOCK
 62
     0
 10
12000.0
 20
100590.0
 30
0.0
  0
POINT
  5
2B
  8
DEFPOINTS
  6
BYBLOCK
 62
     0
 10
12210.0
 20
100000.0
 30
10.0
  0
POINT
  5
2C
  8
DEFPOINTS
  6
BYBLOCK
 62
     0
 10
12654.196345
 20
100000.0
 30
20.0
  0
ENDBLK
  5
2E
  8
0
  0
BLOCK
  8
0
  2
*D1
 70
     1
 10
0.0
 20
0.0
 30
0.0
  3
*D1
  1

  0
LINE
  5
31
  8
0
  6
BYBLOCK
 62
     9
 10
12574.527647
 20
100850.0
 30
0.0
 11
12714.332141
 21
100850.0
 31
0.0
  0
LINE
  5
32
  8
0
  6
BYBLOCK
 62
     9
 10
12230.0
 20
100500.0
 30
0.0
 11
12714.332141
 21
100500.0
 31
0.0
  0
LINE
  5
33
  8
0
  6
BYBLOCK
 62
     9
 10
12713.332141
 20
100830.0
 30
0.0
 11
12713.332141
 21
100721.51378
 31
0.0
  0
LINE
  5
34
  8
0
  6
BYBLOCK
 62
     9
 10
12713.332141
 20
100520.0
 30
0.0
 11
12713.332141
 21
100628.48622
 31
0.0
  0
SOLID
  5
35
  8
0
  6
BYBLOCK
 62
     9
 10
12709.998807
 20
100830.0
 30
0.0
 11
12716.665474
 21
100830.0
 31
0.0
 12
12713.332141
 22
100850.0
 32
0.0
 13
12713.332141
 23
100850.0
 33
0.0
  0
SOLID
  5
36
  8
0
  6
BYBLOCK
 62
     9
 10
12709.998807
 20
100520.0
 30
0.0
 11
12716.665474
 21
100520.0
 31
0.0
 12
12713.332141
 22
100500.0
 32
0.0
 13
12713.332141
 23
100500.0
 33
0.0
  0
TEXT
  5
37
  8
0
  6
BYBLOCK
 62
    11
 10
12730.832141
 20
100638.23622
 30
0.0
 40
35.0
  1
350
 50
90.0
  0
POINT
  5
38
  8
DEFPOINTS
  6
BYBLOCK
 62
     0
 10
12564.527647
 20
100850.0
 30
20.0
  0
POINT
  5
39
  8
DEFPOINTS
  6
BYBLOCK
 62
     0
 10
12220.0
 20
100500.0
 30
10.0
  0
POINT
  5
3A
  8
DEFPOINTS
  6
BYBLOCK
 62
     0
 10
12713.332141
 20
100500.0
 30
20.0
  0
ENDBLK
  5
3C
  8
0
  0
BLOCK
  8
0
  2
*D2
 70
     1
 10
0.0
 20
0.0
 30
0.0
  3
*D2
  1

  0
LINE
  5
3F
  8
0
  6
BYBLOCK
 62
     9
 10
12230.0
 20
100500.0
 30
0.0
 11
12714.332141
 21
100500.0
 31
0.0
  0
LINE
  5
40
  8
0
  6
BYBLOCK
 62
     9
 10
12160.0
 20
100000.0
 30
0.0
 11
12714.332141
 21
100000.0
 31
0.0
  0
LINE
  5
41
  8
0
  6
BYBLOCK
 62
     9
 10
12713.332141
 20
100480.0
 30
0.0
 11
12713.332141
 21
100296.51378
 31
0.0
  0
LINE
  5
42
  8
0
  6
BYBLOCK
 62
     9
 10
12713.332141
 20
100020.0
 30
0.0
 11
12713.332141
 21
100203.48622
 31
0.0
  0
SOLID
  5
43
  8
0
  6
BYBLOCK
 62
     9
 10
12709.998807
 20
100480.0
 30
0.0
 11
12716.665474
 21
100480.0
 31
0.0
 12
12713.332141
 22
100500.0
 32
0.0
 13
12713.332141
 23
100500.0
 33
0.0
  0
SOLID
  5
44
  8
0
  6
BYBLOCK
 62
     9
 10
12709.998807
 20
100020.0
 30
0.0
 11
12716.665474
 21
100020.0
 31
0.0
 12
12713.332141
 22
100000.0
 32
0.0
 13
12713.332141
 23
100000.0
 33
0.0
  0
TEXT
  5
45
  8
0
  6
BYBLOCK
 62
    11
 10
12730.832141
 20
100213.23622
 30
0.0
 40
35.0
  1
500
 50
90.0
  0
POINT
  5
46
  8
DEFPOINTS
  6
BYBLOCK
 62
     0
 10
12220.0
 20
100500.0
 30
10.0
  0
POINT
  5
47
  8
DEFPOINTS
  6
BYBLOCK
 62
     0
 10
12150.0
 20
100000.0
 30
20.0
  0
POINT
  5
48
  8
DEFPOINTS
  6
BYBLOCK
 62
     0
 10
12713.332141
 20
100000.0
 30
10.0
  0
ENDBLK
  5
4A
  8
0
  0
BLOCK
  8
0
  2
*D3
 70
     1
 10
0.0
 20
0.0
 30
0.0
  3
*D3
  1

  0
LINE
  5
4D
  8
0
  6
BYBLOCK
 62
     9
 10
12010.0
 20
100590.0
 30
0.0
 11
12655.196345
 21
100590.0
 31
0.0
  0
LINE
  5
4E
  8
0
  6
BYBLOCK
 62
     9
 10
12480.0
 20
100850.0
 30
0.0
 11
12655.196345
 21
100850.0
 31
0.0
  0
LINE
  5
4F
  8
0
  6
BYBLOCK
 62
     9
 10
12654.196345
 20
100610.0
 30
0.0
 11
12654.196345
 21
100673.041831
 31
0.0
  0
LINE
  5
50
  8
0
  6
BYBLOCK
 62
     9
 10
12654.196345
 20
100830.0
 30
0.0
 11
12654.196345
 21
100766.958169
 31
0.0
  0
SOLID
  5
51
  8
0
  6
BYBLOCK
 62
     9
 10
12650.863012
 20
100610.0
 30
0.0
 11
12657.529678
 21
100610.0
 31
0.0
 12
12654.196345
 22
100590.0
 32
0.0
 13
12654.196345
 23
100590.0
 33
0.0
  0
SOLID
  5
52
  8
0
  6
BYBLOCK
 62
     9
 10
12650.863012
 20
100830.0
 30
0.0
 11
12657.529678
 21
100830.0
 31
0.0
 12
12654.196345
 22
100850.0
 32
0.0
 13
12654.196345
 23
100850.0
 33
0.0
  0
TEXT
  5
53
  8
0
  6
BYBLOCK
 62
    11
 10
12671.696345
 20
100683.68061
 30
0.0
 40
35.0
  1
260
 50
90.0
  0
POINT
  5
54
  8
DEFPOINTS
  6
BYBLOCK
 62
     0
 10
12000.0
 20
100590.0
 30
0.0
  0
POINT
  5
55
  8
DEFPOINTS
  6
BYBLOCK
 62
     0
 10
12470.0
 20
100850.0
 30
0.0
  0
POINT
  5
56
  8
DEFPOINTS
  6
BYBLOCK
 62
     0
 10
12654.196345
 20
100850.0
 30
0.0
  0
ENDBLK
  5
58
  8
0
  0
BLOCK
  8
0
  2
*D4
 70
     1
 10
0.0
 20
0.0
 30
0.0
  3
*D4
  1

  0
LINE
  5
5B
  8
0
  6
BYBLOCK
 62
     9
 10
12275.0
 20
100850.0
 30
0.0
 11
12596.738133
 21
100850.0
 31
0.0
  0
LINE
  5
5C
  8
0
  6
BYBLOCK
 62
     9
 10
12260.0
 20
100770.000104
 30
0.0
 11
12596.738133
 21
100770.000104
 31
0.0
  0
LINE
  5
5D
  8
0
  6
BYBLOCK
 62
     9
 10
12595.738133
 20
100830.0
 30
0.0
 11
12595.738133
 21
100790.000104
 31
0.0
  0
TEXT
  5
5E
  8
0
  6
BYBLOCK
 62
    11
 10
12613.238133
 20
100704.678958
 30
0.0
 40
35.0
  1
80
 50
90.0
  0
SOLID
  5
5F
  8
0
  6
BYBLOCK
 62
     9
 10
12592.4048
 20
100830.0
 30
0.0
 11
12599.071467
 21
100830.0
 31
0.0
 12
12595.738133
 22
100850.0
 32
0.0
 13
12595.738133
 23
100850.0
 33
0.0
  0
SOLID
  5
60
  8
0
  6
BYBLOCK
 62
     9
 10
12592.4048
 20
100790.000104
 30
0.0
 11
12599.071467
 21
100790.000104
 31
0.0
 12
12595.738133
 22
100770.000104
 32
0.0
 13
12595.738133
 23
100770.000104
 33
0.0
  0
POINT
  5
61
  8
DEFPOINTS
  6
BYBLOCK
 62
     0
 10
12265.0
 20
100850.0
 30
10.0
  0
POINT
  5
62
  8
DEFPOINTS
  6
BYBLOCK
 62
     0
 10
12250.0
 20
100770.000104
 30
0.0
  0
POINT
  5
63
  8
DEFPOINTS
  6
BYBLOCK
 62
     0
 10
12595.738133
 20
100770.000104
 30
10.0
  0
ENDBLK
  5
65
  8
0
  0
BLOCK
  8
0
  2
*D5
 70
     1
 10
0.0
 20
0.0
 30
0.0
  3
*D5
  1

  0
LINE
  5
68
  8
0
  6
BYBLOCK
 62
     9
 10
12598.738133
 20
100850.0
 30
0.0
 11
12767.807376
 21
100850.0
 31
0.0
  0
LINE
  5
69
  8
0
  6
BYBLOCK
 62
     9
 10
12010.0
 20
100000.0
 30
0.0
 11
12767.807376
 21
100000.0
 31
0.0
  0
LINE
  5
6A
  8
0
  6
BYBLOCK
 62
     9
 10
12766.807376
 20
100830.0
 30
0.0
 11
12766.807376
 21
100471.51378
 31
0.0
  0
LINE
  5
6B
  8
0
  6
BYBLOCK
 62
     9
 10
12766.807376
 20
100020.0
 30
0.0
 11
12766.807376
 21
100378.48622
 31
0.0
  0
SOLID
  5
6C
  8
0
  6
BYBLOCK
 62
     9
 10
12763.474043
 20
100830.0
 30
0.0
 11
12770.14071
 21
100830.0
 31
0.0
 12
12766.807376
 22
100850.0
 32
0.0
 13
12766.807376
 23
100850.0
 33
0.0
  0
SOLID
  5
6D
  8
0
  6
BYBLOCK
 62
     9
 10
12763.474043
 20
100020.0
 30
0.0
 11
12770.14071
 21
100020.0
 31
0.0
 12
12766.807376
 22
100000.0
 32
0.0
 13
12766.807376
 23
100000.0
 33
0.0
  0
TEXT
  5
6E
  8
0
  6
BYBLOCK
 62
    11
 10
12784.307376
 20
100388.23622
 30
0.0
 40
35.0
  1
850
 50
90.0
  0
POINT
  5
6F
  8
DEFPOINTS
  6
BYBLOCK
 62
     0
 10
12588.738133
 20
100850.0
 30
10.0
  0
POINT
  5
70
  8
DEFPOINTS
  6
BYBLOCK
 62
     0
 10
12000.0
 20
100000.0
 30
0.0
  0
POINT
  5
71
  8
DEFPOINTS
  6
BYBLOCK
 62
     0
 10
12766.807376
 20
100000.0
 30
10.0
  0
ENDBLK
  5
73
  8
0
  0
BLOCK
  8
0
  2
*D6
 70
     1
 10
0.0
 20
0.0
 30
0.0
  3
*D6
  1

  0
LINE
  5
85
  8
0
  6
BYBLOCK
 62
     9
 10
12475.0
 20
100854.0
 30
0.0
 11
12475.0
 21
100921.370125
 31
0.0
  0
LINE
  5
86
  8
0
  6
BYBLOCK
 62
     9
 10
12000.0
 20
100860.0
 30
0.0
 11
12000.0
 21
100921.370125
 31
0.0
  0
LINE
  5
87
  8
0
  6
BYBLOCK
 62
     9
 10
12455.0
 20
100920.370125
 30
0.0
 11
12286.474874
 21
100920.370125
 31
0.0
  0
LINE
  5
88
  8
0
  6
BYBLOCK
 62
     9
 10
12020.0
 20
100920.370125
 30
0.0
 11
12188.525126
 21
100920.370125
 31
0.0
  0
SOLID
  5
89
  8
0
  6
BYBLOCK
 62
     9
 10
12455.0
 20
100923.703458
 30
0.0
 11
12455.0
 21
100917.036792
 31
0.0
 12
12475.0
 22
100920.370125
 32
0.0
 13
12475.0
 23
100920.370125
 33
0.0
  0
SOLID
  5
8A
  8
0
  6
BYBLOCK
 62
     9
 10
12020.0
 20
100923.703458
 30
0.0
 11
12020.0
 21
100917.036792
 31
0.0
 12
12000.0
 22
100920.370125
 32
0.0
 13
12000.0
 23
100920.370125
 33
0.0
  0
TEXT
  5
8B
  8
0
  6
BYBLOCK
 62
    11
 10
12198.275126
 20
100902.870125
 30
0.0
 40
35.0
  1
475
  0
POINT
  5
8C
  8
DEFPOINTS
  6
BYBLOCK
 62
     0
 10
12475.0
 20
100844.0
 30
0.0
  0
POINT
  5
8D
  8
DEFPOINTS
  6
BYBLOCK
 62
     0
 10
12000.0
 20
100850.0
 30
0.0
  0
POINT
  5
8E
  8
DEFPOINTS
  6
BYBLOCK
 62
     0
 10
12000.0
 20
100920.370125
 30
0.0
  0
ENDBLK
  5
90
  8
0
  0
BLOCK
  8
0
  2
*D7
 70
     1
 10
0.0
 20
0.0
 30
0.0
  3
*D7
  1

  0
LINE
  5
76
  8
0
  6
BYBLOCK
 62
     9
 10
12485.0
 20
100850.0
 30
0.0
 11
12536.437321
 21
100850.0
 31
0.0
  0
LINE
  5
77
  8
0
  6
BYBLOCK
 62
     9
 10
12485.0
 20
100840.0
 30
0.0
 11
12536.437321
 21
100840.0
 31
0.0
  0
LINE
  5
78
  8
0
  6
BYBLOCK
 62
     9
 10
12535.437321
 20
100870.0
 30
0.0
 11
12535.437321
 21
100890.0
 31
0.0
  0
LINE
  5
79
  8
0
  6
BYBLOCK
 62
     9
 10
12535.437321
 20
100820.0
 30
0.0
 11
12535.437321
 21
100800.0
 31
0.0
  0
TEXT
  5
7A
  8
0
  6
BYBLOCK
 62
    11
 10
12553.445616
 20
100900.081937
 30
0.0
 40
35.0
  1
10
 50
90.0
  0
LINE
  5
7B
  8
0
  6
BYBLOCK
 62
     9
 10
12535.437321
 20
100850.0
 30
0.0
 11
12535.437321
 21
100840.0
 31
0.0
  0
SOLID
  5
7C
  8
0
  6
BYBLOCK
 62
     9
 10
12532.103988
 20
100870.0
 30
0.0
 11
12538.770655
 21
100870.0
 31
0.0
 12
12535.437321
 22
100850.0
 32
0.0
 13
12535.437321
 23
100850.0
 33
0.0
  0
SOLID
  5
7D
  8
0
  6
BYBLOCK
 62
     9
 10
12532.103988
 20
100820.0
 30
0.0
 11
12538.770655
 21
100820.0
 31
0.0
 12
12535.437321
 22
100840.0
 32
0.0
 13
12535.437321
 23
100840.0
 33
0.0
  0
POINT
  5
7E
  8
DEFPOINTS
  6
BYBLOCK
 62
     0
 10
12475.0
 20
100850.0
 30
0.0
  0
POINT
  5
7F
  8
DEFPOINTS
  6
BYBLOCK
 62
     0
 10
12475.0
 20
100840.0
 30
0.0
  0
POINT
  5
80
  8
DEFPOINTS
  6
BYBLOCK
 62
     0
 10
12535.437321
 20
100840.0
 30
0.0
  0
ENDBLK
  5
82
  8
0
  0
ENDSEC
  0
SECTION
  2
ENTITIES
  0
DIMENSION
  5
20
  8
TEAM-MAS
  2
*D0
 10
654.196345
 20
0.0
 30
20.0
 11
654.196345
 21
295.0
 31
0.0
 12
-12000.0
 22
-100000.0
 32
0.0
 13
0.0
 23
590.0
 33
0.0
 14
210.0
 24
0.0
 34
10.0
 50
90.0
1001
ACAD
1000
DSTYLE
1002
{
1070
    40
1040
1.0
1002
}
  0
DIMENSION
  5
2F
  8
TEAM-MAS
  2
*D1
 10
713.332141
 20
500.0
 30
10.0
 11
713.332141
 21
675.0
 31
-10.0
 12
-12000.0
 22
-100000.0
 32
-10.0
 13
564.527647
 23
850.0
 33
10.0
 14
220.0
 24
500.0
 34
0.0
 50
90.0
1001
ACAD
1000
DSTYLE
1002
{
1070
    40
1040
1.0
1002
}
  0
DIMENSION
  5
3D
  8
TEAM-MAS
  2
*D2
 10
713.332141
 20
0.0
 30
0.0
 11
713.332141
 21
250.0
 31
-10.0
 12
-12000.0
 22
-100000.0
 32
-10.0
 13
220.0
 23
500.0
 33
0.0
 14
150.0
 24
0.0
 34
10.0
 50
90.0
1001
ACAD
1000
DSTYLE
1002
{
1070
    40
1040
1.0
1002
}
  0
DIMENSION
  5
4B
  8
TEAM-MAS
  2
*D3
 10
654.196345
 20
850.0
 30
0.0
 11
654.196345
 21
720.0
 31
0.0
 12
-12000.0
 22
-100000.0
 32
0.0
 13
0.0
 23
590.0
 33
0.0
 14
470.0
 24
850.0
 34
0.0
 50
90.0
1001
ACAD
1000
DSTYLE
1002
{
1070
    40
1040
1.0
1002
}
  0
DIMENSION
  5
59
  8
TEAM-MAS
  2
*D4
 10
595.738133
 20
770.000104
 30
10.0
 11
595.738133
 21
729.192738
 31
0.0
 12
-12000.0
 22
-100000.0
 32
0.0
 70
   128
 13
265.0
 23
850.0
 33
10.0
 14
250.0
 24
770.000104
 34
0.0
 50
90.0
1001
ACAD
1000
DSTYLE
1002
{
1070
    40
1040
1.0
1002
}
  0
DIMENSION
  5
66
  8
TEAM-MAS
  2
*D5
 10
766.807376
 20
0.0
 30
10.0
 11
766.807376
 21
425.0
 31
0.0
 12
-12000.0
 22
-100000.0
 32
0.0
 13
588.738133
 23
850.0
 33
10.0
 14
0.0
 24
0.0
 34
0.0
 50
90.0
1001
ACAD
1000
DSTYLE
1002
{
1070
    40
1040
1.0
1002
}
  0
DIMENSION
  5
74
  8
TEAM-MAS
  2
*D7
 10
535.437321
 20
840.0
 30
0.0
 11
535.945616
 21
921.095716
 31
0.0
 12
-12000.0
 22
-100000.0
 32
0.0
 70
   128
 13
475.0
 23
850.0
 33
0.0
 14
475.0
 24
840.0
 34
0.0
 50
90.0
1001
ACAD
1000
DSTYLE
1002
{
1070
    40
1040
1.0
1002
}
  0
DIMENSION
  5
83
  8
TEAM-MAS
  2
*D6
 10
0.0
 20
920.370125
 30
0.0
 11
237.5
 21
920.370125
 31
0.0
 12
-12000.0
 22
-100000.0
 32
0.0
 13
475.0
 23
844.0
 33
0.0
 14
0.0
 24
850.0
 34
0.0
1001
ACAD
1000
DSTYLE
1002
{
1070
    40
1040
1.0
1002
}
  0
LINE
  5
91
  8
TEAM-DET1
 10
190.0
 20
765.000104
 30
0.0
 11
250.0
 21
765.000104
 31
0.0
  0
LINE
  5
93
  8
TEAM-DET1
 10
190.0
 20
765.000104
 30
0.0
 11
190.0
 21
770.000104
 31
0.0
  0
LINE
  5
94
  8
TEAM-DET1
 10
250.0
 20
765.000104
 30
0.0
 11
250.0
 21
770.000104
 31
0.0
  0
LINE
  5
95
  8
TEAM-DET1
 10
190.0
 20
770.000104
 30
0.0
 11
92.0
 21
850.0
 31
0.0
  0
LINE
  5
96
  8
TEAM-DET1
 10
250.0
 20
770.000104
 30
0.0
 11
455.0
 21
850.0
 31
0.0
  0
LINE
  5
97
  8
TEAM-HIDE
 10
220.0
 20
765.000104
 30
0.0
 11
220.0
 21
406.378378
 31
0.0
  0
TEXT
  5
9A
  8
TEAM-TXT
 10
124.134455
 20
701.454104
 30
0.0
 40
30.0
  1
team 233333
 41
0.8
 51
15.0
  7
TEAM
  0
LINE
  5
9D
  8
TEAM-HIDE
 10
220.0
 20
500.0
 30
0.0
 11
0.0
 21
500.0
 31
0.0
  0
CIRCLE
  5
9E
  8
TEAM-COLD
 10
0.0
 20
590.0
 30
0.0
 40
10.0
  0
LINE
  5
A0
  8
TEAM-AXE
 10
0.0
 20
580.0
 30
0.0
 11
0.0
 21
600.0
 31
0.0
  0
LINE
  5
A3
  8
TEAM-AXE
 10
9.949874
 20
590.0
 30
0.0
 11
-9.949874
 21
590.0
 31
0.0
  0
LINE
  5
A4
  8
TEAM-BODY
 10
475.0
 20
840.0
 30
0.0
 11
0.0
 21
840.0
 31
0.0
  0
LINE
  5
A6
  8
TEAM-BODY
 10
475.0
 20
840.0
 30
0.0
 11
475.0
 21
850.0
 31
0.0
  0
LINE
  5
A7
  8
TEAM-BODY
 10
0.0
 20
850.0
 30
0.0
 11
0.0
 21
840.0
 31
0.0
  0
LINE
  5
A8
  8
TEAM-BODY
 10
475.0
 20
850.0
 30
0.0
 11
0.0
 21
850.0
 31
0.0
  0
LINE
  5
A9
  8
TEAM-AXE
 10
0.0
 20
0.0
 30
0.0
 11
0.0
 21
868.0
 31
0.0
  0
CIRCLE
  5
AA
  8
TEAM-KAN
 10
0.0
 20
500.0
 30
0.0
 40
20.0
  0
LINE
  5
AC
  8
TEAM-AXE
 10
20.0
 20
500.0
 30
0.0
 11
-20.0
 21
500.0
 31
0.0
  0
LINE
  5
AD
  8
TEAM-AXE
 10
0.0
 20
480.0
 30
0.0
 11
0.0
 21
520.0
 31
0.0
  0
CIRCLE
  5
AE
  8
TEAM-INSP
 10
0.0
 20
0.0
 30
0.0
 40
10.0
  0
ENDSEC
  0
EOF
