  0
SECTION
  2
HEADER
  9
$ACADVER
  1
AC1009
  9
$INSBASE
 10
0.0
 20
0.0
 30
0.0
  9
$EXTMIN
 10
-425.050846
 20
-10.056482
 30
-20.000243
  9
$EXTMAX
 10
734.39443
 20
937.917851
 30
20.001384
  9
$LIMMIN
 10
-425.050846
 20
-10.056482
  9
$LIMMAX
 10
734.39443
 20
937.917851
  9
$ORTHOMODE
 70
     1
  9
$REGENMODE
 70
     1
  9
$FILLMODE
 70
     1
  9
$QTEXTMODE
 70
     0
  9
$MIRRTEXT
 70
     0
  9
$DRAGMODE
 70
     2
  9
$LTSCALE
 40
50.0
  9
$OSMODE
 70
     7
  9
$ATTMODE
 70
     1
  9
$TEXTSIZE
 40
200.0
  9
$TRACEWID
 40
1.0
  9
$TEXTSTYLE
  7
STANDARD
  9
$CLAYER
  8
TEAM-MAS
  9
$CELTYPE
  6
BYLAYER
  9
$CECOLOR
 62
   256
  9
$DIMSCALE
 40
1.0
  9
$DIMASZ
 40
20.0
  9
$DIMEXO
 40
10.0
  9
$DIMDLI
 40
1.0
  9
$DIMRND
 40
0.0
  9
$DIMDLE
 40
0.0
  9
$DIMEXE
 40
1.0
  9
$DIMTP
 40
0.0
  9
$DIMTM
 40
0.0
  9
$DIMTXT
 40
35.0
  9
$DIMCEN
 40
1.0
  9
$DIMTSZ
 40
0.0
  9
$DIMTOL
 70
     0
  9
$DIMLIM
 70
     0
  9
$DIMTIH
 70
     0
  9
$DIMTOH
 70
     0
  9
$DIMSE1
 70
     0
  9
$DIMSE2
 70
     0
  9
$DIMTAD
 70
     0
  9
$DIMZIN
 70
     0
  9
$DIMBLK
  1

  9
$DIMASO
 70
     1
  9
$DIMSHO
 70
     0
  9
$DIMPOST
  1

  9
$DIMAPOST
  1

  9
$DIMALT
 70
     0
  9
$DIMALTD
 70
     2
  9
$DIMALTF
 40
25.4
  9
$DIMLFAC
 40
1.0
  9
$DIMTOFL
 70
     0
  9
$DIMTVP
 40
0.0
  9
$DIMTIX
 70
     0
  9
$DIMSOXD
 70
     0
  9
$DIMSAH
 70
     0
  9
$DIMBLK1
  1

  9
$DIMBLK2
  1

  9
$DIMSTYLE
  2
TEAM
  9
$DIMCLRD
 70
     9
  9
$DIMCLRE
 70
     9
  9
$DIMCLRT
 70
    11
  9
$DIMTFAC
 40
1.0
  9
$DIMGAP
 40
15.0
  9
$LUNITS
 70
     2
  9
$LUPREC
 70
     1
  9
$SKETCHINC
 40
1.0
  9
$FILLETRAD
 40
50.0
  9
$AUNITS
 70
     0
  9
$AUPREC
 70
     0
  9
$MENU
  1
ROPLANS
  9
$ELEVATION
 40
0.0
  9
$PELEVATION
 40
0.0
  9
$THICKNESS
 40
0.0
  9
$LIMCHECK
 70
     0
  9
$BLIPMODE
 70
     1
  9
$CHAMFERA
 40
0.0
  9
$CHAMFERB
 40
0.0
  9
$SKPOLY
 70
     0
  9
$TDCREATE
 40
2450392.957851
  9
$TDUPDATE
 40
2455847.007391
  9
$TDINDWG
 40
2.487
  9
$TDUSRTIMER
 40
2.487
  9
$USRTIMER
 70
     1
  9
$ANGBASE
 50
0.0
  9
$ANGDIR
 70
     0
  9
$PDMODE
 70
     0
  9
$PDSIZE
 40
0.0
  9
$PLINEWID
 40
0.0
  9
$COORDS
 70
     2
  9
$SPLFRAME
 70
     0
  9
$SPLINETYPE
 70
     6
  9
$SPLINESEGS
 70
     8
  9
$ATTDIA
 70
     0
  9
$ATTREQ
 70
     0
  9
$HANDLING
 70
     1
  9
$HANDSEED
  5
153
  9
$SURFTAB1
 70
    36
  9
$SURFTAB2
 70
    36
  9
$SURFTYPE
 70
     6
  9
$SURFU
 70
     6
  9
$SURFV
 70
     6
  9
$UCSNAME
  2

  9
$UCSORG
 10
0.0
 20
0.0
 30
0.0
  9
$UCSXDIR
 10
1.0
 20
0.0
 30
0.0
  9
$UCSYDIR
 10
0.0
 20
1.0
 30
0.0
  9
$PUCSNAME
  2

  9
$PUCSORG
 10
0.0
 20
0.0
 30
0.0
  9
$PUCSXDIR
 10
1.0
 20
0.0
 30
0.0
  9
$PUCSYDIR
 10
0.0
 20
1.0
 30
0.0
  9
$USERI1
 70
     0
  9
$USERI2
 70
     0
  9
$USERI3
 70
     0
  9
$USERI4
 70
     0
  9
$USERI5
 70
     0
  9
$USERR1
 40
0.0
  9
$USERR2
 40
0.0
  9
$USERR3
 40
0.0
  9
$USERR4
 40
0.0
  9
$USERR5
 40
0.0
  9
$WORLDVIEW
 70
     1
  9
$SHADEDGE
 70
     0
  9
$SHADEDIF
 70
    70
  9
$TILEMODE
 70
     1
  9
$MAXACTVP
 70
    16
  9
$PLIMCHECK
 70
     0
  9
$PEXTMIN
 10
-0.805942
 20
0.005011
 30
0.0
  9
$PEXTMAX
 10
20.250094
 20
11.356329
 30
0.0
  9
$PLIMMIN
 10
0.0
 20
0.0
  9
$PLIMMAX
 10
12.0
 20
9.0
  9
$UNITMODE
 70
     0
  9
$VISRETAIN
 70
     0
  9
$PLINEGEN
 70
     0
  9
$PSLTSCALE
 70
     0
  0
ENDSEC
  0
SECTION
  2
TABLES
  0
TABLE
  2
VPORT
 70
     2
  0
VPORT
  2
*ACTIVE
 70
     0
 10
0.0
 20
0.0
 11
1.0
 21
1.0
 12
154.671792
 22
463.930685
 13
0.0
 23
0.0
 14
1.0
 24
1.0
 15
50.0
 25
50.0
 16
0.0
 26
0.0
 36
1.0
 17
0.0
 27
0.0
 37
0.0
 40
953.917746
 41
1.903766
 42
50.0
 43
0.0
 44
0.0
 50
0.0
 51
0.0
 71
     0
 72
   100
 73
     1
 74
     1
 75
     0
 76
     0
 77
     0
 78
     0
  0
ENDTAB
  0
TABLE
  2
LTYPE
 70
     3
  0
LTYPE
  2
CONTINUOUS
 70
     0
  3
Solid Line
 72
    65
 73
     0
 40
0.0
  0
LTYPE
  2
31
 70
     0
  3

 72
    65
 73
     4
 40
2.1
 49
1.5
 49
-0.3
 49
0.0
 49
-0.3
  0
LTYPE
  2
22
 70
     0
  3

 72
    65
 73
     2
 40
1.4
 49
1.2
 49
-0.2
  0
ENDTAB
  0
TABLE
  2
LAYER
 70
    11
  0
LAYER
  2
0
 70
     0
 62
     7
  6
CONTINUOUS
  0
LAYER
  2
DEFPOINTS
 70
     0
 62
     7
  6
CONTINUOUS
  0
LAYER
  2
TEAM-BODY
 70
     0
 62
     2
  6
CONTINUOUS
  0
LAYER
  2
TEAM-AXE
 70
     0
 62
    10
  6
31
  0
LAYER
  2
TEAM-MAS
 70
     0
 62
     9
  6
CONTINUOUS
  0
LAYER
  2
TEAM-TXT
 70
     0
 62
    11
  6
CONTINUOUS
  0
LAYER
  2
TEAM-COLD
 70
     0
 62
     3
  6
CONTINUOUS
  0
LAYER
  2
TEAM-HIDE
 70
     0
 62
     8
  6
22
  0
LAYER
  2
TEAM-KAN
 70
     0
 62
     6
  6
CONTINUOUS
  0
LAYER
  2
TEAM-WARM
 70
     0
 62
     1
  6
CONTINUOUS
  0
LAYER
  2
TEAM-INSP
 70
     0
 62
     5
  6
CONTINUOUS
  0
ENDTAB
  0
TABLE
  2
STYLE
 70
     2
  0
STYLE
  2
STANDARD
 70
     0
 40
0.0
 41
1.0
 50
0.0
 71
     0
 42
200.0
  3
txt
  4

  0
STYLE
  2
TEAM
 70
     0
 40
0.0
 41
0.8
 50
15.0
 71
     0
 42
7.0
  3
ROMANS.shx
  4

  0
ENDTAB
  0
TABLE
  2
VIEW
 70
     0
  0
ENDTAB
  0
TABLE
  2
UCS
 70
     0
  0
ENDTAB
  0
TABLE
  2
APPID
 70
     1
  0
APPID
  2
ACAD
 70
     0
  0
ENDTAB
  0
TABLE
  2
DIMSTYLE
 70
     1
  0
DIMSTYLE
  2
TEAM
 70
     0
  3

  4

  5

  6

  7

 40
1.0
 41
20.0
 42
10.0
 43
1.0
 44
1.0
 45
0.0
 46
0.0
 47
0.0
 48
0.0
140
35.0
141
1.0
142
0.0
143
25.4
144
1.0
145
0.0
146
1.0
147
15.0
 71
     0
 72
     0
 73
     0
 74
     0
 75
     0
 76
     0
 77
     0
 78
     0
170
     0
171
     2
172
     0
173
     0
174
     0
175
     0
176
     9
177
     9
178
    11
  0
ENDTAB
  0
ENDSEC
  0
SECTION
  2
BLOCKS
  0
BLOCK
  8
0
  2
$MODEL_SPACE
 70
     0
 10
0.0
 20
0.0
 30
0.0
  3
$MODEL_SPACE
  1

  0
ENDBLK
  5
138
  8
0
  0
BLOCK
 67
     1
  8
0
  2
$PAPER_SPACE
 70
     0
 10
0.0
 20
0.0
 30
0.0
  3
$PAPER_SPACE
  1

  0
ENDBLK
  5
136
 67
     1
  8
0
  0
BLOCK
  8
0
  2
*D0
 70
     1
 10
0.0
 20
0.0
 30
0.0
  3
*D0
  1

  0
LINE
  5
69
  8
0
  6
BYBLOCK
 62
     9
 10
12370.0
 20
200850.0
 30
0.0
 11
12546.738133
 21
200850.0
 31
0.0
  0
LINE
  5
6A
  8
0
  6
BYBLOCK
 62
     9
 10
12435.0
 20
200710.0
 30
0.0
 11
12546.738133
 21
200710.0
 31
0.0
  0
LINE
  5
6B
  8
0
  6
BYBLOCK
 62
     9
 10
12545.738133
 20
200830.0
 30
0.0
 11
12545.738133
 21
200815.0
 31
0.0
  0
LINE
  5
6C
  8
0
  6
BYBLOCK
 62
     9
 10
12545.738133
 20
200730.0
 30
0.0
 11
12545.738133
 21
200745.0
 31
0.0
  0
TEXT
  5
6D
  8
0
  6
BYBLOCK
 62
    11
 10
12563.238133
 20
200746.083385
 30
0.0
 40
35.0
  1
140
 50
90.0
  0
SOLID
  5
6E
  8
0
  6
BYBLOCK
 62
     9
 10
12542.4048
 20
200830.0
 30
0.0
 11
12549.071467
 21
200830.0
 31
0.0
 12
12545.738133
 22
200850.0
 32
0.0
 13
12545.738133
 23
200850.0
 33
0.0
  0
SOLID
  5
6F
  8
0
  6
BYBLOCK
 62
     9
 10
12542.4048
 20
200730.0
 30
0.0
 11
12549.071467
 21
200730.0
 31
0.0
 12
12545.738133
 22
200710.0
 32
0.0
 13
12545.738133
 23
200710.0
 33
0.0
  0
POINT
  5
70
  8
DEFPOINTS
  6
BYBLOCK
 62
     0
 10
12360.0
 20
200850.0
 30
10.0
  0
POINT
  5
71
  8
DEFPOINTS
  6
BYBLOCK
 62
     0
 10
12425.0
 20
200710.0
 30
0.0
  0
POINT
  5
72
  8
DEFPOINTS
  6
BYBLOCK
 62
     0
 10
12545.738133
 20
200710.0
 30
10.0
  0
ENDBLK
  5
74
  8
0
  0
BLOCK
  8
0
  2
*D1
 70
     1
 10
0.0
 20
0.0
 30
0.0
  3
*D1
  1

  0
LINE
  5
5B
  8
0
  6
BYBLOCK
 62
     9
 10
12548.738133
 20
200850.0
 30
0.0
 11
12717.807376
 21
200850.0
 31
0.0
  0
LINE
  5
5C
  8
0
  6
BYBLOCK
 62
     9
 10
12010.0
 20
200000.0
 30
0.0
 11
12717.807376
 21
200000.0
 31
0.0
  0
LINE
  5
5D
  8
0
  6
BYBLOCK
 62
     9
 10
12716.807376
 20
200830.0
 30
0.0
 11
12716.807376
 21
200483.75
 31
0.0
  0
LINE
  5
5E
  8
0
  6
BYBLOCK
 62
     9
 10
12716.807376
 20
200020.0
 30
0.0
 11
12716.807376
 21
200366.25
 31
0.0
  0
SOLID
  5
5F
  8
0
  6
BYBLOCK
 62
     9
 10
12713.474043
 20
200830.0
 30
0.0
 11
12720.14071
 21
200830.0
 31
0.0
 12
12716.807376
 22
200850.0
 32
0.0
 13
12716.807376
 23
200850.0
 33
0.0
  0
SOLID
  5
60
  8
0
  6
BYBLOCK
 62
     9
 10
12713.474043
 20
200020.0
 30
0.0
 11
12720.14071
 21
200020.0
 31
0.0
 12
12716.807376
 22
200000.0
 32
0.0
 13
12716.807376
 23
200000.0
 33
0.0
  0
TEXT
  5
61
  8
0
  6
BYBLOCK
 62
    11
 10
12734.307376
 20
200381.25
 30
0.0
 40
35.0
  1
850
 50
90.0
  0
POINT
  5
62
  8
DEFPOINTS
  6
BYBLOCK
 62
     0
 10
12538.738133
 20
200850.0
 30
10.0
  0
POINT
  5
63
  8
DEFPOINTS
  6
BYBLOCK
 62
     0
 10
12000.0
 20
200000.0
 30
0.0
  0
POINT
  5
64
  8
DEFPOINTS
  6
BYBLOCK
 62
     0
 10
12716.807376
 20
200000.0
 30
10.0
  0
ENDBLK
  5
66
  8
0
  0
BLOCK
  8
0
  2
*D2
 70
     1
 10
0.0
 20
0.0
 30
0.0
  3
*D2
  1

  0
LINE
  5
4D
  8
0
  6
BYBLOCK
 62
     9
 10
12524.527647
 20
200850.0
 30
0.0
 11
12664.332141
 21
200850.0
 31
0.0
  0
LINE
  5
4E
  8
0
  6
BYBLOCK
 62
     9
 10
12010.0
 20
200500.0
 30
0.0
 11
12664.332141
 21
200500.0
 31
0.0
  0
LINE
  5
4F
  8
0
  6
BYBLOCK
 62
     9
 10
12663.332141
 20
200830.0
 30
0.0
 11
12663.332141
 21
200733.75
 31
0.0
  0
LINE
  5
50
  8
0
  6
BYBLOCK
 62
     9
 10
12663.332141
 20
200520.0
 30
0.0
 11
12663.332141
 21
200616.25
 31
0.0
  0
SOLID
  5
51
  8
0
  6
BYBLOCK
 62
     9
 10
12659.998807
 20
200830.0
 30
0.0
 11
12666.665474
 21
200830.0
 31
0.0
 12
12663.332141
 22
200850.0
 32
0.0
 13
12663.332141
 23
200850.0
 33
0.0
  0
SOLID
  5
52
  8
0
  6
BYBLOCK
 62
     9
 10
12659.998807
 20
200520.0
 30
0.0
 11
12666.665474
 21
200520.0
 31
0.0
 12
12663.332141
 22
200500.0
 32
0.0
 13
12663.332141
 23
200500.0
 33
0.0
  0
TEXT
  5
53
  8
0
  6
BYBLOCK
 62
    11
 10
12680.832141
 20
200631.25
 30
0.0
 40
35.0
  1
350
 50
90.0
  0
POINT
  5
54
  8
DEFPOINTS
  6
BYBLOCK
 62
     0
 10
12514.527647
 20
200850.0
 30
20.0
  0
POINT
  5
55
  8
DEFPOINTS
  6
BYBLOCK
 62
     0
 10
12000.0
 20
200500.0
 30
10.0
  0
POINT
  5
56
  8
DEFPOINTS
  6
BYBLOCK
 62
     0
 10
12663.332141
 20
200500.0
 30
20.0
  0
ENDBLK
  5
58
  8
0
  0
BLOCK
  8
0
  2
*D3
 70
     1
 10
0.0
 20
0.0
 30
0.0
  3
*D3
  1

  0
LINE
  5
22
  8
0
  6
BYBLOCK
 62
     9
 10
11925.0
 20
200569.783522
 30
0.0
 11
11925.0
 21
200389.194223
 31
0.0
  0
LINE
  5
23
  8
0
  6
BYBLOCK
 62
     9
 10
12075.0
 20
200570.0
 30
0.0
 11
12075.0
 21
200389.194223
 31
0.0
  0
LINE
  5
24
  8
0
  6
BYBLOCK
 62
     9
 10
11945.0
 20
200390.194223
 30
0.0
 11
11960.0
 21
200390.194223
 31
0.0
  0
LINE
  5
25
  8
0
  6
BYBLOCK
 62
     9
 10
12055.0
 20
200390.194223
 30
0.0
 11
12040.0
 21
200390.194223
 31
0.0
  0
TEXT
  5
26
  8
0
  6
BYBLOCK
 62
    11
 10
11962.088028
 20
200400.58305
 30
0.0
 40
35.0
  1
150
  0
SOLID
  5
27
  8
0
  6
BYBLOCK
 62
     9
 10
11945.0
 20
200393.527556
 30
0.0
 11
11945.0
 21
200386.860889
 31
0.0
 12
11925.0
 22
200390.194223
 32
0.0
 13
11925.0
 23
200390.194223
 33
0.0
  0
SOLID
  5
28
  8
0
  6
BYBLOCK
 62
     9
 10
12055.0
 20
200393.527556
 30
0.0
 11
12055.0
 21
200386.860889
 31
0.0
 12
12075.0
 22
200390.194223
 32
0.0
 13
12075.0
 23
200390.194223
 33
0.0
  0
POINT
  5
29
  8
DEFPOINTS
  6
BYBLOCK
 62
     0
 10
11925.0
 20
200579.783522
 30
20.0
  0
POINT
  5
2B
  8
DEFPOINTS
  6
BYBLOCK
 62
     0
 10
12075.0
 20
200580.0
 30
20.0
  0
POINT
  5
2C
  8
DEFPOINTS
  6
BYBLOCK
 62
     0
 10
12075.0
 20
200390.194223
 30
30.0
  0
ENDBLK
  5
2E
  8
0
  0
BLOCK
  8
0
  2
*D4
 70
     1
 10
0.0
 20
0.0
 30
0.0
  3
*D4
  1

  0
LINE
  5
3F
  8
0
  6
BYBLOCK
 62
     9
 10
12010.0
 20
200500.0
 30
0.0
 11
12574.332141
 21
200500.0
 31
0.0
  0
LINE
  5
40
  8
0
  6
BYBLOCK
 62
     9
 10
12160.0
 20
200000.0
 30
0.0
 11
12574.332141
 21
200000.0
 31
0.0
  0
LINE
  5
41
  8
0
  6
BYBLOCK
 62
     9
 10
12573.332141
 20
200480.0
 30
0.0
 11
12573.332141
 21
200305.833333
 31
0.0
  0
LINE
  5
42
  8
0
  6
BYBLOCK
 62
     9
 10
12573.332141
 20
200020.0
 30
0.0
 11
12573.332141
 21
200194.166667
 31
0.0
  0
SOLID
  5
43
  8
0
  6
BYBLOCK
 62
     9
 10
12569.998807
 20
200480.0
 30
0.0
 11
12576.665474
 21
200480.0
 31
0.0
 12
12573.332141
 22
200500.0
 32
0.0
 13
12573.332141
 23
200500.0
 33
0.0
  0
SOLID
  5
44
  8
0
  6
BYBLOCK
 62
     9
 10
12569.998807
 20
200020.0
 30
0.0
 11
12576.665474
 21
200020.0
 31
0.0
 12
12573.332141
 22
200000.0
 32
0.0
 13
12573.332141
 23
200000.0
 33
0.0
  0
TEXT
  5
45
  8
0
  6
BYBLOCK
 62
    11
 10
12590.832141
 20
200209.166667
 30
0.0
 40
35.0
  1
500
 50
90.0
  0
POINT
  5
46
  8
DEFPOINTS
  6
BYBLOCK
 62
     0
 10
12000.0
 20
200500.0
 30
10.0
  0
POINT
  5
47
  8
DEFPOINTS
  6
BYBLOCK
 62
     0
 10
12150.0
 20
200000.0
 30
20.0
  0
POINT
  5
48
  8
DEFPOINTS
  6
BYBLOCK
 62
     0
 10
12573.332141
 20
200000.0
 30
10.0
  0
ENDBLK
  5
4A
  8
0
  0
BLOCK
  8
0
  2
*D5
 70
     1
 10
0.0
 20
0.0
 30
0.0
  3
*D5
  1

  0
LINE
  5
31
  8
0
  6
BYBLOCK
 62
     9
 10
12085.0
 20
200590.0
 30
0.0
 11
12515.196345
 21
200590.0
 31
0.0
  0
LINE
  5
32
  8
0
  6
BYBLOCK
 62
     9
 10
12287.0
 20
200000.0
 30
0.0
 11
12515.196345
 21
200000.0
 31
0.0
  0
LINE
  5
33
  8
0
  6
BYBLOCK
 62
     9
 10
12514.196345
 20
200570.0
 30
0.0
 11
12514.196345
 21
200353.75
 31
0.0
  0
LINE
  5
34
  8
0
  6
BYBLOCK
 62
     9
 10
12514.196345
 20
200020.0
 30
0.0
 11
12514.196345
 21
200236.25
 31
0.0
  0
SOLID
  5
35
  8
0
  6
BYBLOCK
 62
     9
 10
12510.863012
 20
200570.0
 30
0.0
 11
12517.529678
 21
200570.0
 31
0.0
 12
12514.196345
 22
200590.0
 32
0.0
 13
12514.196345
 23
200590.0
 33
0.0
  0
SOLID
  5
36
  8
0
  6
BYBLOCK
 62
     9
 10
12510.863012
 20
200020.0
 30
0.0
 11
12517.529678
 21
200020.0
 31
0.0
 12
12514.196345
 22
200000.0
 32
0.0
 13
12514.196345
 23
200000.0
 33
0.0
  0
TEXT
  5
37
  8
0
  6
BYBLOCK
 62
    11
 10
12531.696345
 20
200251.25
 30
0.0
 40
35.0
  1
590
 50
90.0
  0
POINT
  5
38
  8
DEFPOINTS
  6
BYBLOCK
 62
     0
 10
12075.0
 20
200590.0
 30
0.0
  0
POINT
  5
39
  8
DEFPOINTS
  6
BYBLOCK
 62
     0
 10
12277.0
 20
200000.0
 30
10.0
  0
POINT
  5
3A
  8
DEFPOINTS
  6
BYBLOCK
 62
     0
 10
12514.196345
 20
200000.0
 30
20.0
  0
ENDBLK
  5
3C
  8
0
  0
BLOCK
  8
0
  2
*D6
 70
     1
 10
0.0
 20
0.0
 30
0.0
  3
*D6
  1

  0
LINE
  5
77
  8
0
  6
BYBLOCK
 62
     9
 10
12085.0
 20
200590.0
 30
0.0
 11
12605.196345
 21
200590.0
 31
0.0
  0
LINE
  5
78
  8
0
  6
BYBLOCK
 62
     9
 10
12430.0
 20
200850.0
 30
0.0
 11
12605.196345
 21
200850.0
 31
0.0
  0
LINE
  5
79
  8
0
  6
BYBLOCK
 62
     9
 10
12604.196345
 20
200610.0
 30
0.0
 11
12604.196345
 21
200661.25
 31
0.0
  0
LINE
  5
7A
  8
0
  6
BYBLOCK
 62
     9
 10
12604.196345
 20
200830.0
 30
0.0
 11
12604.196345
 21
200778.75
 31
0.0
  0
SOLID
  5
7B
  8
0
  6
BYBLOCK
 62
     9
 10
12600.863012
 20
200610.0
 30
0.0
 11
12607.529678
 21
200610.0
 31
0.0
 12
12604.196345
 22
200590.0
 32
0.0
 13
12604.196345
 23
200590.0
 33
0.0
  0
SOLID
  5
7C
  8
0
  6
BYBLOCK
 62
     9
 10
12600.863012
 20
200830.0
 30
0.0
 11
12607.529678
 21
200830.0
 31
0.0
 12
12604.196345
 22
200850.0
 32
0.0
 13
12604.196345
 23
200850.0
 33
0.0
  0
TEXT
  5
7D
  8
0
  6
BYBLOCK
 62
    11
 10
12621.696345
 20
200676.25
 30
0.0
 40
35.0
  1
260
 50
90.0
  0
POINT
  5
7E
  8
DEFPOINTS
  6
BYBLOCK
 62
     0
 10
12075.0
 20
200590.0
 30
0.0
  0
POINT
  5
7F
  8
DEFPOINTS
  6
BYBLOCK
 62
     0
 10
12420.0
 20
200850.0
 30
0.0
  0
POINT
  5
80
  8
DEFPOINTS
  6
BYBLOCK
 62
     0
 10
12604.196345
 20
200850.0
 30
0.0
  0
ENDBLK
  5
82
  8
0
  0
BLOCK
  8
0
  2
*D7
 70
     1
 10
0.0
 20
0.0
 30
0.0
  3
*D7
  1

  0
LINE
  5
93
  8
0
  6
BYBLOCK
 62
     9
 10
12435.0
 20
200850.0
 30
0.0
 11
12486.437321
 21
200850.0
 31
0.0
  0
LINE
  5
94
  8
0
  6
BYBLOCK
 62
     9
 10
12060.0
 20
200718.000104
 30
0.0
 11
12486.437321
 21
200718.000104
 31
0.0
  0
LINE
  5
95
  8
0
  6
BYBLOCK
 62
     9
 10
12485.437321
 20
200830.0
 30
0.0
 11
12485.437321
 21
200815.0
 31
0.0
  0
LINE
  5
96
  8
0
  6
BYBLOCK
 62
     9
 10
12485.437321
 20
200738.000104
 30
0.0
 11
12485.437321
 21
200753.000104
 31
0.0
  0
TEXT
  5
97
  8
0
  6
BYBLOCK
 62
    11
 10
12502.937321
 20
200743.166719
 30
0.0
 40
35.0
  1
132
 50
90.0
  0
SOLID
  5
98
  8
0
  6
BYBLOCK
 62
     9
 10
12482.103988
 20
200830.0
 30
0.0
 11
12488.770655
 21
200830.0
 31
0.0
 12
12485.437321
 22
200850.0
 32
0.0
 13
12485.437321
 23
200850.0
 33
0.0
  0
SOLID
  5
99
  8
0
  6
BYBLOCK
 62
     9
 10
12482.103988
 20
200738.000104
 30
0.0
 11
12488.770655
 21
200738.000104
 31
0.0
 12
12485.437321
 22
200718.000104
 32
0.0
 13
12485.437321
 23
200718.000104
 33
0.0
  0
POINT
  5
9A
  8
DEFPOINTS
  6
BYBLOCK
 62
     0
 10
12425.0
 20
200850.0
 30
0.0
  0
POINT
  5
9B
  8
DEFPOINTS
  6
BYBLOCK
 62
     0
 10
12050.0
 20
200718.000104
 30
0.0
  0
POINT
  5
9C
  8
DEFPOINTS
  6
BYBLOCK
 62
     0
 10
12485.437321
 20
200718.000104
 30
0.0
  0
ENDBLK
  5
9E
  8
0
  0
BLOCK
  8
0
  2
*D8
 70
     1
 10
0.0
 20
0.0
 30
0.0
  3
*D8
  1

  0
LINE
  5
85
  8
0
  6
BYBLOCK
 62
     9
 10
12425.0
 20
200804.0
 30
0.0
 11
12425.0
 21
200921.370125
 31
0.0
  0
LINE
  5
86
  8
0
  6
BYBLOCK
 62
     9
 10
11575.0
 20
200804.0
 30
0.0
 11
11575.0
 21
200921.370125
 31
0.0
  0
LINE
  5
87
  8
0
  6
BYBLOCK
 62
     9
 10
12405.0
 20
200920.370125
 30
0.0
 11
12058.75
 21
200920.370125
 31
0.0
  0
LINE
  5
88
  8
0
  6
BYBLOCK
 62
     9
 10
11595.0
 20
200920.370125
 30
0.0
 11
11941.25
 21
200920.370125
 31
0.0
  0
SOLID
  5
89
  8
0
  6
BYBLOCK
 62
     9
 10
12405.0
 20
200923.703458
 30
0.0
 11
12405.0
 21
200917.036792
 31
0.0
 12
12425.0
 22
200920.370125
 32
0.0
 13
12425.0
 23
200920.370125
 33
0.0
  0
SOLID
  5
8A
  8
0
  6
BYBLOCK
 62
     9
 10
11595.0
 20
200923.703458
 30
0.0
 11
11595.0
 21
200917.036792
 31
0.0
 12
11575.0
 22
200920.370125
 32
0.0
 13
11575.0
 23
200920.370125
 33
0.0
  0
TEXT
  5
8B
  8
0
  6
BYBLOCK
 62
    11
 10
11956.25
 20
200902.870125
 30
0.0
 40
35.0
  1
850
  0
POINT
  5
8C
  8
DEFPOINTS
  6
BYBLOCK
 62
     0
 10
12425.0
 20
200794.0
 30
0.0
  0
POINT
  5
8D
  8
DEFPOINTS
  6
BYBLOCK
 62
     0
 10
11575.0
 20
200794.0
 30
0.0
  0
POINT
  5
8E
  8
DEFPOINTS
  6
BYBLOCK
 62
     0
 10
11575.0
 20
200920.370125
 30
0.0
  0
ENDBLK
  5
90
  8
0
  0
ENDSEC
  0
SECTION
  2
ENTITIES
  0
DIMENSION
  5
20
  8
TEAM-MAS
  2
*D3
 10
75.0
 20
390.194223
 30
10.0
 11
0.004695
 21
418.08305
 31
-20.0
 12
-12000.0
 22
-200000.0
 32
-20.0
 70
   128
 13
-75.0
 23
579.783522
 33
0.0
 14
75.0
 24
580.0
 34
0.0
1001
ACAD
1000
DSTYLE
1002
{
1070
    40
1040
1.0
1002
}
  0
DIMENSION
  5
2F
  8
TEAM-MAS
  2
*D5
 10
514.196345
 20
0.0
 30
20.0
 11
514.196345
 21
295.0
 31
0.0
 12
-12000.0
 22
-200000.0
 32
0.0
 13
75.0
 23
590.0
 33
0.0
 14
277.0
 24
0.0
 34
10.0
 50
90.0
1001
ACAD
1000
DSTYLE
1002
{
1070
    40
1040
1.0
1002
}
  0
DIMENSION
  5
3D
  8
TEAM-MAS
  2
*D4
 10
573.332141
 20
0.0
 30
0.0
 11
573.332141
 21
250.0
 31
-10.0
 12
-12000.0
 22
-200000.0
 32
-10.0
 13
0.0
 23
500.0
 33
0.0
 14
150.0
 24
0.0
 34
10.0
 50
90.0
1001
ACAD
1000
DSTYLE
1002
{
1070
    40
1040
1.0
1002
}
  0
DIMENSION
  5
4B
  8
TEAM-MAS
  2
*D2
 10
663.332141
 20
500.0
 30
10.0
 11
663.332141
 21
675.0
 31
-10.0
 12
-12000.0
 22
-200000.0
 32
-10.0
 13
514.527647
 23
850.0
 33
10.0
 14
0.0
 24
500.0
 34
0.0
 50
90.0
1001
ACAD
1000
DSTYLE
1002
{
1070
    40
1040
1.0
1002
}
  0
DIMENSION
  5
59
  8
TEAM-MAS
  2
*D1
 10
716.807376
 20
0.0
 30
10.0
 11
716.807376
 21
425.0
 31
0.0
 12
-12000.0
 22
-200000.0
 32
0.0
 13
538.738133
 23
850.0
 33
10.0
 14
0.0
 24
0.0
 34
0.0
 50
90.0
1001
ACAD
1000
DSTYLE
1002
{
1070
    40
1040
1.0
1002
}
  0
DIMENSION
  5
67
  8
TEAM-MAS
  2
*D0
 10
545.738133
 20
710.0
 30
10.0
 11
545.738133
 21
784.000052
 31
0.0
 12
-12000.0
 22
-200000.0
 32
0.0
 70
   128
 13
360.0
 23
850.0
 33
10.0
 14
425.0
 24
710.0
 34
0.0
 50
90.0
1001
ACAD
1000
DSTYLE
1002
{
1070
    40
1040
1.0
1002
}
  0
DIMENSION
  5
75
  8
TEAM-MAS
  2
*D6
 10
604.196345
 20
850.0
 30
0.0
 11
604.196345
 21
720.0
 31
0.0
 12
-12000.0
 22
-200000.0
 32
0.0
 13
75.0
 23
590.0
 33
0.0
 14
420.0
 24
850.0
 34
0.0
 50
90.0
1001
ACAD
1000
DSTYLE
1002
{
1070
    40
1040
1.0
1002
}
  0
DIMENSION
  5
83
  8
TEAM-MAS
  2
*D8
 10
-425.0
 20
920.370125
 30
0.0
 11
0.0
 21
920.370125
 31
0.0
 12
-12000.0
 22
-200000.0
 32
0.0
 13
425.0
 23
794.0
 33
0.0
 14
-425.0
 24
794.0
 34
0.0
1001
ACAD
1000
DSTYLE
1002
{
1070
    40
1040
1.0
1002
}
  0
DIMENSION
  5
91
  8
TEAM-MAS
  2
*D7
 10
485.437321
 20
718.000104
 30
0.0
 11
485.437321
 21
784.000052
 31
0.0
 12
-12000.0
 22
-200000.0
 32
0.0
 70
   128
 13
425.0
 23
850.0
 33
0.0
 14
50.0
 24
718.000104
 34
0.0
 50
90.0
1001
ACAD
1000
DSTYLE
1002
{
1070
    40
1040
1.0
1002
}
  0
ARC
  5
9F
  8
TEAM-HIDE
 10
-26.875855
 20
1175.483042
 30
0.0
 40
418.122864
 50
231.117851
 51
266.829659
  0
ARC
  5
A2
  8
TEAM-HIDE
 10
23.87246
 20
1183.296454
 30
0.0
 40
426.098151
 50
273.515475
 51
308.537016
  0
ARC
  5
A3
  8
TEAM-HIDE
 10
29.446236
 20
1196.285732
 30
0.0
 40
478.727061
 50
272.460705
 51
313.668498
  0
ARC
  5
A4
  8
TEAM-HIDE
 10
-29.446236
 20
1196.285732
 30
0.0
 40
478.727061
 50
226.331502
 51
267.539295
  0
LINE
  5
A5
  8
TEAM-BODY
 10
425.0
 20
710.0
 30
0.0
 11
425.0
 21
850.0
 31
0.0
  0
LINE
  5
A7
  8
TEAM-BODY
 10
425.0
 20
710.0
 30
0.0
 11
-425.0
 21
710.0
 31
0.0
  0
LINE
  5
A8
  8
TEAM-BODY
 10
-425.0
 20
850.0
 30
0.0
 11
-425.0
 21
710.0
 31
0.0
  0
POLYLINE
  5
A9
  8
TEAM-HIDE
 66
     1
 10
0.0
 20
0.0
 30
0.0
 70
     1
  0
VERTEX
  5
13E
  8
TEAM-HIDE
 10
374.0
 20
721.0
 30
0.0
 42
-1.0
  0
VERTEX
  5
13F
  8
TEAM-HIDE
 10
374.0
 20
739.0
 30
0.0
  0
VERTEX
  5
140
  8
TEAM-HIDE
 10
396.0
 20
739.0
 30
0.0
 42
-1.0
  0
VERTEX
  5
141
  8
TEAM-HIDE
 10
396.0
 20
721.0
 30
0.0
  0
SEQEND
  5
142
  8
TEAM-HIDE
  0
LINE
  5
AA
  8
TEAM-AXE
 10
385.0
 20
744.0
 30
0.0
 11
385.0
 21
716.0
 31
0.0
  0
LINE
  5
AD
  8
TEAM-AXE
 10
410.0
 20
730.0
 30
0.0
 11
360.0
 21
730.0
 31
0.0
  0
POLYLINE
  5
AE
  8
TEAM-HIDE
 66
     1
 10
0.0
 20
0.0
 30
0.0
 70
     1
  0
VERTEX
  5
143
  8
TEAM-HIDE
 10
374.0
 20
821.0
 30
0.0
 42
-1.0
  0
VERTEX
  5
144
  8
TEAM-HIDE
 10
374.0
 20
839.0
 30
0.0
  0
VERTEX
  5
145
  8
TEAM-HIDE
 10
396.0
 20
839.0
 30
0.0
 42
-1.0
  0
VERTEX
  5
146
  8
TEAM-HIDE
 10
396.0
 20
821.0
 30
0.0
  0
SEQEND
  5
147
  8
TEAM-HIDE
  0
LINE
  5
AF
  8
TEAM-AXE
 10
385.0
 20
844.0
 30
0.0
 11
385.0
 21
816.0
 31
0.0
  0
LINE
  5
B0
  8
TEAM-AXE
 10
410.0
 20
830.0
 30
0.0
 11
360.0
 21
830.0
 31
0.0
  0
LINE
  5
B1
  8
TEAM-AXE
 10
-410.0
 20
830.0
 30
0.0
 11
-360.0
 21
830.0
 31
0.0
  0
LINE
  5
B2
  8
TEAM-AXE
 10
-385.0
 20
844.0
 30
0.0
 11
-385.0
 21
816.0
 31
0.0
  0
POLYLINE
  5
B3
  8
TEAM-HIDE
 66
     1
 10
0.0
 20
0.0
 30
0.0
 70
     1
  0
VERTEX
  5
148
  8
TEAM-HIDE
 10
-374.0
 20
821.0
 30
0.0
 42
1.0
  0
VERTEX
  5
149
  8
TEAM-HIDE
 10
-374.0
 20
839.0
 30
0.0
  0
VERTEX
  5
14A
  8
TEAM-HIDE
 10
-396.0
 20
839.0
 30
0.0
 42
1.0
  0
VERTEX
  5
14B
  8
TEAM-HIDE
 10
-396.0
 20
821.0
 30
0.0
  0
SEQEND
  5
14C
  8
TEAM-HIDE
  0
LINE
  5
B4
  8
TEAM-AXE
 10
-410.0
 20
730.0
 30
0.0
 11
-360.0
 21
730.0
 31
0.0
  0
LINE
  5
B5
  8
TEAM-AXE
 10
-385.0
 20
744.0
 30
0.0
 11
-385.0
 21
716.0
 31
0.0
  0
POLYLINE
  5
B6
  8
TEAM-HIDE
 66
     1
 10
0.0
 20
0.0
 30
0.0
 70
     1
  0
VERTEX
  5
14D
  8
TEAM-HIDE
 10
-374.0
 20
721.0
 30
0.0
 42
1.0
  0
VERTEX
  5
14E
  8
TEAM-HIDE
 10
-374.0
 20
739.0
 30
0.0
  0
VERTEX
  5
14F
  8
TEAM-HIDE
 10
-396.0
 20
739.0
 30
0.0
 42
1.0
  0
VERTEX
  5
150
  8
TEAM-HIDE
 10
-396.0
 20
721.0
 30
0.0
  0
SEQEND
  5
151
  8
TEAM-HIDE
  0
LINE
  5
B7
  8
TEAM-HIDE
 10
-30.0
 20
713.000104
 30
0.0
 11
30.0
 21
713.000104
 31
0.0
  0
LINE
  5
B8
  8
TEAM-HIDE
 10
-30.0
 20
718.000104
 30
0.0
 11
30.0
 21
718.000104
 31
0.0
  0
LINE
  5
B9
  8
TEAM-HIDE
 10
-50.0
 20
718.000104
 30
0.0
 11
-30.0
 21
718.000104
 31
0.0
  0
LINE
  5
BA
  8
TEAM-HIDE
 10
-50.0
 20
718.000104
 30
0.0
 11
-50.0
 21
758.000104
 31
0.0
  0
LINE
  5
BB
  8
TEAM-HIDE
 10
-50.0
 20
758.000104
 30
0.0
 11
50.0
 21
758.000104
 31
0.0
  0
LINE
  5
BC
  8
TEAM-HIDE
 10
50.0
 20
718.000104
 30
0.0
 11
50.0
 21
758.000104
 31
0.0
  0
LINE
  5
BD
  8
TEAM-HIDE
 10
50.0
 20
718.000104
 30
0.0
 11
50.0
 21
758.000104
 31
0.0
  0
LINE
  5
BE
  8
TEAM-HIDE
 10
50.0
 20
718.000104
 30
0.0
 11
30.0
 21
718.000104
 31
0.0
  0
LINE
  5
BF
  8
TEAM-HIDE
 10
30.0
 20
713.000104
 30
0.0
 11
35.0
 21
718.000104
 31
0.0
  0
LINE
  5
C0
  8
TEAM-HIDE
 10
-30.0
 20
713.000104
 30
0.0
 11
-35.0
 21
718.000104
 31
0.0
  0
CIRCLE
  5
C1
  8
TEAM-HIDE
 10
0.0
 20
810.0
 30
0.0
 40
16.0
  0
LINE
  5
C2
  8
TEAM-BODY
 10
425.0
 20
850.0
 30
0.0
 11
-425.0
 21
850.0
 31
0.0
  0
LINE
  5
C3
  8
TEAM-AXE
 10
0.0
 20
480.0
 30
0.0
 11
0.0
 21
520.0
 31
0.0
  0
CIRCLE
  5
C4
  8
TEAM-KAN
 10
0.0
 20
500.0
 30
0.0
 40
20.0
  0
LINE
  5
C6
  8
TEAM-AXE
 10
20.0
 20
500.0
 30
0.0
 11
-20.0
 21
500.0
 31
0.0
  0
CIRCLE
  5
C7
  8
TEAM-WARM
 10
-75.0
 20
589.783522
 30
0.0
 40
10.0
  0
LINE
  5
C9
  8
TEAM-AXE
 10
-65.050126
 20
589.783522
 30
0.0
 11
-84.949874
 21
589.783522
 31
0.0
  0
LINE
  5
CA
  8
TEAM-AXE
 10
-75.0
 20
579.783522
 30
0.0
 11
-75.0
 21
599.783522
 31
0.0
  0
CIRCLE
  5
CB
  8
TEAM-COLD
 10
75.0
 20
590.0
 30
0.0
 40
10.0
  0
LINE
  5
CD
  8
TEAM-AXE
 10
75.0
 20
580.0
 30
0.0
 11
75.0
 21
600.0
 31
0.0
  0
LINE
  5
CE
  8
TEAM-AXE
 10
84.949874
 20
590.0
 30
0.0
 11
65.050126
 21
590.0
 31
0.0
  0
LINE
  5
CF
  8
TEAM-AXE
 10
0.0
 20
557.015383
 30
0.0
 11
0.0
 21
850.0
 31
0.0
  0
TEXT
  5
D0
  8
TEAM-TXT
 10
-316.034433
 20
795.980438
 30
0.0
 40
30.0
  1
team 233394
 41
0.8
 51
15.0
  7
TEAM
  0
CIRCLE
  5
D3
  8
TEAM-INSP
 10
0.0
 20
0.0
 30
0.0
 40
10.0
  0
ENDSEC
  0
EOF
