  0
SECTION
  2
HEADER
  9
$ACADVER
  1
AC1009
  9
$INSBASE
 10
0.0
 20
0.0
 30
0.0
  9
$EXTMIN
 10
-305.804758
 20
-562.867113
 30
0.0
  9
$EXTMAX
 10
471.483022
 20
10.034915
 30
0.0
  9
$LIMMIN
 10
-305.804758
 20
-562.867113
  9
$LIMMAX
 10
471.483022
 20
10.034915
  9
$ORTHOMODE
 70
     1
  9
$REGENMODE
 70
     1
  9
$FILLMODE
 70
     1
  9
$QTEXTMODE
 70
     0
  9
$MIRRTEXT
 70
     0
  9
$DRAGMODE
 70
     2
  9
$LTSCALE
 40
25.0
  9
$OSMODE
 70
     0
  9
$ATTMODE
 70
     1
  9
$TEXTSIZE
 40
200.0
  9
$TRACEWID
 40
1.0
  9
$TEXTSTYLE
  7
STANDARD
  9
$CLAYER
  8
TEAM-MAS
  9
$CELTYPE
  6
BYLAYER
  9
$CECOLOR
 62
   256
  9
$DIMSCALE
 40
1.0
  9
$DIMASZ
 40
20.0
  9
$DIMEXO
 40
10.0
  9
$DIMDLI
 40
1.0
  9
$DIMRND
 40
0.0
  9
$DIMDLE
 40
0.0
  9
$DIMEXE
 40
1.0
  9
$DIMTP
 40
0.0
  9
$DIMTM
 40
0.0
  9
$DIMTXT
 40
35.0
  9
$DIMCEN
 40
1.0
  9
$DIMTSZ
 40
0.0
  9
$DIMTOL
 70
     0
  9
$DIMLIM
 70
     0
  9
$DIMTIH
 70
     0
  9
$DIMTOH
 70
     0
  9
$DIMSE1
 70
     0
  9
$DIMSE2
 70
     0
  9
$DIMTAD
 70
     0
  9
$DIMZIN
 70
     0
  9
$DIMBLK
  1

  9
$DIMASO
 70
     1
  9
$DIMSHO
 70
     0
  9
$DIMPOST
  1

  9
$DIMAPOST
  1

  9
$DIMALT
 70
     0
  9
$DIMALTD
 70
     2
  9
$DIMALTF
 40
25.4
  9
$DIMLFAC
 40
1.0
  9
$DIMTOFL
 70
     0
  9
$DIMTVP
 40
0.0
  9
$DIMTIX
 70
     0
  9
$DIMSOXD
 70
     0
  9
$DIMSAH
 70
     0
  9
$DIMBLK1
  1

  9
$DIMBLK2
  1

  9
$DIMSTYLE
  2
TEAM
  9
$DIMCLRD
 70
     9
  9
$DIMCLRE
 70
     9
  9
$DIMCLRT
 70
    11
  9
$DIMTFAC
 40
1.0
  9
$DIMGAP
 40
15.0
  9
$LUNITS
 70
     2
  9
$LUPREC
 70
     1
  9
$SKETCHINC
 40
1.0
  9
$FILLETRAD
 40
50.0
  9
$AUNITS
 70
     0
  9
$AUPREC
 70
     0
  9
$MENU
  1
ROPLANS
  9
$ELEVATION
 40
0.0
  9
$PELEVATION
 40
0.0
  9
$THICKNESS
 40
0.0
  9
$LIMCHECK
 70
     0
  9
$BLIPMODE
 70
     1
  9
$CHAMFERA
 40
0.0
  9
$CHAMFERB
 40
0.0
  9
$SKPOLY
 70
     0
  9
$TDCREATE
 40
2450392.957851
  9
$TDUPDATE
 40
2455505.473099
  9
$TDINDWG
 40
2.023557
  9
$TDUSRTIMER
 40
2.023557
  9
$USRTIMER
 70
     1
  9
$ANGBASE
 50
0.0
  9
$ANGDIR
 70
     0
  9
$PDMODE
 70
     0
  9
$PDSIZE
 40
0.0
  9
$PLINEWID
 40
0.0
  9
$COORDS
 70
     2
  9
$SPLFRAME
 70
     0
  9
$SPLINETYPE
 70
     6
  9
$SPLINESEGS
 70
     8
  9
$ATTDIA
 70
     0
  9
$ATTREQ
 70
     0
  9
$HANDLING
 70
     1
  9
$HANDSEED
  5
DB
  9
$SURFTAB1
 70
    24
  9
$SURFTAB2
 70
    24
  9
$SURFTYPE
 70
     6
  9
$SURFU
 70
     6
  9
$SURFV
 70
     6
  9
$UCSNAME
  2

  9
$UCSORG
 10
0.0
 20
0.0
 30
0.0
  9
$UCSXDIR
 10
1.0
 20
0.0
 30
0.0
  9
$UCSYDIR
 10
0.0
 20
1.0
 30
0.0
  9
$PUCSNAME
  2

  9
$PUCSORG
 10
0.0
 20
0.0
 30
0.0
  9
$PUCSXDIR
 10
1.0
 20
0.0
 30
0.0
  9
$PUCSYDIR
 10
0.0
 20
1.0
 30
0.0
  9
$USERI1
 70
     0
  9
$USERI2
 70
     0
  9
$USERI3
 70
     0
  9
$USERI4
 70
     0
  9
$USERI5
 70
     0
  9
$USERR1
 40
0.0
  9
$USERR2
 40
0.0
  9
$USERR3
 40
0.0
  9
$USERR4
 40
0.0
  9
$USERR5
 40
0.0
  9
$WORLDVIEW
 70
     1
  9
$SHADEDGE
 70
     0
  9
$SHADEDIF
 70
    70
  9
$TILEMODE
 70
     1
  9
$MAXACTVP
 70
    16
  9
$PLIMCHECK
 70
     0
  9
$PEXTMIN
 10
-0.805942
 20
0.005011
 30
0.0
  9
$PEXTMAX
 10
20.250094
 20
11.356329
 30
0.0
  9
$PLIMMIN
 10
0.0
 20
0.0
  9
$PLIMMAX
 10
12.0
 20
9.0
  9
$UNITMODE
 70
     0
  9
$VISRETAIN
 70
     0
  9
$PLINEGEN
 70
     0
  9
$PSLTSCALE
 70
     0
  0
ENDSEC
  0
SECTION
  2
TABLES
  0
TABLE
  2
VPORT
 70
     2
  0
VPORT
  2
*ACTIVE
 70
     0
 10
0.0
 20
0.0
 11
1.0
 21
1.0
 12
82.839132
 22
-276.416099
 13
0.0
 23
0.0
 14
1.0
 24
1.0
 15
50.0
 25
50.0
 16
0.0
 26
0.0
 36
1.0
 17
0.0
 27
0.0
 37
0.0
 40
576.420361
 41
1.865779
 42
50.0
 43
0.0
 44
0.0
 50
0.0
 51
0.0
 71
     0
 72
   100
 73
     1
 74
     1
 75
     0
 76
     0
 77
     0
 78
     0
  0
ENDTAB
  0
TABLE
  2
LTYPE
 70
     2
  0
LTYPE
  2
CONTINUOUS
 70
     0
  3
Solid Line
 72
    65
 73
     0
 40
0.0
  0
LTYPE
  2
31
 70
     0
  3

 72
    65
 73
     4
 40
2.1
 49
1.5
 49
-0.3
 49
0.0
 49
-0.3
  0
ENDTAB
  0
TABLE
  2
LAYER
 70
     9
  0
LAYER
  2
0
 70
     0
 62
     7
  6
CONTINUOUS
  0
LAYER
  2
DEFPOINTS
 70
     0
 62
     7
  6
CONTINUOUS
  0
LAYER
  2
TEAM-BODY
 70
     0
 62
     2
  6
CONTINUOUS
  0
LAYER
  2
TEAM-AXE
 70
     0
 62
    10
  6
31
  0
LAYER
  2
TEAM-MAS
 70
     0
 62
     9
  6
CONTINUOUS
  0
LAYER
  2
TEAM-TXT
 70
     0
 62
    11
  6
CONTINUOUS
  0
LAYER
  2
TEAM-DET1
 70
     0
 62
     4
  6
CONTINUOUS
  0
LAYER
  2
TEAM-KAN
 70
     0
 62
     6
  6
CONTINUOUS
  0
LAYER
  2
TEAM-INSP
 70
     0
 62
     5
  6
CONTINUOUS
  0
ENDTAB
  0
TABLE
  2
STYLE
 70
     2
  0
STYLE
  2
STANDARD
 70
     0
 40
0.0
 41
1.0
 50
0.0
 71
     0
 42
200.0
  3
txt
  4

  0
STYLE
  2
TEAM
 70
     0
 40
0.0
 41
0.8
 50
15.0
 71
     0
 42
7.0
  3
ROMANS.shx
  4

  0
ENDTAB
  0
TABLE
  2
VIEW
 70
     0
  0
ENDTAB
  0
TABLE
  2
UCS
 70
     0
  0
ENDTAB
  0
TABLE
  2
APPID
 70
     1
  0
APPID
  2
ACAD
 70
     0
  0
ENDTAB
  0
TABLE
  2
DIMSTYLE
 70
     1
  0
DIMSTYLE
  2
TEAM
 70
     0
  3

  4

  5

  6

  7

 40
1.0
 41
20.0
 42
10.0
 43
1.0
 44
1.0
 45
0.0
 46
0.0
 47
0.0
 48
0.0
140
35.0
141
1.0
142
0.0
143
25.4
144
1.0
145
0.0
146
1.0
147
15.0
 71
     0
 72
     0
 73
     0
 74
     0
 75
     0
 76
     0
 77
     0
 78
     0
170
     0
171
     2
172
     0
173
     0
174
     0
175
     0
176
     9
177
     9
178
    11
  0
ENDTAB
  0
ENDSEC
  0
SECTION
  2
BLOCKS
  0
BLOCK
  8
0
  2
$MODEL_SPACE
 70
     0
 10
0.0
 20
0.0
 30
0.0
  3
$MODEL_SPACE
  1

  0
ENDBLK
  5
D4
  8
0
  0
BLOCK
 67
     1
  8
0
  2
$PAPER_SPACE
 70
     0
 10
0.0
 20
0.0
 30
0.0
  3
$PAPER_SPACE
  1

  0
ENDBLK
  5
D2
 67
     1
  8
0
  0
BLOCK
  8
0
  2
*D0
 70
     1
 10
0.0
 20
0.0
 30
0.0
  3
*D0
  1

  0
LINE
  5
62
  8
0
  6
BYBLOCK
 62
     9
 10
11702.498329
 20
459585.000712
 30
0.0
 11
11702.498329
 21
459453.617182
 31
0.0
  0
LINE
  5
63
  8
0
  6
BYBLOCK
 62
     9
 10
12297.501671
 20
459585.000712
 30
0.0
 11
12297.501671
 21
459453.617182
 31
0.0
  0
LINE
  5
64
  8
0
  6
BYBLOCK
 62
     9
 10
11722.498329
 20
459454.617182
 30
0.0
 11
11952.713975
 21
459454.617182
 31
0.0
  0
LINE
  5
65
  8
0
  6
BYBLOCK
 62
     9
 10
12277.501671
 20
459454.617182
 30
0.0
 11
12047.286025
 21
459454.617182
 31
0.0
  0
SOLID
  5
66
  8
0
  6
BYBLOCK
 62
     9
 10
11722.498329
 20
459457.950515
 30
0.0
 11
11722.498329
 21
459451.283848
 31
0.0
 12
11702.498329
 22
459454.617182
 32
0.0
 13
11702.498329
 23
459454.617182
 33
0.0
  0
SOLID
  5
67
  8
0
  6
BYBLOCK
 62
     9
 10
12277.501671
 20
459457.950515
 30
0.0
 11
12277.501671
 21
459451.283848
 31
0.0
 12
12297.501671
 22
459454.617182
 32
0.0
 13
12297.501671
 23
459454.617182
 33
0.0
  0
TEXT
  5
68
  8
0
  6
BYBLOCK
 62
    11
 10
11962.463975
 20
459437.117182
 30
0.0
 40
35.0
  1
595
  0
POINT
  5
69
  8
DEFPOINTS
  6
BYBLOCK
 62
     0
 10
11702.498329
 20
459595.000712
 30
0.0
  0
POINT
  5
6A
  8
DEFPOINTS
  6
BYBLOCK
 62
     0
 10
12297.501671
 20
459595.000712
 30
0.0
  0
POINT
  5
6B
  8
DEFPOINTS
  6
BYBLOCK
 62
     0
 10
12297.501671
 20
459454.617182
 30
0.0
  0
ENDBLK
  5
6D
  8
0
  0
BLOCK
  8
0
  2
*D1
 70
     1
 10
0.0
 20
0.0
 30
0.0
  3
*D1
  1

  0
LINE
  5
46
  8
0
  6
BYBLOCK
 62
     9
 10
12307.501671
 20
460000.0
 30
0.0
 11
12455.281227
 21
460000.0
 31
0.0
  0
LINE
  5
47
  8
0
  6
BYBLOCK
 62
     9
 10
12247.501671
 20
459535.000712
 30
0.0
 11
12455.281227
 21
459535.000712
 31
0.0
  0
LINE
  5
48
  8
0
  6
BYBLOCK
 62
     9
 10
12454.281227
 20
459980.0
 30
0.0
 11
12454.281227
 21
459816.47523
 31
0.0
  0
LINE
  5
49
  8
0
  6
BYBLOCK
 62
     9
 10
12454.281227
 20
459555.000712
 30
0.0
 11
12454.281227
 21
459718.525482
 31
0.0
  0
SOLID
  5
4A
  8
0
  6
BYBLOCK
 62
     9
 10
12450.947894
 20
459980.0
 30
0.0
 11
12457.61456
 21
459980.0
 31
0.0
 12
12454.281227
 22
460000.0
 32
0.0
 13
12454.281227
 23
460000.0
 33
0.0
  0
SOLID
  5
4B
  8
0
  6
BYBLOCK
 62
     9
 10
12450.947894
 20
459555.000712
 30
0.0
 11
12457.61456
 21
459555.000712
 31
0.0
 12
12454.281227
 22
459535.000712
 32
0.0
 13
12454.281227
 23
459535.000712
 33
0.0
  0
TEXT
  5
4C
  8
0
  6
BYBLOCK
 62
    11
 10
12471.781227
 20
459728.275482
 30
0.0
 40
35.0
  1
465
 50
90.0
  0
POINT
  5
4D
  8
DEFPOINTS
  6
BYBLOCK
 62
     0
 10
12297.501671
 20
460000.0
 30
0.0
  0
POINT
  5
4E
  8
DEFPOINTS
  6
BYBLOCK
 62
     0
 10
12237.501671
 20
459535.000712
 30
0.0
  0
POINT
  5
4F
  8
DEFPOINTS
  6
BYBLOCK
 62
     0
 10
12454.281227
 20
459535.000712
 30
0.0
  0
ENDBLK
  5
51
  8
0
  0
BLOCK
  8
0
  2
*D2
 70
     1
 10
0.0
 20
0.0
 30
0.0
  3
*D2
  1

  0
LINE
  5
37
  8
0
  6
BYBLOCK
 62
     9
 10
12307.501671
 20
460000.0
 30
0.0
 11
12378.930714
 21
460000.0
 31
0.0
  0
LINE
  5
38
  8
0
  6
BYBLOCK
 62
     9
 10
12051.669422
 20
459804.997049
 30
0.0
 11
12378.930714
 21
459804.997049
 31
0.0
  0
LINE
  5
39
  8
0
  6
BYBLOCK
 62
     9
 10
12377.930714
 20
459980.0
 30
0.0
 11
12377.930714
 21
459946.284549
 31
0.0
  0
LINE
  5
3A
  8
0
  6
BYBLOCK
 62
     9
 10
12377.930714
 20
459824.997049
 30
0.0
 11
12377.930714
 21
459858.7125
 31
0.0
  0
SOLID
  5
3B
  8
0
  6
BYBLOCK
 62
     9
 10
12374.597381
 20
459980.0
 30
0.0
 11
12381.264048
 21
459980.0
 31
0.0
 12
12377.930714
 22
460000.0
 32
0.0
 13
12377.930714
 23
460000.0
 33
0.0
  0
SOLID
  5
3C
  8
0
  6
BYBLOCK
 62
     9
 10
12374.597381
 20
459824.997049
 30
0.0
 11
12381.264048
 21
459824.997049
 31
0.0
 12
12377.930714
 22
459804.997049
 32
0.0
 13
12377.930714
 23
459804.997049
 33
0.0
  0
TEXT
  5
3D
  8
0
  6
BYBLOCK
 62
    11
 10
12395.430714
 20
459868.4625
 30
0.0
 40
35.0
  1
195
 50
90.0
  0
POINT
  5
3E
  8
DEFPOINTS
  6
BYBLOCK
 62
     0
 10
12297.501671
 20
460000.0
 30
0.0
  0
POINT
  5
40
  8
DEFPOINTS
  6
BYBLOCK
 62
     0
 10
12041.669422
 20
459804.997049
 30
0.0
  0
POINT
  5
41
  8
DEFPOINTS
  6
BYBLOCK
 62
     0
 10
12377.930714
 20
459804.997049
 30
0.0
  0
ENDBLK
  5
43
  8
0
  0
ENDSEC
  0
SECTION
  2
ENTITIES
  0
ARC
  5
20
  8
TEAM-BODY
 10
256.490299
 20
-145.003646
 30
0.0
 40
10.0
 50
0.0
 51
90.0
  0
LINE
  5
22
  8
TEAM-AXE
 10
83.337565
 20
-65.004818
 30
0.0
 11
116.670898
 21
-65.004818
 31
0.0
  0
LINE
  5
25
  8
TEAM-AXE
 10
100.004232
 20
-48.338151
 30
0.0
 11
100.004232
 21
-81.671484
 31
0.0
210
0.0
220
-0.0
230
-1.0
  0
LINE
  5
26
  8
TEAM-BODY
 10
266.490299
 20
-145.003646
 30
0.0
 11
266.490299
 21
-424.68796
 31
0.0
  0
LINE
  5
27
  8
TEAM-BODY
 10
297.501671
 20
0.0
 30
0.0
 11
297.501671
 21
-424.999288
 31
0.0
  0
ARC
  5
28
  8
TEAM-BODY
 10
256.490299
 20
-424.68796
 30
0.0
 40
10.0
 50
270.0
 51
0.0
  0
ARC
  5
29
  8
TEAM-BODY
 10
257.501671
 20
-424.999288
 30
0.0
 40
40.0
 50
270.0
 51
360.0
  0
LINE
  5
2A
  8
TEAM-AXE
 10
0.002756
 20
-153.336286
 30
0.0
 11
0.002756
 21
-236.669617
 31
0.0
  0
CIRCLE
  5
2B
  8
TEAM-KAN
 10
0.002756
 20
-195.002951
 30
0.0
 40
30.0
  0
CIRCLE
  5
2D
  8
TEAM-INSP
 10
0.0
 20
0.0
 30
0.0
 40
10.0
  0
LINE
  5
2F
  8
TEAM-AXE
 10
-16.66391
 20
-65.004818
 30
0.0
 11
16.669422
 21
-65.004818
 31
0.0
  0
LINE
  5
30
  8
TEAM-AXE
 10
0.002756
 20
-48.338151
 30
0.0
 11
0.002756
 21
-81.671484
 31
0.0
210
0.0
220
-0.0
230
-1.0
  0
CIRCLE
  5
31
  8
TEAM-DET1
 10
0.002756
 20
-65.004818
 30
0.0
 40
15.0
  0
LINE
  5
33
  8
TEAM-AXE
 10
-41.66391
 20
-195.002951
 30
0.0
 11
41.669422
 21
-195.002951
 31
0.0
  0
CIRCLE
  5
34
  8
TEAM-DET1
 10
0.002756
 20
-195.002951
 30
0.0
 40
40.0
  0
DIMENSION
  5
35
  8
TEAM-MAS
  2
*D2
 10
377.930714
 20
-195.002951
 30
0.0
 11
377.930714
 21
-97.501476
 31
0.0
 12
-12000.0
 22
-460000.0
 32
0.0
 13
297.501671
 23
0.0
 33
0.0
 14
41.669422
 24
-195.002951
 34
0.0
 50
90.0
1001
ACAD
1000
DSTYLE
1002
{
1070
    40
1040
1.0
1002
}
  0
DIMENSION
  5
44
  8
TEAM-MAS
  2
*D1
 10
454.281227
 20
-464.999288
 30
0.0
 11
454.281227
 21
-232.499644
 31
0.0
 12
-12000.0
 22
-460000.0
 32
0.0
 13
297.501671
 23
0.0
 33
0.0
 14
237.501671
 24
-464.999288
 34
0.0
 50
90.0
1001
ACAD
1000
DSTYLE
1002
{
1070
    40
1040
1.0
1002
}
  0
ARC
  5
52
  8
TEAM-BODY
 10
-256.490299
 20
-145.003646
 30
0.0
 40
10.0
 50
90.0
 51
180.0
  0
LINE
  5
53
  8
TEAM-AXE
 10
-99.99872
 20
-48.338151
 30
0.0
 11
-99.99872
 21
-81.671484
 31
0.0
210
0.0
220
-0.0
230
-1.0
  0
LINE
  5
54
  8
TEAM-BODY
 10
-266.490299
 20
-145.003646
 30
0.0
 11
-266.490299
 21
-424.68796
 31
0.0
  0
LINE
  5
55
  8
TEAM-BODY
 10
-297.501671
 20
-424.999288
 30
0.0
 11
-297.501671
 21
0.0
 31
0.0
  0
ARC
  5
56
  8
TEAM-BODY
 10
-256.490299
 20
-424.68796
 30
0.0
 40
10.0
 50
180.0
 51
270.0
  0
ARC
  5
57
  8
TEAM-BODY
 10
-257.501671
 20
-424.999288
 30
0.0
 40
40.0
 50
180.0
 51
270.0
  0
LINE
  5
58
  8
TEAM-AXE
 10
-116.665386
 20
-65.004818
 30
0.0
 11
-83.332053
 21
-65.004818
 31
0.0
  0
TEXT
  5
59
  8
TEAM-TXT
 10
-217.109297
 20
-122.558396
 30
0.0
 40
24.999999
  1
team 234055
 41
0.8
 51
15.0
  7
TEAM
  0
LINE
  5
5C
  8
TEAM-BODY
 10
-256.490299
 20
-135.003646
 30
0.0
 11
256.490299
 21
-135.003646
 31
0.0
  0
LINE
  5
5D
  8
TEAM-BODY
 10
-297.501671
 20
0.0
 30
0.0
 11
297.501671
 21
0.0
 31
0.0
  0
LINE
  5
5E
  8
TEAM-BODY
 10
-256.490299
 20
-434.68796
 30
0.0
 11
256.490299
 21
-434.68796
 31
0.0
  0
LINE
  5
5F
  8
TEAM-BODY
 10
257.501671
 20
-464.999288
 30
0.0
 11
-257.501671
 21
-464.999288
 31
0.0
  0
DIMENSION
  5
60
  8
TEAM-MAS
  2
*D0
 10
297.501671
 20
-545.382818
 30
0.0
 11
0.0
 21
-545.382818
 31
0.0
 12
-12000.0
 22
-460000.0
 32
0.0
 13
-297.501671
 23
-404.999288
 33
0.0
 14
297.501671
 24
-404.999288
 34
0.0
1001
ACAD
1000
DSTYLE
1002
{
1070
    40
1040
1.0
1002
}
  0
ENDSEC
  0
EOF
