  0
SECTION
  2
HEADER
  9
$ACADVER
  1
AC1009
  9
$INSBASE
 10
0.0
 20
0.0
 30
0.0
  9
$EXTMIN
 10
-272.649
 20
-497.951625
 30
0.0
  9
$EXTMAX
 10
342.695713
 20
10.031004
 30
0.0
  9
$LIMMIN
 10
-272.649
 20
-497.951625
  9
$LIMMAX
 10
342.695713
 20
10.031004
  9
$ORTHOMODE
 70
     1
  9
$REGENMODE
 70
     1
  9
$FILLMODE
 70
     1
  9
$QTEXTMODE
 70
     0
  9
$MIRRTEXT
 70
     0
  9
$DRAGMODE
 70
     2
  9
$LTSCALE
 40
25.0
  9
$OSMODE
 70
     0
  9
$ATTMODE
 70
     1
  9
$TEXTSIZE
 40
200.0
  9
$TRACEWID
 40
1.0
  9
$TEXTSTYLE
  7
STANDARD
  9
$CLAYER
  8
TEAM-MAS
  9
$CELTYPE
  6
BYLAYER
  9
$CECOLOR
 62
   256
  9
$DIMSCALE
 40
1.0
  9
$DIMASZ
 40
20.0
  9
$DIMEXO
 40
10.0
  9
$DIMDLI
 40
1.0
  9
$DIMRND
 40
0.0
  9
$DIMDLE
 40
0.0
  9
$DIMEXE
 40
1.0
  9
$DIMTP
 40
0.0
  9
$DIMTM
 40
0.0
  9
$DIMTXT
 40
35.0
  9
$DIMCEN
 40
1.0
  9
$DIMTSZ
 40
0.0
  9
$DIMTOL
 70
     0
  9
$DIMLIM
 70
     0
  9
$DIMTIH
 70
     0
  9
$DIMTOH
 70
     0
  9
$DIMSE1
 70
     0
  9
$DIMSE2
 70
     0
  9
$DIMTAD
 70
     0
  9
$DIMZIN
 70
     0
  9
$DIMBLK
  1

  9
$DIMASO
 70
     1
  9
$DIMSHO
 70
     0
  9
$DIMPOST
  1

  9
$DIMAPOST
  1

  9
$DIMALT
 70
     0
  9
$DIMALTD
 70
     2
  9
$DIMALTF
 40
25.4
  9
$DIMLFAC
 40
1.0
  9
$DIMTOFL
 70
     0
  9
$DIMTVP
 40
0.0
  9
$DIMTIX
 70
     0
  9
$DIMSOXD
 70
     0
  9
$DIMSAH
 70
     0
  9
$DIMBLK1
  1

  9
$DIMBLK2
  1

  9
$DIMSTYLE
  2
TEAM
  9
$DIMCLRD
 70
     9
  9
$DIMCLRE
 70
     9
  9
$DIMCLRT
 70
    11
  9
$DIMTFAC
 40
1.0
  9
$DIMGAP
 40
15.0
  9
$LUNITS
 70
     2
  9
$LUPREC
 70
     1
  9
$SKETCHINC
 40
1.0
  9
$FILLETRAD
 40
50.0
  9
$AUNITS
 70
     0
  9
$AUPREC
 70
     0
  9
$MENU
  1
ROPLANS
  9
$ELEVATION
 40
0.0
  9
$PELEVATION
 40
0.0
  9
$THICKNESS
 40
0.0
  9
$LIMCHECK
 70
     0
  9
$BLIPMODE
 70
     1
  9
$CHAMFERA
 40
0.0
  9
$CHAMFERB
 40
0.0
  9
$SKPOLY
 70
     0
  9
$TDCREATE
 40
2450392.957851
  9
$TDUPDATE
 40
2455505.473099
  9
$TDINDWG
 40
2.023557
  9
$TDUSRTIMER
 40
2.023557
  9
$USRTIMER
 70
     1
  9
$ANGBASE
 50
0.0
  9
$ANGDIR
 70
     0
  9
$PDMODE
 70
     0
  9
$PDSIZE
 40
0.0
  9
$PLINEWID
 40
0.0
  9
$COORDS
 70
     2
  9
$SPLFRAME
 70
     0
  9
$SPLINETYPE
 70
     6
  9
$SPLINESEGS
 70
     8
  9
$ATTDIA
 70
     0
  9
$ATTREQ
 70
     0
  9
$HANDLING
 70
     1
  9
$HANDSEED
  5
1C4
  9
$SURFTAB1
 70
    24
  9
$SURFTAB2
 70
    24
  9
$SURFTYPE
 70
     6
  9
$SURFU
 70
     6
  9
$SURFV
 70
     6
  9
$UCSNAME
  2

  9
$UCSORG
 10
0.0
 20
0.0
 30
0.0
  9
$UCSXDIR
 10
1.0
 20
0.0
 30
0.0
  9
$UCSYDIR
 10
0.0
 20
1.0
 30
0.0
  9
$PUCSNAME
  2

  9
$PUCSORG
 10
0.0
 20
0.0
 30
0.0
  9
$PUCSXDIR
 10
1.0
 20
0.0
 30
0.0
  9
$PUCSYDIR
 10
0.0
 20
1.0
 30
0.0
  9
$USERI1
 70
     0
  9
$USERI2
 70
     0
  9
$USERI3
 70
     0
  9
$USERI4
 70
     0
  9
$USERI5
 70
     0
  9
$USERR1
 40
0.0
  9
$USERR2
 40
0.0
  9
$USERR3
 40
0.0
  9
$USERR4
 40
0.0
  9
$USERR5
 40
0.0
  9
$WORLDVIEW
 70
     1
  9
$SHADEDGE
 70
     0
  9
$SHADEDIF
 70
    70
  9
$TILEMODE
 70
     1
  9
$MAXACTVP
 70
    16
  9
$PLIMCHECK
 70
     0
  9
$PEXTMIN
 10
-0.805942
 20
0.005011
 30
0.0
  9
$PEXTMAX
 10
20.250094
 20
11.356329
 30
0.0
  9
$PLIMMIN
 10
0.0
 20
0.0
  9
$PLIMMAX
 10
12.0
 20
9.0
  9
$UNITMODE
 70
     0
  9
$VISRETAIN
 70
     0
  9
$PLINEGEN
 70
     0
  9
$PSLTSCALE
 70
     0
  0
ENDSEC
  0
SECTION
  2
TABLES
  0
TABLE
  2
VPORT
 70
     2
  0
VPORT
  2
*ACTIVE
 70
     0
 10
0.0
 20
0.0
 11
1.0
 21
1.0
 12
35.023356
 22
-243.96031
 13
0.0
 23
0.0
 14
1.0
 24
1.0
 15
50.0
 25
50.0
 16
0.0
 26
0.0
 36
1.0
 17
0.0
 27
0.0
 37
0.0
 40
511.102277
 41
1.865779
 42
50.0
 43
0.0
 44
0.0
 50
0.0
 51
0.0
 71
     0
 72
   100
 73
     1
 74
     1
 75
     0
 76
     0
 77
     0
 78
     0
  0
ENDTAB
  0
TABLE
  2
LTYPE
 70
     3
  0
LTYPE
  2
CONTINUOUS
 70
     0
  3
Solid Line
 72
    65
 73
     0
 40
0.0
  0
LTYPE
  2
31
 70
     0
  3

 72
    65
 73
     4
 40
2.1
 49
1.5
 49
-0.3
 49
0.0
 49
-0.3
  0
LTYPE
  2
22
 70
     0
  3

 72
    65
 73
     2
 40
1.4
 49
1.2
 49
-0.2
  0
ENDTAB
  0
TABLE
  2
LAYER
 70
     9
  0
LAYER
  2
0
 70
     0
 62
     7
  6
CONTINUOUS
  0
LAYER
  2
DEFPOINTS
 70
     0
 62
     7
  6
CONTINUOUS
  0
LAYER
  2
TEAM-BODY
 70
     0
 62
     2
  6
CONTINUOUS
  0
LAYER
  2
TEAM-AXE
 70
     0
 62
    10
  6
31
  0
LAYER
  2
TEAM-MAS
 70
     0
 62
     9
  6
CONTINUOUS
  0
LAYER
  2
TEAM-TXT
 70
     0
 62
    11
  6
CONTINUOUS
  0
LAYER
  2
TEAM-DET1
 70
     0
 62
     4
  6
CONTINUOUS
  0
LAYER
  2
TEAM-HIDE
 70
     0
 62
     8
  6
22
  0
LAYER
  2
TEAM-INSP
 70
     0
 62
     5
  6
CONTINUOUS
  0
ENDTAB
  0
TABLE
  2
STYLE
 70
     2
  0
STYLE
  2
STANDARD
 70
     0
 40
0.0
 41
1.0
 50
0.0
 71
     0
 42
200.0
  3
txt
  4

  0
STYLE
  2
TEAM
 70
     0
 40
0.0
 41
0.8
 50
15.0
 71
     0
 42
7.0
  3
ROMANS.shx
  4

  0
ENDTAB
  0
TABLE
  2
VIEW
 70
     0
  0
ENDTAB
  0
TABLE
  2
UCS
 70
     0
  0
ENDTAB
  0
TABLE
  2
APPID
 70
     3
  0
APPID
  2
ACAD
 70
     0
  0
APPID
  2
GENIUS_GENODEF_13
 70
     0
  0
APPID
  2
GENIUS_GENOBJ-N-FIL_13
 70
     0
  0
ENDTAB
  0
TABLE
  2
DIMSTYLE
 70
     1
  0
DIMSTYLE
  2
TEAM
 70
     0
  3

  4

  5

  6

  7

 40
1.0
 41
20.0
 42
10.0
 43
1.0
 44
1.0
 45
0.0
 46
0.0
 47
0.0
 48
0.0
140
35.0
141
1.0
142
0.0
143
25.4
144
1.0
145
0.0
146
1.0
147
15.0
 71
     0
 72
     0
 73
     0
 74
     0
 75
     0
 76
     0
 77
     0
 78
     0
170
     0
171
     2
172
     0
173
     0
174
     0
175
     0
176
     9
177
     9
178
    11
  0
ENDTAB
  0
ENDSEC
  0
SECTION
  2
BLOCKS
  0
BLOCK
  8
0
  2
$MODEL_SPACE
 70
     0
 10
0.0
 20
0.0
 30
0.0
  3
$MODEL_SPACE
  1

  0
ENDBLK
  5
192
  8
0
  0
BLOCK
 67
     1
  8
0
  2
$PAPER_SPACE
 70
     0
 10
0.0
 20
0.0
 30
0.0
  3
$PAPER_SPACE
  1

  0
ENDBLK
  5
190
 67
     1
  8
0
  0
BLOCK
  8
0
  2
*D0
 70
     1
 10
0.0
 20
0.0
 30
0.0
  3
*D0
  1

  0
LINE
  5
6E
  8
0
  6
BYBLOCK
 62
     9
 10
-210.0
 20
471600.0
 30
0.0
 11
-210.0
 21
471516.843154
 31
0.0
  0
LINE
  5
6F
  8
0
  6
BYBLOCK
 62
     9
 10
210.0
 20
471600.0
 30
0.0
 11
210.0
 21
471516.843154
 31
0.0
  0
LINE
  5
70
  8
0
  6
BYBLOCK
 62
     9
 10
-190.0
 20
471517.843154
 30
0.0
 11
-48.26378
 21
471517.843154
 31
0.0
  0
LINE
  5
71
  8
0
  6
BYBLOCK
 62
     9
 10
190.0
 20
471517.843154
 30
0.0
 11
48.26378
 21
471517.843154
 31
0.0
  0
SOLID
  5
72
  8
0
  6
BYBLOCK
 62
     9
 10
-190.0
 20
471521.176487
 30
0.0
 11
-190.0
 21
471514.50982
 31
0.0
 12
-210.0
 22
471517.843154
 32
0.0
 13
-210.0
 23
471517.843154
 33
0.0
  0
SOLID
  5
73
  8
0
  6
BYBLOCK
 62
     9
 10
190.0
 20
471521.176487
 30
0.0
 11
190.0
 21
471514.50982
 31
0.0
 12
210.0
 22
471517.843154
 32
0.0
 13
210.0
 23
471517.843154
 33
0.0
  0
TEXT
  5
74
  8
0
  6
BYBLOCK
 62
    11
 10
-38.51378
 20
471500.343154
 30
0.0
 40
35.0
  1
420
  0
POINT
  5
75
  8
DEFPOINTS
  6
BYBLOCK
 62
     0
 10
-210.0
 20
471610.0
 30
0.0
  0
POINT
  5
76
  8
DEFPOINTS
  6
BYBLOCK
 62
     0
 10
210.0
 20
471610.0
 30
0.0
  0
POINT
  5
77
  8
DEFPOINTS
  6
BYBLOCK
 62
     0
 10
210.0
 20
471517.843154
 30
0.0
  0
ENDBLK
  5
79
  8
0
  0
BLOCK
  8
0
  2
*D1
 70
     1
 10
0.0
 20
0.0
 30
0.0
  3
*D1
  1

  0
LINE
  5
60
  8
0
  6
BYBLOCK
 62
     9
 10
190.0
 20
471580.0
 30
0.0
 11
327.894429
 21
471580.0
 31
0.0
  0
LINE
  5
61
  8
0
  6
BYBLOCK
 62
     9
 10
10.0
 20
472000.0
 30
0.0
 11
327.894429
 21
472000.0
 31
0.0
  0
LINE
  5
62
  8
0
  6
BYBLOCK
 62
     9
 10
326.894429
 20
471600.0
 30
0.0
 11
326.894429
 21
471741.73622
 31
0.0
  0
LINE
  5
63
  8
0
  6
BYBLOCK
 62
     9
 10
326.894429
 20
471980.0
 30
0.0
 11
326.894429
 21
471838.26378
 31
0.0
  0
SOLID
  5
64
  8
0
  6
BYBLOCK
 62
     9
 10
323.561095
 20
471600.0
 30
0.0
 11
330.227762
 21
471600.0
 31
0.0
 12
326.894429
 22
471580.0
 32
0.0
 13
326.894429
 23
471580.0
 33
0.0
  0
SOLID
  5
65
  8
0
  6
BYBLOCK
 62
     9
 10
323.561095
 20
471980.0
 30
0.0
 11
330.227762
 21
471980.0
 31
0.0
 12
326.894429
 22
472000.0
 32
0.0
 13
326.894429
 23
472000.0
 33
0.0
  0
TEXT
  5
66
  8
0
  6
BYBLOCK
 62
    11
 10
344.394429
 20
471751.48622
 30
0.0
 40
35.0
  1
420
 50
90.0
  0
POINT
  5
67
  8
DEFPOINTS
  6
BYBLOCK
 62
     0
 10
180.0
 20
471580.0
 30
0.0
  0
POINT
  5
68
  8
DEFPOINTS
  6
BYBLOCK
 62
     0
 10
0.0
 20
472000.0
 30
0.0
  0
POINT
  5
69
  8
DEFPOINTS
  6
BYBLOCK
 62
     0
 10
326.894429
 20
472000.0
 30
0.0
  0
ENDBLK
  5
6B
  8
0
  0
BLOCK
  8
0
  2
*D2
 70
     1
 10
0.0
 20
0.0
 30
0.0
  3
*D2
  1

  0
LINE
  5
51
  8
0
  6
BYBLOCK
 62
     9
 10
-177.5
 20
472000.0
 30
0.0
 11
-256.115781
 21
472000.0
 31
0.0
  0
LINE
  5
52
  8
0
  6
BYBLOCK
 62
     9
 10
-10.0
 20
471790.0
 30
0.0
 11
-256.115781
 21
471790.0
 31
0.0
  0
LINE
  5
53
  8
0
  6
BYBLOCK
 62
     9
 10
-255.115781
 20
471980.0
 30
0.0
 11
-255.115781
 21
471938.458169
 31
0.0
  0
LINE
  5
54
  8
0
  6
BYBLOCK
 62
     9
 10
-255.115781
 20
471810.0
 30
0.0
 11
-255.115781
 21
471851.541831
 31
0.0
  0
SOLID
  5
55
  8
0
  6
BYBLOCK
 62
     9
 10
-258.449114
 20
471980.0
 30
0.0
 11
-251.782448
 21
471980.0
 31
0.0
 12
-255.115781
 22
472000.0
 32
0.0
 13
-255.115781
 23
472000.0
 33
0.0
  0
SOLID
  5
56
  8
0
  6
BYBLOCK
 62
     9
 10
-258.449114
 20
471810.0
 30
0.0
 11
-251.782448
 21
471810.0
 31
0.0
 12
-255.115781
 22
471790.0
 32
0.0
 13
-255.115781
 23
471790.0
 33
0.0
  0
TEXT
  5
57
  8
0
  6
BYBLOCK
 62
    11
 10
-237.615781
 20
471862.18061
 30
0.0
 40
35.0
  1
210
 50
90.0
  0
POINT
  5
58
  8
DEFPOINTS
  6
BYBLOCK
 62
     0
 10
-167.5
 20
472000.0
 30
0.0
  0
POINT
  5
5A
  8
DEFPOINTS
  6
BYBLOCK
 62
     0
 10
0.0
 20
471790.0
 30
0.0
  0
POINT
  5
5B
  8
DEFPOINTS
  6
BYBLOCK
 62
     0
 10
-255.115781
 20
471790.0
 30
0.0
  0
ENDBLK
  5
5D
  8
0
  0
ENDSEC
  0
SECTION
  2
ENTITIES
  0
TEXT
  5
20
  8
TEAM-TXT
 10
-73.265763
 20
-397.386693
 30
0.0
 40
30.0
  1
team 234058
 41
0.8
 51
15.0
  7
TEAM
  0
LINE
  5
23
  8
0
 10
-81.159918
 20
-148.357702
 30
0.0
 11
-81.159918
 21
-148.357702
 31
0.0
  0
LINE
  5
24
  8
0
 10
-81.159918
 20
-148.357702
 30
0.0
 11
-81.159918
 21
-148.357702
 31
0.0
  0
LINE
  5
25
  8
TEAM-HIDE
 10
77.68
 20
-309.248157
 30
0.0
 11
-77.713648
 21
-309.248157
 31
0.0
  0
ARC
  5
28
  8
TEAM-HIDE
 10
-77.713648
 20
-272.268159
 30
0.0
 40
36.979998
 50
180.0
 51
270.0
1001
GENIUS_GENOBJ-N-FIL_13
1002
{
1000
OWNER
1000
GEN
1002
}
1001
GENIUS_GENODEF_13
1002
{
1000
HIER
1070
     0
1002
}
1002
{
1000
MANEDIT
1070
     0
1002
}
1002
{
1000
NOSEL
1070
     0
1002
}
1002
{
1000
BEHIND
1070
     0
1002
}
1002
{
1000
OTHER
1070
     0
1002
}
1002
{
1000
REACTOR
1002
}
  0
ARC
  5
2B
  8
TEAM-HIDE
 10
-77.68
 20
-272.68
 30
0.0
 40
50.0
 50
180.0
 51
270.0
1001
GENIUS_GENODEF_13
1002
{
1000
HIER
1070
     0
1002
}
1002
{
1000
MANEDIT
1070
     0
1002
}
1002
{
1000
NOSEL
1070
     0
1002
}
1002
{
1000
BEHIND
1070
     0
1002
}
1002
{
1000
OTHER
1070
     0
1002
}
1002
{
1000
REACTOR
1002
}
1001
GENIUS_GENOBJ-N-FIL_13
1002
{
1000
OWNER
1000
GEN
1002
}
  0
LINE
  5
2C
  8
TEAM-HIDE
 10
-77.68
 20
-322.68
 30
0.0
 11
77.68
 21
-322.68
 31
0.0
  0
ARC
  5
2D
  8
TEAM-HIDE
 10
0.0
 20
-210.0
 30
0.0
 40
67.897013
 50
180.0
 51
0.0
  0
ARC
  5
2E
  8
TEAM-HIDE
 10
0.0
 20
-210.0
 30
0.0
 40
54.721302
 50
180.0
 51
0.0
  0
LINE
  5
2F
  8
TEAM-HIDE
 10
114.659998
 20
-147.32
 30
0.0
 11
114.659998
 21
-272.268159
 31
0.0
  0
ARC
  5
30
  8
TEAM-HIDE
 10
77.68
 20
-272.268159
 30
0.0
 40
36.979998
 50
270.0
 51
0.0
1001
GENIUS_GENOBJ-N-FIL_13
1002
{
1000
OWNER
1000
GEN
1002
}
1001
GENIUS_GENODEF_13
1002
{
1000
HIER
1070
     0
1002
}
1002
{
1000
MANEDIT
1070
     0
1002
}
1002
{
1000
NOSEL
1070
     0
1002
}
1002
{
1000
BEHIND
1070
     0
1002
}
1002
{
1000
OTHER
1070
     0
1002
}
1002
{
1000
REACTOR
1002
}
  0
ARC
  5
31
  8
TEAM-HIDE
 10
77.68
 20
-272.68
 30
0.0
 40
50.0
 50
270.0
 51
360.0
1001
GENIUS_GENODEF_13
1002
{
1000
HIER
1070
     0
1002
}
1002
{
1000
MANEDIT
1070
     0
1002
}
1002
{
1000
NOSEL
1070
     0
1002
}
1002
{
1000
BEHIND
1070
     0
1002
}
1002
{
1000
OTHER
1070
     0
1002
}
1002
{
1000
REACTOR
1002
}
1001
GENIUS_GENOBJ-N-FIL_13
1002
{
1000
OWNER
1000
GEN
1002
}
  0
LINE
  5
32
  8
TEAM-HIDE
 10
127.68
 20
-272.68
 30
0.0
 11
127.68
 21
-147.32
 31
0.0
  0
LINE
  5
33
  8
TEAM-HIDE
 10
-77.713648
 20
-110.340002
 30
0.0
 11
77.68
 21
-110.340002
 31
0.0
  0
ARC
  5
34
  8
TEAM-HIDE
 10
77.68
 20
-147.32
 30
0.0
 40
36.979998
 50
0.0
 51
90.0
1001
GENIUS_GENOBJ-N-FIL_13
1002
{
1000
OWNER
1000
GEN
1002
}
1001
GENIUS_GENODEF_13
1002
{
1000
HIER
1070
     0
1002
}
1002
{
1000
MANEDIT
1070
     0
1002
}
1002
{
1000
NOSEL
1070
     0
1002
}
1002
{
1000
BEHIND
1070
     0
1002
}
1002
{
1000
OTHER
1070
     0
1002
}
1002
{
1000
REACTOR
1002
}
  0
ARC
  5
35
  8
TEAM-HIDE
 10
77.68
 20
-147.32
 30
0.0
 40
50.0
 50
0.0
 51
90.0
1001
GENIUS_GENOBJ-N-FIL_13
1002
{
1000
OWNER
1000
GEN
1002
}
1001
GENIUS_GENODEF_13
1002
{
1000
HIER
1070
     0
1002
}
1002
{
1000
MANEDIT
1070
     0
1002
}
1002
{
1000
NOSEL
1070
     0
1002
}
1002
{
1000
BEHIND
1070
     0
1002
}
1002
{
1000
OTHER
1070
     0
1002
}
1002
{
1000
REACTOR
1002
}
  0
LINE
  5
36
  8
TEAM-HIDE
 10
-77.68
 20
-97.32
 30
0.0
 11
77.68
 21
-97.32
 31
0.0
  0
LINE
  5
37
  8
TEAM-HIDE
 10
-114.693647
 20
-272.268159
 30
0.0
 11
-114.693647
 21
-147.32
 31
0.0
  0
ARC
  5
38
  8
TEAM-HIDE
 10
-77.713648
 20
-147.32
 30
0.0
 40
36.979998
 50
90.0
 51
180.0
1001
GENIUS_GENOBJ-N-FIL_13
1002
{
1000
OWNER
1000
GEN
1002
}
1001
GENIUS_GENODEF_13
1002
{
1000
HIER
1070
     0
1002
}
1002
{
1000
MANEDIT
1070
     0
1002
}
1002
{
1000
NOSEL
1070
     0
1002
}
1002
{
1000
BEHIND
1070
     0
1002
}
1002
{
1000
OTHER
1070
     0
1002
}
1002
{
1000
REACTOR
1002
}
  0
ARC
  5
39
  8
TEAM-HIDE
 10
-77.68
 20
-147.32
 30
0.0
 40
50.0
 50
90.0
 51
180.0
1001
GENIUS_GENOBJ-N-FIL_13
1002
{
1000
OWNER
1000
GEN
1002
}
1001
GENIUS_GENODEF_13
1002
{
1000
HIER
1070
     0
1002
}
1002
{
1000
MANEDIT
1070
     0
1002
}
1002
{
1000
NOSEL
1070
     0
1002
}
1002
{
1000
BEHIND
1070
     0
1002
}
1002
{
1000
OTHER
1070
     0
1002
}
1002
{
1000
REACTOR
1002
}
  0
LINE
  5
3A
  8
TEAM-HIDE
 10
-127.68
 20
-272.68
 30
0.0
 11
-127.68
 21
-147.32
 31
0.0
  0
LINE
  5
3B
  8
TEAM-HIDE
 10
-54.721302
 20
-210.0
 30
0.0
 11
-67.897013
 21
-210.0
 31
0.0
  0
CIRCLE
  5
3C
  8
TEAM-HIDE
 10
81.159918
 20
-148.357702
 30
0.0
 40
8.969058
  0
CIRCLE
  5
3D
  8
TEAM-HIDE
 10
-81.159918
 20
-148.357702
 30
0.0
 40
8.969058
  0
CIRCLE
  5
3E
  8
TEAM-BODY
 10
0.0
 20
-210.0
 30
0.0
 40
26.0
  0
CIRCLE
  5
40
  8
TEAM-DET1
 10
0.0
 20
-210.0
 30
0.0
 40
37.5
  0
POLYLINE
  5
42
  8
TEAM-DET1
 66
     1
 10
0.0
 20
0.0
 30
0.0
 70
   129
210
0.0
220
0.0
230
-1.0
  0
VERTEX
  5
198
  8
TEAM-DET1
 10
-15.067331
 20
-24.089505
 30
0.0
  0
VERTEX
  5
199
  8
TEAM-DET1
 10
-14.795045
 20
-25.437521
 30
0.0
  0
VERTEX
  5
19A
  8
TEAM-DET1
 10
-13.988027
 20
-26.736816
 30
0.0
  0
VERTEX
  5
19B
  8
TEAM-DET1
 10
-12.675446
 20
-27.94043
 30
0.0
  0
VERTEX
  5
19C
  8
TEAM-DET1
 10
-10.90474
 20
-29.004862
 30
0.0
  0
VERTEX
  5
19D
  8
TEAM-DET1
 10
-8.73991
 20
-29.89164
 30
0.0
  0
VERTEX
  5
19E
  8
TEAM-DET1
 10
-6.259196
 20
-30.568714
 30
0.0
  0
VERTEX
  5
19F
  8
TEAM-DET1
 10
-3.552258
 20
-31.011612
 30
0.0
  0
VERTEX
  5
1A0
  8
TEAM-DET1
 10
-0.716932
 20
-31.204327
 30
0.0
  0
VERTEX
  5
1A1
  8
TEAM-DET1
 10
2.144305
 20
-31.139894
 30
0.0
  0
VERTEX
  5
1A2
  8
TEAM-DET1
 10
4.928041
 20
-30.820642
 30
0.0
  0
VERTEX
  5
1A3
  8
TEAM-DET1
 10
7.533666
 20
-30.258109
 30
0.0
  0
VERTEX
  5
1A4
  8
TEAM-DET1
 10
9.867004
 20
-29.472626
 30
0.0
  0
VERTEX
  5
1A5
  8
TEAM-DET1
 10
11.843722
 20
-28.492583
 30
0.0
  0
VERTEX
  5
1A6
  8
TEAM-DET1
 10
13.392378
 20
-27.353402
 30
0.0
  0
VERTEX
  5
1A7
  8
TEAM-DET1
 10
14.456998
 20
-26.096255
 30
0.0
  0
VERTEX
  5
1A8
  8
TEAM-DET1
 10
14.999105
 20
-24.766579
 30
0.0
  0
VERTEX
  5
1A9
  8
TEAM-DET1
 10
14.999105
 20
-23.412431
 30
0.0
  0
VERTEX
  5
1AA
  8
TEAM-DET1
 10
14.456998
 20
-22.082755
 30
0.0
  0
VERTEX
  5
1AB
  8
TEAM-DET1
 10
13.392378
 20
-20.825608
 30
0.0
  0
VERTEX
  5
1AC
  8
TEAM-DET1
 10
11.843722
 20
-19.686427
 30
0.0
  0
VERTEX
  5
1AD
  8
TEAM-DET1
 10
9.867004
 20
-18.706384
 30
0.0
  0
VERTEX
  5
1AE
  8
TEAM-DET1
 10
7.533666
 20
-17.920902
 30
0.0
  0
VERTEX
  5
1AF
  8
TEAM-DET1
 10
4.928041
 20
-17.358369
 30
0.0
  0
VERTEX
  5
1B0
  8
TEAM-DET1
 10
2.144305
 20
-17.039116
 30
0.0
  0
VERTEX
  5
1B1
  8
TEAM-DET1
 10
-0.716932
 20
-16.974683
 30
0.0
  0
VERTEX
  5
1B2
  8
TEAM-DET1
 10
-3.552258
 20
-17.167399
 30
0.0
  0
VERTEX
  5
1B3
  8
TEAM-DET1
 10
-6.259196
 20
-17.610297
 30
0.0
  0
VERTEX
  5
1B4
  8
TEAM-DET1
 10
-8.73991
 20
-18.28737
 30
0.0
  0
VERTEX
  5
1B5
  8
TEAM-DET1
 10
-10.90474
 20
-19.174148
 30
0.0
  0
VERTEX
  5
1B6
  8
TEAM-DET1
 10
-12.675446
 20
-20.23858
 30
0.0
  0
VERTEX
  5
1B7
  8
TEAM-DET1
 10
-13.988027
 20
-21.442194
 30
0.0
  0
VERTEX
  5
1B8
  8
TEAM-DET1
 10
-14.795045
 20
-22.741489
 30
0.0
  0
SEQEND
  5
1B9
  8
TEAM-DET1
  0
LINE
  5
43
  8
TEAM-AXE
 10
81.159918
 20
-167.610254
 30
0.0
 11
81.159918
 21
-130.949472
 31
0.0
  0
LINE
  5
46
  8
TEAM-AXE
 10
65.023534
 20
-148.357702
 30
0.0
 11
97.744536
 21
-148.357702
 31
0.0
  0
LINE
  5
47
  8
TEAM-AXE
 10
-81.159918
 20
-167.610254
 30
0.0
 11
-81.159918
 21
-130.949472
 31
0.0
  0
LINE
  5
48
  8
TEAM-AXE
 10
-65.023534
 20
-148.357702
 30
0.0
 11
-97.744536
 21
-148.357702
 31
0.0
  0
LINE
  5
49
  8
TEAM-AXE
 10
0.0
 20
-266.132227
 30
0.0
 11
0.0
 21
-158.629842
 31
0.0
  0
LINE
  5
4A
  8
TEAM-AXE
 10
47.721554
 20
-210.0
 30
0.0
 11
-48.905523
 21
-210.0
 31
0.0
  0
LINE
  5
4B
  8
TEAM-HIDE
 10
54.721302
 20
-210.0
 30
0.0
 11
67.897013
 21
-210.0
 31
0.0
  0
POLYLINE
  5
4C
  8
TEAM-BODY
 66
     1
 10
0.0
 20
0.0
 30
0.0
 70
     1
  0
VERTEX
  5
1BA
  8
TEAM-BODY
 10
210.0
 20
-30.0
 30
0.0
 42
0.414214
  0
VERTEX
  5
1BB
  8
TEAM-BODY
 10
180.0
 20
0.0
 30
0.0
  0
VERTEX
  5
1BC
  8
TEAM-BODY
 10
-180.0
 20
0.0
 30
0.0
 42
0.414214
  0
VERTEX
  5
1BD
  8
TEAM-BODY
 10
-210.0
 20
-30.0
 30
0.0
  0
VERTEX
  5
1BE
  8
TEAM-BODY
 10
-210.0
 20
-390.0
 30
0.0
 42
0.414214
  0
VERTEX
  5
1BF
  8
TEAM-BODY
 10
-180.0
 20
-420.0
 30
0.0
  0
VERTEX
  5
1C0
  8
TEAM-BODY
 10
180.0
 20
-420.0
 30
0.0
 42
0.414214
  0
VERTEX
  5
1C1
  8
TEAM-BODY
 10
210.0
 20
-390.0
 30
0.0
  0
SEQEND
  5
1C2
  8
TEAM-BODY
  0
CIRCLE
  5
4D
  8
TEAM-INSP
 10
0.0
 20
0.0
 30
0.0
 40
10.0
  0
DIMENSION
  5
4F
  8
TEAM-MAS
  2
*D2
 10
-255.115781
 20
-210.0
 30
0.0
 11
-255.115781
 21
-105.0
 31
0.0
 12
0.0
 22
-472000.0
 32
0.0
 13
-167.5
 23
0.0
 33
0.0
 14
0.0
 24
-210.0
 34
0.0
 50
90.0
1001
ACAD
1000
DSTYLE
1002
{
1070
    40
1040
1.0
1002
}
  0
DIMENSION
  5
5E
  8
TEAM-MAS
  2
*D1
 10
326.894429
 20
0.0
 30
0.0
 11
326.894429
 21
-210.0
 31
0.0
 12
0.0
 22
-472000.0
 32
0.0
 13
180.0
 23
-420.0
 33
0.0
 14
0.0
 24
0.0
 34
0.0
 50
90.0
1001
ACAD
1000
DSTYLE
1002
{
1070
    40
1040
1.0
1002
}
  0
DIMENSION
  5
6C
  8
TEAM-MAS
  2
*D0
 10
210.0
 20
-482.156846
 30
0.0
 11
0.0
 21
-482.156846
 31
0.0
 12
0.0
 22
-472000.0
 32
0.0
 13
-210.0
 23
-390.0
 33
0.0
 14
210.0
 24
-390.0
 34
0.0
1001
ACAD
1000
DSTYLE
1002
{
1070
    40
1040
1.0
1002
}
  0
ENDSEC
  0
EOF
