  0
SECTION
  2
HEADER
  9
$ACADVER
  1
AC1009
  9
$INSBASE
 10
0.0
 20
0.0
 30
0.0
  9
$EXTMIN
 10
-350.028055
 20
-559.152799
 30
-0.000006
  9
$EXTMAX
 10
499.571185
 20
10.007996
 30
0.0
  9
$LIMMIN
 10
-350.028055
 20
-559.152799
  9
$LIMMAX
 10
499.571185
 20
10.007996
  9
$ORTHOMODE
 70
     1
  9
$REGENMODE
 70
     1
  9
$FILLMODE
 70
     1
  9
$QTEXTMODE
 70
     0
  9
$MIRRTEXT
 70
     0
  9
$DRAGMODE
 70
     2
  9
$LTSCALE
 40
50.0
  9
$OSMODE
 70
     7
  9
$ATTMODE
 70
     1
  9
$TEXTSIZE
 40
200.0
  9
$TRACEWID
 40
1.0
  9
$TEXTSTYLE
  7
STANDARD
  9
$CLAYER
  8
TEAM-MAS
  9
$CELTYPE
  6
BYLAYER
  9
$CECOLOR
 62
   256
  9
$DIMSCALE
 40
1.0
  9
$DIMASZ
 40
20.0
  9
$DIMEXO
 40
10.0
  9
$DIMDLI
 40
1.0
  9
$DIMRND
 40
0.0
  9
$DIMDLE
 40
0.0
  9
$DIMEXE
 40
1.0
  9
$DIMTP
 40
0.0
  9
$DIMTM
 40
0.0
  9
$DIMTXT
 40
35.0
  9
$DIMCEN
 40
1.0
  9
$DIMTSZ
 40
0.0
  9
$DIMTOL
 70
     0
  9
$DIMLIM
 70
     0
  9
$DIMTIH
 70
     0
  9
$DIMTOH
 70
     0
  9
$DIMSE1
 70
     0
  9
$DIMSE2
 70
     0
  9
$DIMTAD
 70
     0
  9
$DIMZIN
 70
     0
  9
$DIMBLK
  1

  9
$DIMASO
 70
     1
  9
$DIMSHO
 70
     0
  9
$DIMPOST
  1

  9
$DIMAPOST
  1

  9
$DIMALT
 70
     0
  9
$DIMALTD
 70
     2
  9
$DIMALTF
 40
25.4
  9
$DIMLFAC
 40
1.0
  9
$DIMTOFL
 70
     0
  9
$DIMTVP
 40
0.0
  9
$DIMTIX
 70
     0
  9
$DIMSOXD
 70
     0
  9
$DIMSAH
 70
     0
  9
$DIMBLK1
  1

  9
$DIMBLK2
  1

  9
$DIMSTYLE
  2
TEAM
  9
$DIMCLRD
 70
     9
  9
$DIMCLRE
 70
     9
  9
$DIMCLRT
 70
    11
  9
$DIMTFAC
 40
1.0
  9
$DIMGAP
 40
7.0
  9
$LUNITS
 70
     2
  9
$LUPREC
 70
     1
  9
$SKETCHINC
 40
1.0
  9
$FILLETRAD
 40
44.0
  9
$AUNITS
 70
     0
  9
$AUPREC
 70
     0
  9
$MENU
  1
ROPLANS
  9
$ELEVATION
 40
0.0
  9
$PELEVATION
 40
0.0
  9
$THICKNESS
 40
0.0
  9
$LIMCHECK
 70
     0
  9
$BLIPMODE
 70
     1
  9
$CHAMFERA
 40
0.0
  9
$CHAMFERB
 40
0.0
  9
$SKPOLY
 70
     0
  9
$TDCREATE
 40
2450392.957851
  9
$TDUPDATE
 40
2455981.928629
  9
$TDINDWG
 40
3.777306
  9
$TDUSRTIMER
 40
3.777306
  9
$USRTIMER
 70
     1
  9
$ANGBASE
 50
0.0
  9
$ANGDIR
 70
     0
  9
$PDMODE
 70
     0
  9
$PDSIZE
 40
0.0
  9
$PLINEWID
 40
0.0
  9
$COORDS
 70
     2
  9
$SPLFRAME
 70
     0
  9
$SPLINETYPE
 70
     6
  9
$SPLINESEGS
 70
     8
  9
$ATTDIA
 70
     0
  9
$ATTREQ
 70
     0
  9
$HANDLING
 70
     1
  9
$HANDSEED
  5
12D
  9
$SURFTAB1
 70
    36
  9
$SURFTAB2
 70
    36
  9
$SURFTYPE
 70
     6
  9
$SURFU
 70
     6
  9
$SURFV
 70
     6
  9
$UCSNAME
  2

  9
$UCSORG
 10
0.0
 20
0.0
 30
0.0
  9
$UCSXDIR
 10
1.0
 20
0.0
 30
0.0
  9
$UCSYDIR
 10
0.0
 20
1.0
 30
0.0
  9
$PUCSNAME
  2

  9
$PUCSORG
 10
0.0
 20
0.0
 30
0.0
  9
$PUCSXDIR
 10
1.0
 20
0.0
 30
0.0
  9
$PUCSYDIR
 10
0.0
 20
1.0
 30
0.0
  9
$USERI1
 70
     0
  9
$USERI2
 70
     0
  9
$USERI3
 70
     0
  9
$USERI4
 70
     0
  9
$USERI5
 70
     0
  9
$USERR1
 40
0.0
  9
$USERR2
 40
0.0
  9
$USERR3
 40
0.0
  9
$USERR4
 40
0.0
  9
$USERR5
 40
0.0
  9
$WORLDVIEW
 70
     1
  9
$SHADEDGE
 70
     0
  9
$SHADEDIF
 70
    70
  9
$TILEMODE
 70
     1
  9
$MAXACTVP
 70
    16
  9
$PLIMCHECK
 70
     0
  9
$PEXTMIN
 10
-0.805942
 20
0.005011
 30
0.0
  9
$PEXTMAX
 10
20.250094
 20
11.356329
 30
0.0
  9
$PLIMMIN
 10
0.0
 20
0.0
  9
$PLIMMAX
 10
12.0
 20
9.0
  9
$UNITMODE
 70
     0
  9
$VISRETAIN
 70
     0
  9
$PLINEGEN
 70
     0
  9
$PSLTSCALE
 70
     0
  0
ENDSEC
  0
SECTION
  2
TABLES
  0
TABLE
  2
VPORT
 70
     2
  0
VPORT
  2
*ACTIVE
 70
     0
 10
0.0
 20
0.0
 11
1.0
 21
1.0
 12
74.771565
 22
-274.572401
 13
0.0
 23
0.0
 14
1.0
 24
1.0
 15
50.0
 25
50.0
 16
0.0
 26
0.0
 36
1.0
 17
0.0
 27
0.0
 37
0.0
 40
572.729202
 41
1.903766
 42
50.0
 43
0.0
 44
0.0
 50
0.0
 51
0.0
 71
     0
 72
   100
 73
     1
 74
     1
 75
     0
 76
     0
 77
     0
 78
     0
  0
ENDTAB
  0
TABLE
  2
LTYPE
 70
     2
  0
LTYPE
  2
CONTINUOUS
 70
     0
  3
Solid Line
 72
    65
 73
     0
 40
0.0
  0
LTYPE
  2
31
 70
     0
  3

 72
    65
 73
     4
 40
2.1
 49
1.5
 49
-0.3
 49
0.0
 49
-0.3
  0
ENDTAB
  0
TABLE
  2
LAYER
 70
     8
  0
LAYER
  2
0
 70
     0
 62
     7
  6
CONTINUOUS
  0
LAYER
  2
DEFPOINTS
 70
     0
 62
     7
  6
CONTINUOUS
  0
LAYER
  2
TEAM-BODY
 70
     0
 62
     2
  6
CONTINUOUS
  0
LAYER
  2
TEAM-AXE
 70
     0
 62
    10
  6
31
  0
LAYER
  2
TEAM-MAS
 70
     0
 62
     9
  6
CONTINUOUS
  0
LAYER
  2
TEAM-TXT
 70
     0
 62
    11
  6
CONTINUOUS
  0
LAYER
  2
TEAM-DET1
 70
     0
 62
     4
  6
CONTINUOUS
  0
LAYER
  2
TEAM-INSP
 70
     0
 62
     5
  6
CONTINUOUS
  0
ENDTAB
  0
TABLE
  2
STYLE
 70
     2
  0
STYLE
  2
STANDARD
 70
     0
 40
0.0
 41
1.0
 50
0.0
 71
     0
 42
200.0
  3
txt
  4

  0
STYLE
  2
TEAM
 70
     0
 40
0.0
 41
0.8
 50
15.0
 71
     0
 42
7.0
  3
ROMANS.shx
  4

  0
ENDTAB
  0
TABLE
  2
VIEW
 70
     0
  0
ENDTAB
  0
TABLE
  2
UCS
 70
     0
  0
ENDTAB
  0
TABLE
  2
APPID
 70
     1
  0
APPID
  2
ACAD
 70
     0
  0
ENDTAB
  0
TABLE
  2
DIMSTYLE
 70
     1
  0
DIMSTYLE
  2
TEAM
 70
     0
  3

  4

  5

  6

  7

 40
1.0
 41
20.0
 42
10.0
 43
1.0
 44
1.0
 45
0.0
 46
0.0
 47
0.0
 48
0.0
140
35.0
141
1.0
142
0.0
143
25.4
144
1.0
145
0.0
146
1.0
147
7.0
 71
     0
 72
     0
 73
     0
 74
     0
 75
     0
 76
     0
 77
     0
 78
     0
170
     0
171
     2
172
     0
173
     0
174
     0
175
     0
176
     9
177
     9
178
    11
  0
ENDTAB
  0
ENDSEC
  0
SECTION
  2
BLOCKS
  0
BLOCK
  8
0
  2
$MODEL_SPACE
 70
     0
 10
0.0
 20
0.0
 30
0.0
  3
$MODEL_SPACE
  1

  0
ENDBLK
  5
FD
  8
0
  0
BLOCK
 67
     1
  8
0
  2
$PAPER_SPACE
 70
     0
 10
0.0
 20
0.0
 30
0.0
  3
$PAPER_SPACE
  1

  0
ENDBLK
  5
FB
 67
     1
  8
0
  0
BLOCK
  8
0
  2
*D0
 70
     1
 10
0.0
 20
0.0
 30
0.0
  3
*D0
  1

  0
LINE
  5
37
  8
0
  6
BYBLOCK
 62
     9
 10
3684.0
 20
235569.0
 30
0.0
 11
3684.0
 21
235504.250761
 31
0.0
  0
LINE
  5
38
  8
0
  6
BYBLOCK
 62
     9
 10
4316.0
 20
235569.0
 30
0.0
 11
4316.0
 21
235504.250761
 31
0.0
  0
LINE
  5
39
  8
0
  6
BYBLOCK
 62
     9
 10
3704.0
 20
235505.250761
 30
0.0
 11
3946.333333
 21
235505.250761
 31
0.0
  0
LINE
  5
3A
  8
0
  6
BYBLOCK
 62
     9
 10
4296.0
 20
235505.250761
 30
0.0
 11
4053.666667
 21
235505.250761
 31
0.0
  0
SOLID
  5
3B
  8
0
  6
BYBLOCK
 62
     9
 10
3704.0
 20
235508.584095
 30
0.0
 11
3704.0
 21
235501.917428
 31
0.0
 12
3684.0
 22
235505.250761
 32
0.0
 13
3684.0
 23
235505.250761
 33
0.0
  0
SOLID
  5
3C
  8
0
  6
BYBLOCK
 62
     9
 10
4296.0
 20
235508.584095
 30
0.0
 11
4296.0
 21
235501.917428
 31
0.0
 12
4316.0
 22
235505.250761
 32
0.0
 13
4316.0
 23
235505.250761
 33
0.0
  0
TEXT
  5
3D
  8
0
  6
BYBLOCK
 62
    11
 10
3953.333333
 20
235487.750761
 30
0.0
 40
35.0
  1
632
  0
POINT
  5
3E
  8
DEFPOINTS
  6
BYBLOCK
 62
     0
 10
3684.0
 20
235579.0
 30
0.0
  0
POINT
  5
3F
  8
DEFPOINTS
  6
BYBLOCK
 62
     0
 10
4316.0
 20
235579.0
 30
0.0
  0
POINT
  5
40
  8
DEFPOINTS
  6
BYBLOCK
 62
     0
 10
4316.0
 20
235505.250761
 30
0.0
  0
ENDBLK
  5
42
  8
0
  0
BLOCK
  8
0
  2
*D1
 70
     1
 10
0.0
 20
0.0
 30
0.0
  3
*D1
  1

  0
LINE
  5
28
  8
0
  6
BYBLOCK
 62
     9
 10
3650.0
 20
235530.0
 30
0.0
 11
3650.0
 21
235457.376107
 31
0.0
  0
LINE
  5
29
  8
0
  6
BYBLOCK
 62
     9
 10
4350.0
 20
235530.0
 30
0.0
 11
4350.0
 21
235457.376107
 31
0.0
  0
LINE
  5
2A
  8
0
  6
BYBLOCK
 62
     9
 10
3670.0
 20
235458.376107
 30
0.0
 11
3952.166667
 21
235458.376107
 31
0.0
  0
LINE
  5
2B
  8
0
  6
BYBLOCK
 62
     9
 10
4330.0
 20
235458.376107
 30
0.0
 11
4047.833333
 21
235458.376107
 31
0.0
  0
SOLID
  5
2C
  8
0
  6
BYBLOCK
 62
     9
 10
3670.0
 20
235461.70944
 30
0.0
 11
3670.0
 21
235455.042773
 31
0.0
 12
3650.0
 22
235458.376107
 32
0.0
 13
3650.0
 23
235458.376107
 33
0.0
  0
SOLID
  5
2D
  8
0
  6
BYBLOCK
 62
     9
 10
4330.0
 20
235461.70944
 30
0.0
 11
4330.0
 21
235455.042773
 31
0.0
 12
4350.0
 22
235458.376107
 32
0.0
 13
4350.0
 23
235458.376107
 33
0.0
  0
TEXT
  5
2E
  8
0
  6
BYBLOCK
 62
    11
 10
3959.166667
 20
235440.876107
 30
0.0
 40
35.0
  1
700
  0
POINT
  5
2F
  8
DEFPOINTS
  6
BYBLOCK
 62
     0
 10
3650.0
 20
235540.0
 30
0.0
  0
POINT
  5
31
  8
DEFPOINTS
  6
BYBLOCK
 62
     0
 10
4350.0
 20
235540.0
 30
0.0
  0
POINT
  5
32
  8
DEFPOINTS
  6
BYBLOCK
 62
     0
 10
4350.0
 20
235458.376107
 30
0.0
  0
ENDBLK
  5
34
  8
0
  0
BLOCK
  8
0
  2
*D2
 70
     1
 10
0.0
 20
0.0
 30
0.0
  3
*D2
  1

  0
LINE
  5
6A
  8
0
  6
BYBLOCK
 62
     9
 10
4360.0
 20
235540.0
 30
0.0
 11
4483.023847
 21
235540.0
 31
0.0
  0
LINE
  5
6B
  8
0
  6
BYBLOCK
 62
     9
 10
4010.0
 20
236000.0
 30
0.0
 11
4483.023847
 21
236000.0
 31
0.0
  0
LINE
  5
6C
  8
0
  6
BYBLOCK
 62
     9
 10
4482.023847
 20
235560.0
 30
0.0
 11
4482.023847
 21
235719.25
 31
0.0
  0
LINE
  5
6D
  8
0
  6
BYBLOCK
 62
     9
 10
4482.023847
 20
235980.0
 30
0.0
 11
4482.023847
 21
235820.75
 31
0.0
  0
SOLID
  5
6E
  8
0
  6
BYBLOCK
 62
     9
 10
4478.690514
 20
235560.0
 30
0.0
 11
4485.35718
 21
235560.0
 31
0.0
 12
4482.023847
 22
235540.0
 32
0.0
 13
4482.023847
 23
235540.0
 33
0.0
  0
SOLID
  5
6F
  8
0
  6
BYBLOCK
 62
     9
 10
4478.690514
 20
235980.0
 30
0.0
 11
4485.35718
 21
235980.0
 31
0.0
 12
4482.023847
 22
236000.0
 32
0.0
 13
4482.023847
 23
236000.0
 33
0.0
  0
TEXT
  5
70
  8
0
  6
BYBLOCK
 62
    11
 10
4499.523847
 20
235726.25
 30
0.0
 40
35.0
  1
460
 50
90.0
  0
POINT
  5
71
  8
DEFPOINTS
  6
BYBLOCK
 62
     0
 10
4350.0
 20
235540.0
 30
0.0
  0
POINT
  5
72
  8
DEFPOINTS
  6
BYBLOCK
 62
     0
 10
4000.0
 20
236000.0
 30
0.0
  0
POINT
  5
73
  8
DEFPOINTS
  6
BYBLOCK
 62
     0
 10
4482.023847
 20
236000.0
 30
0.0
  0
ENDBLK
  5
75
  8
0
  0
BLOCK
  8
0
  2
*D3
 70
     1
 10
0.0
 20
0.0
 30
0.0
  3
*D3
  1

  0
LINE
  5
5C
  8
0
  6
BYBLOCK
 62
     9
 10
4326.0
 20
235574.0
 30
0.0
 11
4436.904222
 21
235574.0
 31
0.0
  0
LINE
  5
5D
  8
0
  6
BYBLOCK
 62
     9
 10
4326.0
 20
235904.0
 30
0.0
 11
4436.904222
 21
235904.0
 31
0.0
  0
LINE
  5
5E
  8
0
  6
BYBLOCK
 62
     9
 10
4435.904222
 20
235594.0
 30
0.0
 11
4435.904222
 21
235688.25
 31
0.0
  0
LINE
  5
5F
  8
0
  6
BYBLOCK
 62
     9
 10
4435.904222
 20
235884.0
 30
0.0
 11
4435.904222
 21
235789.75
 31
0.0
  0
SOLID
  5
60
  8
0
  6
BYBLOCK
 62
     9
 10
4432.570889
 20
235594.0
 30
0.0
 11
4439.237555
 21
235594.0
 31
0.0
 12
4435.904222
 22
235574.0
 32
0.0
 13
4435.904222
 23
235574.0
 33
0.0
  0
SOLID
  5
61
  8
0
  6
BYBLOCK
 62
     9
 10
4432.570889
 20
235884.0
 30
0.0
 11
4439.237555
 21
235884.0
 31
0.0
 12
4435.904222
 22
235904.0
 32
0.0
 13
4435.904222
 23
235904.0
 33
0.0
  0
TEXT
  5
62
  8
0
  6
BYBLOCK
 62
    11
 10
4453.404222
 20
235695.25
 30
0.0
 40
35.0
  1
330
 50
90.0
  0
POINT
  5
63
  8
DEFPOINTS
  6
BYBLOCK
 62
     0
 10
4316.0
 20
235574.0
 30
0.0
  0
POINT
  5
64
  8
DEFPOINTS
  6
BYBLOCK
 62
     0
 10
4316.0
 20
235904.0
 30
0.0
  0
POINT
  5
65
  8
DEFPOINTS
  6
BYBLOCK
 62
     0
 10
4435.904222
 20
235904.0
 30
0.0
  0
ENDBLK
  5
67
  8
0
  0
BLOCK
  8
0
  2
*D4
 70
     1
 10
0.0
 20
0.0
 30
0.0
  3
*D4
  1

  0
LINE
  5
4B
  8
0
  6
BYBLOCK
 62
     9
 10
4360.0
 20
236000.0
 30
0.0
 11
4391.695049
 21
236000.0
 31
0.0
  0
LINE
  5
4C
  8
0
  6
BYBLOCK
 62
     9
 10
4047.5
 20
235739.0
 30
0.0
 11
4391.695049
 21
235739.0
 31
0.0
  0
LINE
  5
4D
  8
0
  6
BYBLOCK
 62
     9
 10
4390.695049
 20
235980.0
 30
0.0
 11
4390.695049
 21
235917.333333
 31
0.0
  0
LINE
  5
4E
  8
0
  6
BYBLOCK
 62
     9
 10
4390.695049
 20
235759.0
 30
0.0
 11
4390.695049
 21
235821.666667
 31
0.0
  0
SOLID
  5
4F
  8
0
  6
BYBLOCK
 62
     9
 10
4387.361716
 20
235980.0
 30
0.0
 11
4394.028382
 21
235980.0
 31
0.0
 12
4390.695049
 22
236000.0
 32
0.0
 13
4390.695049
 23
236000.0
 33
0.0
  0
SOLID
  5
50
  8
0
  6
BYBLOCK
 62
     9
 10
4387.361716
 20
235759.0
 30
0.0
 11
4394.028382
 21
235759.0
 31
0.0
 12
4390.695049
 22
235739.0
 32
0.0
 13
4390.695049
 23
235739.0
 33
0.0
  0
TEXT
  5
51
  8
0
  6
BYBLOCK
 62
    11
 10
4408.195049
 20
235828.666667
 30
0.0
 40
35.0
  1
261
 50
90.0
  0
POINT
  5
52
  8
DEFPOINTS
  6
BYBLOCK
 62
     0
 10
4350.0
 20
236000.0
 30
0.0
  0
POINT
  5
53
  8
DEFPOINTS
  6
BYBLOCK
 62
     0
 10
4037.5
 20
235739.0
 30
0.0
  0
POINT
  5
54
  8
DEFPOINTS
  6
BYBLOCK
 62
     0
 10
4390.695049
 20
235739.0
 30
0.0
  0
ENDBLK
  5
56
  8
0
  0
ENDSEC
  0
SECTION
  2
ENTITIES
  0
POLYLINE
  5
20
  8
TEAM-BODY
 66
     1
 10
0.0
 20
0.0
 30
0.0
 70
     1
  0
VERTEX
  5
103
  8
TEAM-BODY
 10
-311.0
 20
-426.0
 30
0.0
  0
VERTEX
  5
104
  8
TEAM-BODY
 10
311.0
 20
-426.0
 30
0.0
 42
0.414214
  0
VERTEX
  5
105
  8
TEAM-BODY
 10
316.0
 20
-421.0
 30
0.0
  0
VERTEX
  5
106
  8
TEAM-BODY
 10
316.0
 20
-101.0
 30
0.0
 42
0.414214
  0
VERTEX
  5
107
  8
TEAM-BODY
 10
311.0
 20
-96.0
 30
0.0
  0
VERTEX
  5
108
  8
TEAM-BODY
 10
-311.0
 20
-96.0
 30
0.0
 42
0.414214
  0
VERTEX
  5
109
  8
TEAM-BODY
 10
-316.0
 20
-101.0
 30
0.0
  0
VERTEX
  5
10A
  8
TEAM-BODY
 10
-316.0
 20
-421.0
 30
0.0
 42
0.414214
  0
SEQEND
  5
10B
  8
TEAM-BODY
  0
POLYLINE
  5
22
  8
TEAM-BODY
 66
     1
 10
0.0
 20
0.0
 30
0.0
 70
     1
  0
VERTEX
  5
10C
  8
TEAM-BODY
 10
-350.0
 20
-460.0
 30
0.0
  0
VERTEX
  5
10D
  8
TEAM-BODY
 10
350.0
 20
-460.0
 30
0.0
  0
VERTEX
  5
10E
  8
TEAM-BODY
 10
350.0
 20
0.0
 30
0.0
  0
VERTEX
  5
10F
  8
TEAM-BODY
 10
-350.0
 20
0.0
 30
0.0
  0
SEQEND
  5
110
  8
TEAM-BODY
  0
TEXT
  5
23
  8
TEAM-TXT
 10
-139.185
 20
-401.042078
 30
0.0
 40
30.0
  1
team 234230
 41
0.8
 51
15.0
  7
TEAM
  0
DIMENSION
  5
26
  8
TEAM-MAS
  2
*D1
 10
350.0
 20
-541.623893
 30
0.0
 11
0.0
 21
-541.623893
 31
0.0
 12
-4000.0
 22
-236000.0
 32
0.0
 13
-350.0
 23
-460.0
 33
0.0
 14
350.0
 24
-460.0
 34
0.0
1001
ACAD
1000
DSTYLE
1002
{
1070
    40
1040
1.0
1002
}
  0
DIMENSION
  5
35
  8
TEAM-MAS
  2
*D0
 10
316.0
 20
-494.749239
 30
0.0
 11
0.0
 21
-494.749239
 31
0.0
 12
-4000.0
 22
-236000.0
 32
0.0
 13
-316.0
 23
-421.0
 33
0.0
 14
316.0
 24
-421.0
 34
0.0
1001
ACAD
1000
DSTYLE
1002
{
1070
    40
1040
1.0
1002
}
  0
CIRCLE
  5
43
  8
TEAM-DET1
 10
0.0
 20
-48.0
 30
0.0
 40
18.0
  0
LINE
  5
45
  8
TEAM-AXE
 10
0.0
 20
-68.0
 30
0.0
 11
0.0
 21
-28.0
 31
0.0
  0
LINE
  5
48
  8
TEAM-AXE
 10
-20.0
 20
-48.0
 30
0.0
 11
20.0
 21
-48.0
 31
0.0
  0
DIMENSION
  5
49
  8
TEAM-MAS
  2
*D4
 10
390.695049
 20
-261.0
 30
0.0
 11
390.695049
 21
-130.5
 31
0.0
 12
-4000.0
 22
-236000.0
 32
0.0
 13
350.0
 23
0.0
 33
0.0
 14
37.5
 24
-261.0
 34
0.0
 50
90.0
1001
ACAD
1000
DSTYLE
1002
{
1070
    40
1040
1.0
1002
}
  0
POLYLINE
  5
57
  8
TEAM-DET1
 66
     1
 10
0.0
 20
0.0
 30
0.0
 70
     1
  0
VERTEX
  5
111
  8
TEAM-DET1
 10
-27.5
 20
-291.0
 30
0.0
  0
VERTEX
  5
112
  8
TEAM-DET1
 10
27.5
 20
-291.0
 30
0.0
 42
0.414214
  0
VERTEX
  5
113
  8
TEAM-DET1
 10
32.5
 20
-286.0
 30
0.0
  0
VERTEX
  5
114
  8
TEAM-DET1
 10
32.5
 20
-236.0
 30
0.0
 42
0.414214
  0
VERTEX
  5
115
  8
TEAM-DET1
 10
27.5
 20
-231.0
 30
0.0
  0
VERTEX
  5
116
  8
TEAM-DET1
 10
-27.5
 20
-231.0
 30
0.0
 42
0.414214
  0
VERTEX
  5
117
  8
TEAM-DET1
 10
-32.5
 20
-236.0
 30
0.0
  0
VERTEX
  5
118
  8
TEAM-DET1
 10
-32.5
 20
-286.0
 30
0.0
 42
0.414214
  0
SEQEND
  5
119
  8
TEAM-DET1
  0
POLYLINE
  5
58
  8
TEAM-BODY
 66
     1
 10
0.0
 20
0.0
 30
0.0
 70
     1
  0
VERTEX
  5
11A
  8
TEAM-BODY
 10
-22.0
 20
-285.5
 30
0.0
  0
VERTEX
  5
11B
  8
TEAM-BODY
 10
22.0
 20
-285.5
 30
0.0
 42
0.414214
  0
VERTEX
  5
11C
  8
TEAM-BODY
 10
27.0
 20
-280.5
 30
0.0
  0
VERTEX
  5
11D
  8
TEAM-BODY
 10
27.0
 20
-241.5
 30
0.0
 42
0.414214
  0
VERTEX
  5
11E
  8
TEAM-BODY
 10
22.0
 20
-236.5
 30
0.0
  0
VERTEX
  5
11F
  8
TEAM-BODY
 10
-22.0
 20
-236.5
 30
0.0
 42
0.414214
  0
VERTEX
  5
120
  8
TEAM-BODY
 10
-27.0
 20
-241.5
 30
0.0
  0
VERTEX
  5
121
  8
TEAM-BODY
 10
-27.0
 20
-280.5
 30
0.0
 42
0.414214
  0
SEQEND
  5
122
  8
TEAM-BODY
  0
POLYLINE
  5
59
  8
TEAM-BODY
 66
     1
 10
0.0
 20
0.0
 30
0.0
 70
     1
  0
VERTEX
  5
123
  8
TEAM-BODY
 10
-32.5
 20
-296.0
 30
0.0
  0
VERTEX
  5
124
  8
TEAM-BODY
 10
32.5
 20
-296.0
 30
0.0
 42
0.414214
  0
VERTEX
  5
125
  8
TEAM-BODY
 10
37.5
 20
-291.0
 30
0.0
  0
VERTEX
  5
126
  8
TEAM-BODY
 10
37.5
 20
-231.0
 30
0.0
 42
0.414214
  0
VERTEX
  5
127
  8
TEAM-BODY
 10
32.5
 20
-226.0
 30
0.0
  0
VERTEX
  5
128
  8
TEAM-BODY
 10
-32.5
 20
-226.0
 30
0.0
 42
0.414214
  0
VERTEX
  5
129
  8
TEAM-BODY
 10
-37.5
 20
-231.0
 30
0.0
  0
VERTEX
  5
12A
  8
TEAM-BODY
 10
-37.5
 20
-291.0
 30
0.0
 42
0.414214
  0
SEQEND
  5
12B
  8
TEAM-BODY
  0
DIMENSION
  5
5A
  8
TEAM-MAS
  2
*D3
 10
435.904222
 20
-96.0
 30
0.0
 11
435.904222
 21
-261.0
 31
0.0
 12
-4000.0
 22
-236000.0
 32
0.0
 13
316.0
 23
-426.0
 33
0.0
 14
316.0
 24
-96.0
 34
0.0
 50
90.0
1001
ACAD
1000
DSTYLE
1002
{
1070
    40
1040
1.0
1002
}
  0
DIMENSION
  5
68
  8
TEAM-MAS
  2
*D2
 10
482.023847
 20
0.0
 30
0.0
 11
482.023847
 21
-230.0
 31
0.0
 12
-4000.0
 22
-236000.0
 32
0.0
 13
350.0
 23
-460.0
 33
0.0
 14
0.0
 24
0.0
 34
0.0
 50
90.0
1001
ACAD
1000
DSTYLE
1002
{
1070
    40
1040
1.0
1002
}
  0
CIRCLE
  5
76
  8
TEAM-INSP
 10
0.0
 20
0.0
 30
0.0
 40
10.0
  0
ENDSEC
  0
EOF
