  0
SECTION
  2
HEADER
  9
$ACADVER
  1
AC1009
  9
$INSBASE
 10
0.0
 20
0.0
 30
0.0
  9
$EXTMIN
 10
-178.940455
 20
-633.124725
 30
0.0
  9
$EXTMAX
 10
229.899383
 20
10.044006
 30
0.000005
  9
$LIMMIN
 10
-178.940455
 20
-633.124725
  9
$LIMMAX
 10
229.899383
 20
10.044006
  9
$ORTHOMODE
 70
     1
  9
$REGENMODE
 70
     1
  9
$FILLMODE
 70
     1
  9
$QTEXTMODE
 70
     0
  9
$MIRRTEXT
 70
     0
  9
$DRAGMODE
 70
     2
  9
$LTSCALE
 40
50.0
  9
$OSMODE
 70
     0
  9
$ATTMODE
 70
     1
  9
$TEXTSIZE
 40
200.0
  9
$TRACEWID
 40
1.0
  9
$TEXTSTYLE
  7
STANDARD
  9
$CLAYER
  8
TEAM-MAS
  9
$CELTYPE
  6
BYLAYER
  9
$CECOLOR
 62
   256
  9
$DIMSCALE
 40
0.0
  9
$DIMASZ
 40
20.0
  9
$DIMEXO
 40
10.0
  9
$DIMDLI
 40
1.0
  9
$DIMRND
 40
0.0
  9
$DIMDLE
 40
0.0
  9
$DIMEXE
 40
1.0
  9
$DIMTP
 40
0.0
  9
$DIMTM
 40
0.0
  9
$DIMTXT
 40
35.0
  9
$DIMCEN
 40
1.0
  9
$DIMTSZ
 40
0.0
  9
$DIMTOL
 70
     0
  9
$DIMLIM
 70
     0
  9
$DIMTIH
 70
     0
  9
$DIMTOH
 70
     0
  9
$DIMSE1
 70
     0
  9
$DIMSE2
 70
     0
  9
$DIMTAD
 70
     0
  9
$DIMZIN
 70
     0
  9
$DIMBLK
  1

  9
$DIMASO
 70
     1
  9
$DIMSHO
 70
     0
  9
$DIMPOST
  1

  9
$DIMAPOST
  1

  9
$DIMALT
 70
     0
  9
$DIMALTD
 70
     2
  9
$DIMALTF
 40
25.4
  9
$DIMLFAC
 40
1.0
  9
$DIMTOFL
 70
     0
  9
$DIMTVP
 40
0.0
  9
$DIMTIX
 70
     0
  9
$DIMSOXD
 70
     0
  9
$DIMSAH
 70
     0
  9
$DIMBLK1
  1

  9
$DIMBLK2
  1

  9
$DIMSTYLE
  2
TEAM
  9
$DIMCLRD
 70
     9
  9
$DIMCLRE
 70
     9
  9
$DIMCLRT
 70
    11
  9
$DIMTFAC
 40
1.0
  9
$DIMGAP
 40
7.0
  9
$LUNITS
 70
     2
  9
$LUPREC
 70
     1
  9
$SKETCHINC
 40
1.0
  9
$FILLETRAD
 40
10.0
  9
$AUNITS
 70
     0
  9
$AUPREC
 70
     0
  9
$MENU
  1
ROPLANS
  9
$ELEVATION
 40
0.0
  9
$PELEVATION
 40
0.0
  9
$THICKNESS
 40
0.0
  9
$LIMCHECK
 70
     0
  9
$BLIPMODE
 70
     1
  9
$CHAMFERA
 40
0.0
  9
$CHAMFERB
 40
0.0
  9
$SKPOLY
 70
     0
  9
$TDCREATE
 40
2450392.957851
  9
$TDUPDATE
 40
2456108.504222
  9
$TDINDWG
 40
4.193894
  9
$TDUSRTIMER
 40
4.193894
  9
$USRTIMER
 70
     1
  9
$ANGBASE
 50
0.0
  9
$ANGDIR
 70
     0
  9
$PDMODE
 70
     0
  9
$PDSIZE
 40
0.0
  9
$PLINEWID
 40
0.0
  9
$COORDS
 70
     2
  9
$SPLFRAME
 70
     0
  9
$SPLINETYPE
 70
     6
  9
$SPLINESEGS
 70
     8
  9
$ATTDIA
 70
     0
  9
$ATTREQ
 70
     0
  9
$HANDLING
 70
     1
  9
$HANDSEED
  5
199
  9
$SURFTAB1
 70
    36
  9
$SURFTAB2
 70
    36
  9
$SURFTYPE
 70
     6
  9
$SURFU
 70
     6
  9
$SURFV
 70
     6
  9
$UCSNAME
  2

  9
$UCSORG
 10
0.0
 20
0.0
 30
0.0
  9
$UCSXDIR
 10
1.0
 20
0.0
 30
0.0
  9
$UCSYDIR
 10
0.0
 20
1.0
 30
0.0
  9
$PUCSNAME
  2

  9
$PUCSORG
 10
0.0
 20
0.0
 30
0.0
  9
$PUCSXDIR
 10
1.0
 20
0.0
 30
0.0
  9
$PUCSYDIR
 10
0.0
 20
1.0
 30
0.0
  9
$USERI1
 70
     0
  9
$USERI2
 70
     0
  9
$USERI3
 70
     0
  9
$USERI4
 70
     0
  9
$USERI5
 70
     0
  9
$USERR1
 40
0.0
  9
$USERR2
 40
0.0
  9
$USERR3
 40
0.0
  9
$USERR4
 40
0.0
  9
$USERR5
 40
0.0
  9
$WORLDVIEW
 70
     1
  9
$SHADEDGE
 70
     0
  9
$SHADEDIF
 70
    70
  9
$TILEMODE
 70
     1
  9
$MAXACTVP
 70
    16
  9
$PLIMCHECK
 70
     0
  9
$PEXTMIN
 10
-0.805942
 20
0.005011
 30
0.0
  9
$PEXTMAX
 10
20.250094
 20
11.356329
 30
0.0
  9
$PLIMMIN
 10
0.0
 20
0.0
  9
$PLIMMAX
 10
12.0
 20
9.0
  9
$UNITMODE
 70
     0
  9
$VISRETAIN
 70
     0
  9
$PLINEGEN
 70
     0
  9
$PSLTSCALE
 70
     0
  0
ENDSEC
  0
SECTION
  2
TABLES
  0
TABLE
  2
VPORT
 70
     2
  0
VPORT
  2
*ACTIVE
 70
     0
 10
0.0
 20
0.0
 11
1.0
 21
1.0
 12
25.479464
 22
-311.54036
 13
0.0
 23
0.0
 14
1.0
 24
1.0
 15
50.0
 25
50.0
 16
0.0
 26
0.0
 36
1.0
 17
0.0
 27
0.0
 37
0.0
 40
647.218062
 41
1.911765
 42
50.0
 43
0.0
 44
0.0
 50
0.0
 51
0.0
 71
     0
 72
   100
 73
     1
 74
     1
 75
     0
 76
     0
 77
     0
 78
     0
  0
ENDTAB
  0
TABLE
  2
LTYPE
 70
     2
  0
LTYPE
  2
CONTINUOUS
 70
     0
  3
Solid Line
 72
    65
 73
     0
 40
0.0
  0
LTYPE
  2
31
 70
     0
  3

 72
    65
 73
     4
 40
2.1
 49
1.5
 49
-0.3
 49
0.0
 49
-0.3
  0
ENDTAB
  0
TABLE
  2
LAYER
 70
     8
  0
LAYER
  2
0
 70
     0
 62
     7
  6
CONTINUOUS
  0
LAYER
  2
DEFPOINTS
 70
     0
 62
     7
  6
CONTINUOUS
  0
LAYER
  2
TEAM-BODY
 70
     0
 62
     2
  6
CONTINUOUS
  0
LAYER
  2
TEAM-AXE
 70
     0
 62
    10
  6
31
  0
LAYER
  2
TEAM-MAS
 70
     0
 62
     9
  6
CONTINUOUS
  0
LAYER
  2
TEAM-TXT
 70
     0
 62
    11
  6
CONTINUOUS
  0
LAYER
  2
TEAM-DET1
 70
     0
 62
     4
  6
CONTINUOUS
  0
LAYER
  2
TEAM-INSP
 70
     0
 62
     5
  6
CONTINUOUS
  0
ENDTAB
  0
TABLE
  2
STYLE
 70
     2
  0
STYLE
  2
STANDARD
 70
     0
 40
0.0
 41
1.0
 50
0.0
 71
     0
 42
200.0
  3
txt
  4

  0
STYLE
  2
TEAM
 70
     0
 40
0.0
 41
0.8
 50
15.0
 71
     0
 42
7.0
  3
ROMANS.shx
  4

  0
ENDTAB
  0
TABLE
  2
VIEW
 70
     0
  0
ENDTAB
  0
TABLE
  2
UCS
 70
     0
  0
ENDTAB
  0
TABLE
  2
APPID
 70
     1
  0
APPID
  2
ACAD
 70
     0
  0
ENDTAB
  0
TABLE
  2
DIMSTYLE
 70
     1
  0
DIMSTYLE
  2
TEAM
 70
     0
  3

  4

  5

  6

  7

 40
0.0
 41
20.0
 42
10.0
 43
1.0
 44
1.0
 45
0.0
 46
0.0
 47
0.0
 48
0.0
140
35.0
141
1.0
142
0.0
143
25.4
144
1.0
145
0.0
146
1.0
147
7.0
 71
     0
 72
     0
 73
     0
 74
     0
 75
     0
 76
     0
 77
     0
 78
     0
170
     0
171
     2
172
     0
173
     0
174
     0
175
     0
176
     9
177
     9
178
    11
  0
ENDTAB
  0
ENDSEC
  0
SECTION
  2
BLOCKS
  0
BLOCK
  8
0
  2
$MODEL_SPACE
 70
     0
 10
0.0
 20
0.0
 30
0.0
  3
$MODEL_SPACE
  1

  0
ENDBLK
  5
123
  8
0
  0
BLOCK
 67
     1
  8
0
  2
$PAPER_SPACE
 70
     0
 10
0.0
 20
0.0
 30
0.0
  3
$PAPER_SPACE
  1

  0
ENDBLK
  5
121
 67
     1
  8
0
  0
BLOCK
  8
0
  2
*D0
 70
     1
 10
0.0
 20
0.0
 30
0.0
  3
*D0
  1

  0
LINE
  5
B6
  8
0
  6
BYBLOCK
 62
     9
 10
4177.5
 20
47497.192681
 30
0.0
 11
4177.5
 21
47383.386807
 31
0.0
  0
LINE
  5
B7
  8
0
  6
BYBLOCK
 62
     9
 10
3822.5
 20
47493.126474
 30
0.0
 11
3822.5
 21
47383.386807
 31
0.0
  0
LINE
  5
B8
  8
0
  6
BYBLOCK
 62
     9
 10
4157.5
 20
47384.386807
 30
0.0
 11
4053.666667
 21
47384.386807
 31
0.0
  0
LINE
  5
B9
  8
0
  6
BYBLOCK
 62
     9
 10
3842.5
 20
47384.386807
 30
0.0
 11
3946.333333
 21
47384.386807
 31
0.0
  0
SOLID
  5
BA
  8
0
  6
BYBLOCK
 62
     9
 10
4157.5
 20
47387.72014
 30
0.0
 11
4157.5
 21
47381.053474
 31
0.0
 12
4177.5
 22
47384.386807
 32
0.0
 13
4177.5
 23
47384.386807
 33
0.0
  0
SOLID
  5
BB
  8
0
  6
BYBLOCK
 62
     9
 10
3842.5
 20
47387.72014
 30
0.0
 11
3842.5
 21
47381.053474
 31
0.0
 12
3822.5
 22
47384.386807
 32
0.0
 13
3822.5
 23
47384.386807
 33
0.0
  0
TEXT
  5
BC
  8
0
  6
BYBLOCK
 62
    11
 10
3953.333333
 20
47366.886807
 30
0.0
 40
35.0
  1
355
  0
POINT
  5
BD
  8
DEFPOINTS
  6
BYBLOCK
 62
     0
 10
4177.5
 20
47507.192681
 30
0.0
  0
POINT
  5
BF
  8
DEFPOINTS
  6
BYBLOCK
 62
     0
 10
3822.5
 20
47503.126474
 30
0.0
  0
POINT
  5
C0
  8
DEFPOINTS
  6
BYBLOCK
 62
     0
 10
3822.5
 20
47384.386807
 30
0.0
  0
ENDBLK
  5
C2
  8
0
  0
BLOCK
  8
0
  2
*D1
 70
     1
 10
0.0
 20
0.0
 30
0.0
  3
*D1
  1

  0
LINE
  5
C5
  8
0
  6
BYBLOCK
 62
     9
 10
4010.0
 20
48000.0
 30
0.0
 11
4213.395422
 21
48000.0
 31
0.0
  0
LINE
  5
C6
  8
0
  6
BYBLOCK
 62
     9
 10
4010.954145
 20
47420.0
 30
0.0
 11
4213.395422
 21
47420.0
 31
0.0
  0
LINE
  5
C7
  8
0
  6
BYBLOCK
 62
     9
 10
4212.395422
 20
47980.0
 30
0.0
 11
4212.395422
 21
47760.75
 31
0.0
  0
LINE
  5
C8
  8
0
  6
BYBLOCK
 62
     9
 10
4212.395422
 20
47440.0
 30
0.0
 11
4212.395422
 21
47659.25
 31
0.0
  0
SOLID
  5
C9
  8
0
  6
BYBLOCK
 62
     9
 10
4209.062089
 20
47980.0
 30
0.0
 11
4215.728755
 21
47980.0
 31
0.0
 12
4212.395422
 22
48000.0
 32
0.0
 13
4212.395422
 23
48000.0
 33
0.0
  0
SOLID
  5
CA
  8
0
  6
BYBLOCK
 62
     9
 10
4209.062089
 20
47440.0
 30
0.0
 11
4215.728755
 21
47440.0
 31
0.0
 12
4212.395422
 22
47420.0
 32
0.0
 13
4212.395422
 23
47420.0
 33
0.0
  0
TEXT
  5
CB
  8
0
  6
BYBLOCK
 62
    11
 10
4229.895422
 20
47666.25
 30
0.0
 40
35.0
  1
580
 50
90.0
  0
POINT
  5
CC
  8
DEFPOINTS
  6
BYBLOCK
 62
     0
 10
4000.0
 20
48000.0
 30
0.0
  0
POINT
  5
CD
  8
DEFPOINTS
  6
BYBLOCK
 62
     0
 10
4000.954145
 20
47420.0
 30
0.0
  0
POINT
  5
CE
  8
DEFPOINTS
  6
BYBLOCK
 62
     0
 10
4212.395422
 20
47420.0
 30
0.0
  0
ENDBLK
  5
D0
  8
0
  0
ENDSEC
  0
SECTION
  2
ENTITIES
  0
CIRCLE
  5
20
  8
TEAM-INSP
 10
0.0
 20
0.0
 30
0.0
 40
10.0
  0
LINE
  5
22
  8
TEAM-AXE
 10
109.377325
 20
-157.414276
 30
0.0
 11
59.377325
 21
-157.414276
 31
0.0
  0
LINE
  5
25
  8
TEAM-AXE
 10
84.377325
 20
-182.414276
 30
0.0
 11
84.377325
 21
-132.414276
 31
0.0
  0
CIRCLE
  5
26
  8
TEAM-DET1
 10
84.377325
 20
-157.414276
 30
0.0
 40
10.0
  0
ARC
  5
28
  8
TEAM-BODY
 10
87.587895
 20
-217.558547
 30
0.0
 40
10.0
 50
43.939513
 51
90.0
  0
LINE
  5
2A
  8
TEAM-DET1
 10
152.5
 20
-79.190399
 30
0.0
 11
103.727217
 21
-28.095233
 31
0.0
  0
ARC
  5
2B
  8
TEAM-DET1
 10
96.49367
 20
-35.0
 30
0.0
 40
10.0
 50
43.667853
 51
90.0
  0
LINE
  5
2C
  8
TEAM-AXE
 10
-84.377325
 20
-182.414276
 30
0.0
 11
-84.377325
 21
-132.414276
 31
0.0
  0
ARC
  5
2D
  8
TEAM-BODY
 10
-87.587895
 20
-217.558547
 30
0.0
 40
10.0
 50
90.0
 51
136.060487
  0
LINE
  5
2E
  8
TEAM-DET1
 10
-103.770047
 20
-27.92887
 30
0.0
 11
-152.5
 21
-76.657959
 31
0.0
  0
ARC
  5
2F
  8
TEAM-DET1
 10
-96.699042
 20
-35.0
 30
0.0
 40
10.0
 50
90.0
 51
134.999492
  0
LINE
  5
30
  8
TEAM-AXE
 10
-109.377325
 20
-157.414276
 30
0.0
 11
-59.377325
 21
-157.414276
 31
0.0
  0
CIRCLE
  5
31
  8
TEAM-DET1
 10
-84.377325
 20
-157.414276
 30
0.0
 40
10.0
  0
LINE
  5
32
  8
TEAM-BODY
 10
-87.587895
 20
-207.558547
 30
0.0
 11
87.587895
 21
-207.558547
 31
0.0
  0
LINE
  5
33
  8
TEAM-DET1
 10
96.49367
 20
-25.0
 30
0.0
 11
-96.699042
 21
-25.0
 31
0.0
  0
LINE
  5
34
  8
TEAM-BODY
 10
48.947836
 20
-268.764801
 30
0.0
 11
48.947836
 21
-344.685242
 31
0.0
  0
LINE
  5
35
  8
TEAM-DET1
 10
132.5
 20
-262.972107
 30
0.0
 11
82.353674
 21
-289.010132
 31
0.0
  0
LINE
  5
36
  8
TEAM-BODY
 10
-48.947836
 20
-268.764801
 30
0.0
 11
-48.947836
 21
-344.685242
 31
0.0
  0
POLYLINE
  5
37
  8
TEAM-BODY
 66
     1
 10
0.0
 20
0.0
 30
0.0
  0
VERTEX
  5
129
  8
TEAM-BODY
 10
48.947836
 20
-344.685242
 30
0.0
  0
VERTEX
  5
12A
  8
TEAM-BODY
 10
48.953146
 20
-344.788627
 30
0.0
  0
VERTEX
  5
12B
  8
TEAM-BODY
 10
48.959997
 20
-345.087127
 30
0.0
  0
VERTEX
  5
12C
  8
TEAM-BODY
 10
48.954687
 20
-345.563293
 30
0.0
  0
VERTEX
  5
12D
  8
TEAM-BODY
 10
48.923574
 20
-346.199653
 30
0.0
  0
VERTEX
  5
12E
  8
TEAM-BODY
 10
48.852987
 20
-346.978752
 30
0.0
  0
VERTEX
  5
12F
  8
TEAM-BODY
 10
48.729254
 20
-347.883117
 30
0.0
  0
VERTEX
  5
130
  8
TEAM-BODY
 10
48.538702
 20
-348.895294
 30
0.0
  0
VERTEX
  5
131
  8
TEAM-BODY
 10
48.267675
 20
-349.997818
 30
0.0
  0
VERTEX
  5
132
  8
TEAM-BODY
 10
47.902502
 20
-351.173233
 30
0.0
  0
VERTEX
  5
133
  8
TEAM-BODY
 10
47.42951
 20
-352.40406
 30
0.0
  0
VERTEX
  5
134
  8
TEAM-BODY
 10
46.835043
 20
-353.672851
 30
0.0
  0
VERTEX
  5
135
  8
TEAM-BODY
 10
46.105429
 20
-354.962135
 30
0.0
  0
VERTEX
  5
136
  8
TEAM-BODY
 10
45.226995
 20
-356.254455
 30
0.0
  0
VERTEX
  5
137
  8
TEAM-BODY
 10
44.186071
 20
-357.532341
 30
0.0
  0
VERTEX
  5
138
  8
TEAM-BODY
 10
42.969015
 20
-358.778335
 30
0.0
  0
VERTEX
  5
139
  8
TEAM-BODY
 10
41.562124
 20
-359.974983
 30
0.0
  0
VERTEX
  5
13A
  8
TEAM-BODY
 10
39.951757
 20
-361.104812
 30
0.0
  0
VERTEX
  5
13B
  8
TEAM-BODY
 10
38.124243
 20
-362.15036
 30
0.0
  0
VERTEX
  5
13C
  8
TEAM-BODY
 10
36.065908
 20
-363.094162
 30
0.0
  0
VERTEX
  5
13D
  8
TEAM-BODY
 10
33.763083
 20
-363.918762
 30
0.0
  0
SEQEND
  5
13E
  8
TEAM-BODY
  0
LINE
  5
4E
  8
TEAM-DET1
 10
131.249233
 20
-483.8809
 30
0.0
 11
82.353674
 21
-440.851623
 31
0.0
  0
LINE
  5
4F
  8
TEAM-DET1
 10
79.797519
 20
-534.999666
 30
0.0
 11
41.862417
 21
-463.121788
 31
0.0
  0
POLYLINE
  5
50
  8
TEAM-BODY
 66
     1
 10
0.0
 20
0.0
 30
0.0
  0
VERTEX
  5
13F
  8
TEAM-BODY
 10
-48.947836
 20
-344.685242
 30
0.0
  0
VERTEX
  5
140
  8
TEAM-BODY
 10
-48.953146
 20
-344.788627
 30
0.0
  0
VERTEX
  5
141
  8
TEAM-BODY
 10
-48.959997
 20
-345.087127
 30
0.0
  0
VERTEX
  5
142
  8
TEAM-BODY
 10
-48.954687
 20
-345.563293
 30
0.0
  0
VERTEX
  5
143
  8
TEAM-BODY
 10
-48.923574
 20
-346.199653
 30
0.0
  0
VERTEX
  5
144
  8
TEAM-BODY
 10
-48.852987
 20
-346.978752
 30
0.0
  0
VERTEX
  5
145
  8
TEAM-BODY
 10
-48.729254
 20
-347.883117
 30
0.0
  0
VERTEX
  5
146
  8
TEAM-BODY
 10
-48.538702
 20
-348.895294
 30
0.0
  0
VERTEX
  5
147
  8
TEAM-BODY
 10
-48.267675
 20
-349.997818
 30
0.0
  0
VERTEX
  5
148
  8
TEAM-BODY
 10
-47.902502
 20
-351.173233
 30
0.0
  0
VERTEX
  5
149
  8
TEAM-BODY
 10
-47.42951
 20
-352.40406
 30
0.0
  0
VERTEX
  5
14A
  8
TEAM-BODY
 10
-46.835043
 20
-353.672851
 30
0.0
  0
VERTEX
  5
14B
  8
TEAM-BODY
 10
-46.105429
 20
-354.962135
 30
0.0
  0
VERTEX
  5
14C
  8
TEAM-BODY
 10
-45.226995
 20
-356.254455
 30
0.0
  0
VERTEX
  5
14D
  8
TEAM-BODY
 10
-44.186071
 20
-357.532341
 30
0.0
  0
VERTEX
  5
14E
  8
TEAM-BODY
 10
-42.969015
 20
-358.778335
 30
0.0
  0
VERTEX
  5
14F
  8
TEAM-BODY
 10
-41.562124
 20
-359.974983
 30
0.0
  0
VERTEX
  5
150
  8
TEAM-BODY
 10
-39.951757
 20
-361.104812
 30
0.0
  0
VERTEX
  5
151
  8
TEAM-BODY
 10
-38.124243
 20
-362.15036
 30
0.0
  0
VERTEX
  5
152
  8
TEAM-BODY
 10
-36.065908
 20
-363.094162
 30
0.0
  0
VERTEX
  5
153
  8
TEAM-BODY
 10
-33.763083
 20
-363.918762
 30
0.0
  0
SEQEND
  5
154
  8
TEAM-BODY
  0
POLYLINE
  5
67
  8
TEAM-BODY
 66
     1
 10
0.0
 20
0.0
 30
0.0
  0
VERTEX
  5
155
  8
TEAM-BODY
 10
0.0
 20
-368.853545
 30
0.0
  0
VERTEX
  5
156
  8
TEAM-BODY
 10
-3.333731
 20
-368.829338
 30
0.0
  0
VERTEX
  5
157
  8
TEAM-BODY
 10
-7.618582
 20
-368.616379
 30
0.0
  0
VERTEX
  5
158
  8
TEAM-BODY
 10
-12.157766
 20
-368.194633
 30
0.0
  0
VERTEX
  5
159
  8
TEAM-BODY
 10
-16.945974
 20
-367.539055
 30
0.0
  0
VERTEX
  5
15A
  8
TEAM-BODY
 10
-21.977896
 20
-366.624588
 30
0.0
  0
VERTEX
  5
15B
  8
TEAM-BODY
 10
-27.24819
 20
-365.426178
 30
0.0
  0
VERTEX
  5
15C
  8
TEAM-BODY
 10
-32.751577
 20
-363.918762
 30
0.0
  0
SEQEND
  5
15D
  8
TEAM-BODY
  0
POLYLINE
  5
71
  8
TEAM-BODY
 66
     1
 10
0.0
 20
0.0
 30
0.0
  0
VERTEX
  5
15E
  8
TEAM-BODY
 10
0.0
 20
-368.853545
 30
0.0
  0
VERTEX
  5
15F
  8
TEAM-BODY
 10
3.333731
 20
-368.829338
 30
0.0
  0
VERTEX
  5
160
  8
TEAM-BODY
 10
7.618582
 20
-368.616379
 30
0.0
  0
VERTEX
  5
161
  8
TEAM-BODY
 10
12.157766
 20
-368.194633
 30
0.0
  0
VERTEX
  5
162
  8
TEAM-BODY
 10
16.945974
 20
-367.539055
 30
0.0
  0
VERTEX
  5
163
  8
TEAM-BODY
 10
21.977896
 20
-366.624588
 30
0.0
  0
VERTEX
  5
164
  8
TEAM-BODY
 10
27.24819
 20
-365.426178
 30
0.0
  0
VERTEX
  5
165
  8
TEAM-BODY
 10
32.751577
 20
-363.918762
 30
0.0
  0
SEQEND
  5
166
  8
TEAM-BODY
  0
POLYLINE
  5
7B
  8
TEAM-DET1
 66
     1
 10
0.0
 20
0.0
 30
0.0
  0
VERTEX
  5
167
  8
TEAM-DET1
 10
61.095037
 20
-270.789032
 30
0.0
  0
VERTEX
  5
168
  8
TEAM-DET1
 10
60.712393
 20
-270.601379
 30
0.0
  0
VERTEX
  5
169
  8
TEAM-DET1
 10
59.582708
 20
-270.077408
 30
0.0
  0
VERTEX
  5
16A
  8
TEAM-DET1
 10
57.733282
 20
-269.275574
 30
0.0
  0
VERTEX
  5
16B
  8
TEAM-DET1
 10
55.191473
 20
-268.254318
 30
0.0
  0
VERTEX
  5
16C
  8
TEAM-DET1
 10
51.984594
 20
-267.072113
 30
0.0
  0
VERTEX
  5
16D
  8
TEAM-DET1
 10
48.13999
 20
-265.78743
 30
0.0
  0
VERTEX
  5
16E
  8
TEAM-DET1
 10
43.684988
 20
-264.45871
 30
0.0
  0
VERTEX
  5
16F
  8
TEAM-DET1
 10
38.646902
 20
-263.144409
 30
0.0
  0
VERTEX
  5
170
  8
TEAM-DET1
 10
33.053076
 20
-261.903
 30
0.0
  0
VERTEX
  5
171
  8
TEAM-DET1
 10
26.930853
 20
-260.792923
 30
0.0
  0
VERTEX
  5
172
  8
TEAM-DET1
 10
20.307547
 20
-259.87265
 30
0.0
  0
VERTEX
  5
173
  8
TEAM-DET1
 10
13.210485
 20
-259.200638
 30
0.0
  0
VERTEX
  5
174
  8
TEAM-DET1
 10
5.667013
 20
-258.835342
 30
0.0
  0
VERTEX
  5
175
  8
TEAM-DET1
 10
0.0
 20
-258.835266
 30
0.0
  0
SEQEND
  5
176
  8
TEAM-DET1
  0
POLYLINE
  5
8C
  8
TEAM-DET1
 66
     1
 10
0.0
 20
0.0
 30
0.0
  0
VERTEX
  5
177
  8
TEAM-DET1
 10
-61.095037
 20
-270.789032
 30
0.0
  0
VERTEX
  5
178
  8
TEAM-DET1
 10
-60.712393
 20
-270.601379
 30
0.0
  0
VERTEX
  5
179
  8
TEAM-DET1
 10
-59.582708
 20
-270.077408
 30
0.0
  0
VERTEX
  5
17A
  8
TEAM-DET1
 10
-57.733282
 20
-269.275574
 30
0.0
  0
VERTEX
  5
17B
  8
TEAM-DET1
 10
-55.191473
 20
-268.254318
 30
0.0
  0
VERTEX
  5
17C
  8
TEAM-DET1
 10
-51.984594
 20
-267.072113
 30
0.0
  0
VERTEX
  5
17D
  8
TEAM-DET1
 10
-48.13999
 20
-265.78743
 30
0.0
  0
VERTEX
  5
17E
  8
TEAM-DET1
 10
-43.684988
 20
-264.45871
 30
0.0
  0
VERTEX
  5
17F
  8
TEAM-DET1
 10
-38.646902
 20
-263.144409
 30
0.0
  0
VERTEX
  5
180
  8
TEAM-DET1
 10
-33.053076
 20
-261.903
 30
0.0
  0
VERTEX
  5
181
  8
TEAM-DET1
 10
-26.930853
 20
-260.792923
 30
0.0
  0
VERTEX
  5
182
  8
TEAM-DET1
 10
-20.307547
 20
-259.87265
 30
0.0
  0
VERTEX
  5
183
  8
TEAM-DET1
 10
-13.210485
 20
-259.200638
 30
0.0
  0
VERTEX
  5
184
  8
TEAM-DET1
 10
-5.667013
 20
-258.835342
 30
0.0
  0
VERTEX
  5
185
  8
TEAM-DET1
 10
0.0
 20
-258.835266
 30
0.0
  0
SEQEND
  5
186
  8
TEAM-DET1
  0
LINE
  5
9D
  8
TEAM-BODY
 10
87.035305
 20
-531.813529
 30
0.0
 11
129.819551
 21
-485.851812
 31
0.0
  0
LINE
  5
9E
  8
TEAM-BODY
 10
132.5
 20
-479.038284
 30
0.0
 11
132.5
 21
-253.787553
 31
0.0
  0
ARC
  5
9F
  8
TEAM-BODY
 10
79.715754
 20
-525.0
 30
0.0
 40
10.0
 50
270.0
 51
317.050549
  0
ARC
  5
A0
  8
TEAM-BODY
 10
122.5
 20
-479.038284
 30
0.0
 40
10.0
 50
317.050549
 51
0.0
  0
ARC
  5
A1
  8
TEAM-BODY
 10
122.5
 20
-253.787553
 30
0.0
 40
10.0
 50
0.0
 51
43.939513
  0
LINE
  5
A2
  8
TEAM-DET1
 10
-132.5
 20
-262.972107
 30
0.0
 11
-82.353674
 21
-289.010132
 31
0.0
  0
LINE
  5
A3
  8
TEAM-DET1
 10
-132.173957
 20
-484.694679
 30
0.0
 11
-82.353674
 21
-440.851623
 31
0.0
  0
LINE
  5
A4
  8
TEAM-BODY
 10
-132.5
 20
-253.787553
 30
0.0
 11
-132.5
 21
-482.161981
 31
0.0
  0
LINE
  5
A5
  8
TEAM-BODY
 10
-129.497015
 20
-489.306334
 30
0.0
 11
-85.756948
 21
-532.144353
 31
0.0
  0
ARC
  5
A6
  8
TEAM-BODY
 10
-122.5
 20
-482.161981
 30
0.0
 40
10.0
 50
180.0
 51
225.596937
  0
ARC
  5
A7
  8
TEAM-BODY
 10
-78.759933
 20
-525.0
 30
0.0
 40
10.0
 50
225.596937
 51
270.0
  0
ARC
  5
A8
  8
TEAM-BODY
 10
-122.5
 20
-253.787553
 30
0.0
 40
10.0
 50
136.060487
 51
180.0
  0
TEXT
  5
A9
  8
TEAM-TXT
 10
-134.355617
 20
-410.913981
 30
0.0
 40
30.0
  1
team 342021
 41
0.8
 51
15.0
  7
TEAM
  0
LINE
  5
AC
  8
TEAM-DET1
 10
-79.770668
 20
-534.94879
 30
0.0
 11
-41.862417
 21
-463.121788
 31
0.0
  0
LINE
  5
AD
  8
TEAM-BODY
 10
-78.759933
 20
-535.0
 30
0.0
 11
79.715754
 21
-535.0
 31
0.0
  0
POLYLINE
  5
AE
  8
TEAM-BODY
 66
     1
 10
0.0
 20
0.0
 30
0.0
 70
     1
  0
VERTEX
  5
187
  8
TEAM-BODY
 10
-102.912168
 20
0.0
 30
0.0
 42
0.19891
  0
VERTEX
  5
188
  8
TEAM-BODY
 10
-117.054178
 20
-5.857739
 30
0.0
  0
VERTEX
  5
189
  8
TEAM-BODY
 10
-171.64201
 20
-60.444604
 30
0.0
 42
0.198915
  0
VERTEX
  5
18A
  8
TEAM-BODY
 10
-177.5
 20
-74.586865
 30
0.0
  0
VERTEX
  5
18B
  8
TEAM-BODY
 10
-177.5
 20
-496.873526
 30
0.0
 42
0.201621
  0
VERTEX
  5
18C
  8
TEAM-BODY
 10
-171.494031
 20
-511.162231
 30
0.0
  0
VERTEX
  5
18D
  8
TEAM-BODY
 10
-107.03829
 20
-574.288706
 30
0.0
 42
0.196206
  0
VERTEX
  5
18E
  8
TEAM-BODY
 10
-93.044259
 20
-580.0
 30
0.0
  0
VERTEX
  5
18F
  8
TEAM-BODY
 10
94.952549
 20
-580.0
 30
0.0
 42
0.20823
  0
VERTEX
  5
190
  8
TEAM-BODY
 10
109.591651
 20
-573.627057
 30
0.0
  0
VERTEX
  5
191
  8
TEAM-BODY
 10
172.139102
 20
-506.434376
 30
0.0
 42
0.189627
  0
VERTEX
  5
192
  8
TEAM-BODY
 10
177.5
 20
-492.807319
 30
0.0
  0
VERTEX
  5
193
  8
TEAM-BODY
 10
177.5
 20
-77.187107
 30
0.0
 42
0.192877
  0
VERTEX
  5
194
  8
TEAM-BODY
 10
171.967093
 20
-63.377574
 30
0.0
  0
VERTEX
  5
195
  8
TEAM-BODY
 10
117.379261
 20
-6.190467
 30
0.0
 42
0.204962
  0
VERTEX
  5
196
  8
TEAM-BODY
 10
102.912168
 20
0.0
 30
0.0
  0
SEQEND
  5
197
  8
TEAM-BODY
  0
LINE
  5
AF
  8
TEAM-BODY
 10
-129.700727
 20
-246.848567
 30
0.0
 11
-94.788622
 21
-210.619561
 31
0.0
  0
LINE
  5
B0
  8
TEAM-BODY
 10
129.700727
 20
-246.848567
 30
0.0
 11
94.788622
 21
-210.619561
 31
0.0
  0
LINE
  5
B1
  8
TEAM-DET1
 10
85.39002
 20
-211.065155
 30
0.0
 11
64.131384
 21
-249.531586
 31
0.0
  0
LINE
  5
B2
  8
TEAM-DET1
 10
-85.39002
 20
-211.065155
 30
0.0
 11
-64.131384
 21
-249.531586
 31
0.0
  0
LINE
  5
B3
  8
TEAM-MAS
 10
75.0003
 20
0.0
 30
0.0
 11
77.501439
 21
0.0
 31
0.0
  0
DIMENSION
  5
B4
  8
TEAM-MAS
  2
*D0
 10
-177.5
 20
-615.613193
 30
0.0
 11
0.0
 21
-615.613193
 31
0.0
 12
-4000.0
 22
-48000.0
 32
0.0
 13
177.5
 23
-492.807319
 33
0.0
 14
-177.5
 24
-496.873526
 34
0.0
1001
ACAD
1000
DSTYLE
1002
{
1070
    40
1040
1.0
1002
}
  0
DIMENSION
  5
C3
  8
TEAM-MAS
  2
*D1
 10
212.395422
 20
-580.0
 30
0.0
 11
212.395422
 21
-290.0
 31
0.0
 12
-4000.0
 22
-48000.0
 32
0.0
 13
0.0
 23
0.0
 33
0.0
 14
0.954145
 24
-580.0
 34
0.0
 50
90.0
1001
ACAD
1000
DSTYLE
1002
{
1070
    40
1040
1.0
1002
}
  0
ENDSEC
  0
EOF
