  0
SECTION
  2
HEADER
  9
$ACADVER
  1
AC1009
  9
$INSBASE
 10
0.0
 20
0.0
 30
0.0
  9
$EXTMIN
 10
-58.94834
 20
-10.036699
 30
0.0
  9
$EXTMAX
 10
594.085489
 20
487.484789
 30
0.000005
  9
$LIMMIN
 10
-58.94834
 20
-10.036699
  9
$LIMMAX
 10
594.085489
 20
487.484789
  9
$ORTHOMODE
 70
     1
  9
$REGENMODE
 70
     1
  9
$FILLMODE
 70
     1
  9
$QTEXTMODE
 70
     0
  9
$MIRRTEXT
 70
     0
  9
$DRAGMODE
 70
     2
  9
$LTSCALE
 40
50.0
  9
$OSMODE
 70
     0
  9
$ATTMODE
 70
     1
  9
$TEXTSIZE
 40
200.0
  9
$TRACEWID
 40
1.0
  9
$TEXTSTYLE
  7
STANDARD
  9
$CLAYER
  8
TEAM-MAS
  9
$CELTYPE
  6
BYLAYER
  9
$CECOLOR
 62
   256
  9
$DIMSCALE
 40
0.0
  9
$DIMASZ
 40
20.0
  9
$DIMEXO
 40
10.0
  9
$DIMDLI
 40
1.0
  9
$DIMRND
 40
0.0
  9
$DIMDLE
 40
0.0
  9
$DIMEXE
 40
1.0
  9
$DIMTP
 40
0.0
  9
$DIMTM
 40
0.0
  9
$DIMTXT
 40
35.0
  9
$DIMCEN
 40
1.0
  9
$DIMTSZ
 40
0.0
  9
$DIMTOL
 70
     0
  9
$DIMLIM
 70
     0
  9
$DIMTIH
 70
     0
  9
$DIMTOH
 70
     0
  9
$DIMSE1
 70
     0
  9
$DIMSE2
 70
     0
  9
$DIMTAD
 70
     0
  9
$DIMZIN
 70
     0
  9
$DIMBLK
  1

  9
$DIMASO
 70
     1
  9
$DIMSHO
 70
     0
  9
$DIMPOST
  1

  9
$DIMAPOST
  1

  9
$DIMALT
 70
     0
  9
$DIMALTD
 70
     2
  9
$DIMALTF
 40
25.4
  9
$DIMLFAC
 40
1.0
  9
$DIMTOFL
 70
     0
  9
$DIMTVP
 40
0.0
  9
$DIMTIX
 70
     0
  9
$DIMSOXD
 70
     0
  9
$DIMSAH
 70
     0
  9
$DIMBLK1
  1

  9
$DIMBLK2
  1

  9
$DIMSTYLE
  2
TEAM
  9
$DIMCLRD
 70
     9
  9
$DIMCLRE
 70
     9
  9
$DIMCLRT
 70
    11
  9
$DIMTFAC
 40
1.0
  9
$DIMGAP
 40
7.0
  9
$LUNITS
 70
     2
  9
$LUPREC
 70
     1
  9
$SKETCHINC
 40
1.0
  9
$FILLETRAD
 40
10.0
  9
$AUNITS
 70
     0
  9
$AUPREC
 70
     0
  9
$MENU
  1
ROPLANS
  9
$ELEVATION
 40
0.0
  9
$PELEVATION
 40
0.0
  9
$THICKNESS
 40
0.0
  9
$LIMCHECK
 70
     0
  9
$BLIPMODE
 70
     1
  9
$CHAMFERA
 40
0.0
  9
$CHAMFERB
 40
0.0
  9
$SKPOLY
 70
     0
  9
$TDCREATE
 40
2450392.957851
  9
$TDUPDATE
 40
2456108.504222
  9
$TDINDWG
 40
4.193894
  9
$TDUSRTIMER
 40
4.193894
  9
$USRTIMER
 70
     1
  9
$ANGBASE
 50
0.0
  9
$ANGDIR
 70
     0
  9
$PDMODE
 70
     0
  9
$PDSIZE
 40
0.0
  9
$PLINEWID
 40
0.0
  9
$COORDS
 70
     2
  9
$SPLFRAME
 70
     0
  9
$SPLINETYPE
 70
     6
  9
$SPLINESEGS
 70
     8
  9
$ATTDIA
 70
     0
  9
$ATTREQ
 70
     0
  9
$HANDLING
 70
     1
  9
$HANDSEED
  5
EE
  9
$SURFTAB1
 70
    36
  9
$SURFTAB2
 70
    36
  9
$SURFTYPE
 70
     6
  9
$SURFU
 70
     6
  9
$SURFV
 70
     6
  9
$UCSNAME
  2

  9
$UCSORG
 10
0.0
 20
0.0
 30
0.0
  9
$UCSXDIR
 10
1.0
 20
0.0
 30
0.0
  9
$UCSYDIR
 10
0.0
 20
1.0
 30
0.0
  9
$PUCSNAME
  2

  9
$PUCSORG
 10
0.0
 20
0.0
 30
0.0
  9
$PUCSXDIR
 10
1.0
 20
0.0
 30
0.0
  9
$PUCSYDIR
 10
0.0
 20
1.0
 30
0.0
  9
$USERI1
 70
     0
  9
$USERI2
 70
     0
  9
$USERI3
 70
     0
  9
$USERI4
 70
     0
  9
$USERI5
 70
     0
  9
$USERR1
 40
0.0
  9
$USERR2
 40
0.0
  9
$USERR3
 40
0.0
  9
$USERR4
 40
0.0
  9
$USERR5
 40
0.0
  9
$WORLDVIEW
 70
     1
  9
$SHADEDGE
 70
     0
  9
$SHADEDIF
 70
    70
  9
$TILEMODE
 70
     1
  9
$MAXACTVP
 70
    16
  9
$PLIMCHECK
 70
     0
  9
$PEXTMIN
 10
-0.805942
 20
0.005011
 30
0.0
  9
$PEXTMAX
 10
20.250094
 20
11.356329
 30
0.0
  9
$PLIMMIN
 10
0.0
 20
0.0
  9
$PLIMMAX
 10
12.0
 20
9.0
  9
$UNITMODE
 70
     0
  9
$VISRETAIN
 70
     0
  9
$PLINEGEN
 70
     0
  9
$PSLTSCALE
 70
     0
  0
ENDSEC
  0
SECTION
  2
TABLES
  0
TABLE
  2
VPORT
 70
     2
  0
VPORT
  2
*ACTIVE
 70
     0
 10
0.0
 20
0.0
 11
1.0
 21
1.0
 12
267.568574
 22
238.724045
 13
0.0
 23
0.0
 14
1.0
 24
1.0
 15
50.0
 25
50.0
 16
0.0
 26
0.0
 36
1.0
 17
0.0
 27
0.0
 37
0.0
 40
500.653837
 41
1.911765
 42
50.0
 43
0.0
 44
0.0
 50
0.0
 51
0.0
 71
     0
 72
   100
 73
     1
 74
     1
 75
     0
 76
     0
 77
     0
 78
     0
  0
ENDTAB
  0
TABLE
  2
LTYPE
 70
     3
  0
LTYPE
  2
CONTINUOUS
 70
     0
  3
Solid Line
 72
    65
 73
     0
 40
0.0
  0
LTYPE
  2
31
 70
     0
  3

 72
    65
 73
     4
 40
2.1
 49
1.5
 49
-0.3
 49
0.0
 49
-0.3
  0
LTYPE
  2
22
 70
     0
  3

 72
    65
 73
     2
 40
1.4
 49
1.2
 49
-0.2
  0
ENDTAB
  0
TABLE
  2
LAYER
 70
     9
  0
LAYER
  2
0
 70
     0
 62
     7
  6
CONTINUOUS
  0
LAYER
  2
DEFPOINTS
 70
     0
 62
     7
  6
CONTINUOUS
  0
LAYER
  2
TEAM-BODY
 70
     0
 62
     2
  6
CONTINUOUS
  0
LAYER
  2
TEAM-AXE
 70
     0
 62
    10
  6
31
  0
LAYER
  2
TEAM-MAS
 70
     0
 62
     9
  6
CONTINUOUS
  0
LAYER
  2
TEAM-TXT
 70
     0
 62
    11
  6
CONTINUOUS
  0
LAYER
  2
TEAM-DET1
 70
     0
 62
     4
  6
CONTINUOUS
  0
LAYER
  2
TEAM-HIDE
 70
     0
 62
     8
  6
22
  0
LAYER
  2
TEAM-INSP
 70
     0
 62
     5
  6
CONTINUOUS
  0
ENDTAB
  0
TABLE
  2
STYLE
 70
     2
  0
STYLE
  2
STANDARD
 70
     0
 40
0.0
 41
1.0
 50
0.0
 71
     0
 42
200.0
  3
txt
  4

  0
STYLE
  2
TEAM
 70
     0
 40
0.0
 41
0.8
 50
15.0
 71
     0
 42
7.0
  3
ROMANS.shx
  4

  0
ENDTAB
  0
TABLE
  2
VIEW
 70
     0
  0
ENDTAB
  0
TABLE
  2
UCS
 70
     0
  0
ENDTAB
  0
TABLE
  2
APPID
 70
     1
  0
APPID
  2
ACAD
 70
     0
  0
ENDTAB
  0
TABLE
  2
DIMSTYLE
 70
     1
  0
DIMSTYLE
  2
TEAM
 70
     0
  3

  4

  5

  6

  7

 40
0.0
 41
20.0
 42
10.0
 43
1.0
 44
1.0
 45
0.0
 46
0.0
 47
0.0
 48
0.0
140
35.0
141
1.0
142
0.0
143
25.4
144
1.0
145
0.0
146
1.0
147
7.0
 71
     0
 72
     0
 73
     0
 74
     0
 75
     0
 76
     0
 77
     0
 78
     0
170
     0
171
     2
172
     0
173
     0
174
     0
175
     0
176
     9
177
     9
178
    11
  0
ENDTAB
  0
ENDSEC
  0
SECTION
  2
BLOCKS
  0
BLOCK
  8
0
  2
$MODEL_SPACE
 70
     0
 10
0.0
 20
0.0
 30
0.0
  3
$MODEL_SPACE
  1

  0
ENDBLK
  5
D7
  8
0
  0
BLOCK
 67
     1
  8
0
  2
$PAPER_SPACE
 70
     0
 10
0.0
 20
0.0
 30
0.0
  3
$PAPER_SPACE
  1

  0
ENDBLK
  5
D5
 67
     1
  8
0
  0
BLOCK
  8
0
  2
*D0
 70
     1
 10
0.0
 20
0.0
 30
0.0
  3
*D0
  1

  0
LINE
  5
28
  8
0
  6
BYBLOCK
 62
     9
 10
8000.0
 20
60010.0
 30
0.0
 11
8000.0
 21
60470.959388
 31
0.0
  0
LINE
  5
29
  8
0
  6
BYBLOCK
 62
     9
 10
8540.0
 20
60388.0
 30
0.0
 11
8540.0
 21
60470.959388
 31
0.0
  0
LINE
  5
2A
  8
0
  6
BYBLOCK
 62
     9
 10
8020.0
 20
60469.959388
 30
0.0
 11
8219.25
 21
60469.959388
 31
0.0
  0
LINE
  5
2B
  8
0
  6
BYBLOCK
 62
     9
 10
8520.0
 20
60469.959388
 30
0.0
 11
8320.75
 21
60469.959388
 31
0.0
  0
SOLID
  5
2C
  8
0
  6
BYBLOCK
 62
     9
 10
8020.0
 20
60473.292722
 30
0.0
 11
8020.0
 21
60466.626055
 31
0.0
 12
8000.0
 22
60469.959388
 32
0.0
 13
8000.0
 23
60469.959388
 33
0.0
  0
SOLID
  5
2D
  8
0
  6
BYBLOCK
 62
     9
 10
8520.0
 20
60473.292722
 30
0.0
 11
8520.0
 21
60466.626055
 31
0.0
 12
8540.0
 22
60469.959388
 32
0.0
 13
8540.0
 23
60469.959388
 33
0.0
  0
TEXT
  5
2E
  8
0
  6
BYBLOCK
 62
    11
 10
8226.25
 20
60452.459388
 30
0.0
 40
35.0
  1
540
  0
POINT
  5
2F
  8
DEFPOINTS
  6
BYBLOCK
 62
     0
 10
8000.0
 20
60000.0
 30
0.0
  0
POINT
  5
31
  8
DEFPOINTS
  6
BYBLOCK
 62
     0
 10
8540.0
 20
60378.0
 30
0.0
  0
POINT
  5
32
  8
DEFPOINTS
  6
BYBLOCK
 62
     0
 10
8540.0
 20
60469.959388
 30
0.0
  0
ENDBLK
  5
34
  8
0
  0
BLOCK
  8
0
  2
*D1
 70
     1
 10
0.0
 20
0.0
 30
0.0
  3
*D1
  1

  0
LINE
  5
37
  8
0
  6
BYBLOCK
 62
     9
 10
8010.0
 20
60000.0
 30
0.0
 11
8577.550422
 21
60000.0
 31
0.0
  0
LINE
  5
38
  8
0
  6
BYBLOCK
 62
     9
 10
8543.0
 20
60400.0
 30
0.0
 11
8577.550422
 21
60400.0
 31
0.0
  0
LINE
  5
39
  8
0
  6
BYBLOCK
 62
     9
 10
8576.550422
 20
60020.0
 30
0.0
 11
8576.550422
 21
60152.166667
 31
0.0
  0
LINE
  5
3A
  8
0
  6
BYBLOCK
 62
     9
 10
8576.550422
 20
60380.0
 30
0.0
 11
8576.550422
 21
60247.833333
 31
0.0
  0
SOLID
  5
3B
  8
0
  6
BYBLOCK
 62
     9
 10
8573.217089
 20
60020.0
 30
0.0
 11
8579.883756
 21
60020.0
 31
0.0
 12
8576.550422
 22
60000.0
 32
0.0
 13
8576.550422
 23
60000.0
 33
0.0
  0
SOLID
  5
3C
  8
0
  6
BYBLOCK
 62
     9
 10
8573.217089
 20
60380.0
 30
0.0
 11
8579.883756
 21
60380.0
 31
0.0
 12
8576.550422
 22
60400.0
 32
0.0
 13
8576.550422
 23
60400.0
 33
0.0
  0
TEXT
  5
3D
  8
0
  6
BYBLOCK
 62
    11
 10
8594.050422
 20
60159.166667
 30
0.0
 40
35.0
  1
400
 50
90.0
  0
POINT
  5
3E
  8
DEFPOINTS
  6
BYBLOCK
 62
     0
 10
8000.0
 20
60000.0
 30
0.0
  0
POINT
  5
3F
  8
DEFPOINTS
  6
BYBLOCK
 62
     0
 10
8533.0
 20
60400.0
 30
0.0
  0
POINT
  5
40
  8
DEFPOINTS
  6
BYBLOCK
 62
     0
 10
8576.550422
 20
60400.0
 30
0.0
  0
ENDBLK
  5
42
  8
0
  0
BLOCK
  8
0
  2
*D2
 70
     1
 10
0.0
 20
0.0
 30
0.0
  3
*D2
  1

  0
LINE
  5
78
  8
0
  6
BYBLOCK
 62
     9
 10
7990.0
 20
60000.0
 30
0.0
 11
7957.560214
 21
60000.0
 31
0.0
  0
LINE
  5
79
  8
0
  6
BYBLOCK
 62
     9
 10
7990.461289
 20
60219.995413
 30
0.0
 11
7957.560214
 21
60219.995413
 31
0.0
  0
LINE
  5
7A
  8
0
  6
BYBLOCK
 62
     9
 10
7958.560214
 20
60020.0
 30
0.0
 11
7958.560214
 21
60059.247706
 31
0.0
  0
LINE
  5
7B
  8
0
  6
BYBLOCK
 62
     9
 10
7958.560214
 20
60199.995413
 30
0.0
 11
7958.560214
 21
60160.747706
 31
0.0
  0
SOLID
  5
7C
  8
0
  6
BYBLOCK
 62
     9
 10
7955.226881
 20
60020.0
 30
0.0
 11
7961.893548
 21
60020.0
 31
0.0
 12
7958.560214
 22
60000.0
 32
0.0
 13
7958.560214
 23
60000.0
 33
0.0
  0
SOLID
  5
7D
  8
0
  6
BYBLOCK
 62
     9
 10
7955.226881
 20
60199.995413
 30
0.0
 11
7961.893548
 21
60199.995413
 31
0.0
 12
7958.560214
 22
60219.995413
 32
0.0
 13
7958.560214
 23
60219.995413
 33
0.0
  0
TEXT
  5
7E
  8
0
  6
BYBLOCK
 62
    11
 10
7976.060214
 20
60066.247706
 30
0.0
 40
35.0
  1
220
 50
90.0
  0
POINT
  5
7F
  8
DEFPOINTS
  6
BYBLOCK
 62
     0
 10
8000.0
 20
60000.0
 30
0.0
  0
POINT
  5
80
  8
DEFPOINTS
  6
BYBLOCK
 62
     0
 10
8000.461289
 20
60219.995413
 30
0.0
  0
POINT
  5
81
  8
DEFPOINTS
  6
BYBLOCK
 62
     0
 10
7958.560214
 20
60219.995413
 30
0.0
  0
ENDBLK
  5
83
  8
0
  0
ENDSEC
  0
SECTION
  2
ENTITIES
  0
ARC
  5
20
  8
TEAM-HIDE
 10
493.0
 20
393.0
 30
0.0
 40
7.0
 50
90.0
 51
180.0
  0
ARC
  5
23
  8
TEAM-HIDE
 10
175.452074
 20
393.0
 30
0.0
 40
7.0
 50
10.0
 51
90.0
  0
POLYLINE
  5
24
  8
TEAM-BODY
 66
     1
 10
0.0
 20
0.0
 30
0.0
 70
     1
  0
VERTEX
  5
DD
  8
TEAM-BODY
 10
0.0
 20
435.0
 30
0.0
  0
VERTEX
  5
DE
  8
TEAM-BODY
 10
29.126303
 20
435.0
 30
0.0
 42
-0.36397
  0
VERTEX
  5
DF
  8
TEAM-BODY
 10
36.019957
 20
429.215537
 30
0.0
  0
VERTEX
  5
E0
  8
TEAM-BODY
 10
38.985822
 20
412.395277
 30
0.0
 42
0.36397
  0
VERTEX
  5
E1
  8
TEAM-BODY
 10
53.757939
 20
400.0
 30
0.0
  0
VERTEX
  5
E2
  8
TEAM-BODY
 10
533.0
 20
400.0
 30
0.0
 42
-0.414214
  0
VERTEX
  5
E3
  8
TEAM-BODY
 10
540.0
 20
393.0
 30
0.0
  0
VERTEX
  5
E4
  8
TEAM-BODY
 10
540.0
 20
363.0
 30
0.0
 42
-0.414214
  0
VERTEX
  5
E5
  8
TEAM-BODY
 10
535.0
 20
358.0
 30
0.0
  0
VERTEX
  5
E6
  8
TEAM-BODY
 10
534.97875
 20
358.0
 30
0.0
 42
0.410508
  0
VERTEX
  5
E7
  8
TEAM-BODY
 10
529.979151
 20
353.063341
 30
0.0
 42
-0.393335
  0
VERTEX
  5
E8
  8
TEAM-BODY
 10
255.0
 20
65.0
 30
0.0
 42
-0.10256
  0
VERTEX
  5
E9
  8
TEAM-BODY
 10
219.682561
 20
73.931322
 30
0.0
  0
VERTEX
  5
EA
  8
TEAM-BODY
 10
7.0
 20
73.931322
 30
0.0
 42
-0.414214
  0
VERTEX
  5
EB
  8
TEAM-BODY
 10
0.0
 20
80.931322
 30
0.0
  0
SEQEND
  5
EC
  8
TEAM-BODY
  0
DIMENSION
  5
26
  8
TEAM-MAS
  2
*D0
 10
540.0
 20
469.959388
 30
0.0
 11
270.0
 21
469.959388
 31
0.0
 12
-8000.0
 22
-60000.0
 32
0.0
 13
0.0
 23
0.0
 33
0.0
 14
540.0
 24
378.0
 34
0.0
1001
ACAD
1000
DSTYLE
1002
{
1070
    40
1040
1.0
1002
}
  0
DIMENSION
  5
35
  8
TEAM-MAS
  2
*D1
 10
576.550422
 20
400.0
 30
0.0
 11
576.550422
 21
200.0
 31
0.0
 12
-8000.0
 22
-60000.0
 32
0.0
 13
0.0
 23
0.0
 33
0.0
 14
533.0
 24
400.0
 34
0.0
 50
90.0
1001
ACAD
1000
DSTYLE
1002
{
1070
    40
1040
1.0
1002
}
  0
ARC
  5
43
  8
TEAM-HIDE
 10
377.8505
 20
386.484067
 30
0.0
 40
154.792805
 50
280.900024
 51
349.396339
  0
LINE
  5
44
  8
TEAM-BODY
 10
535.0
 20
358.0
 30
0.0
 11
0.0
 21
358.0
 31
0.0
  0
LINE
  5
45
  8
TEAM-HIDE
 10
486.0
 20
393.0
 30
0.0
 11
486.0
 21
365.0
 31
0.0
  0
ARC
  5
46
  8
TEAM-HIDE
 10
493.0
 20
365.0
 30
0.0
 40
7.0
 50
180.0
 51
270.0
  0
LINE
  5
47
  8
TEAM-BODY
 10
-0.003984
 20
50.003509
 30
0.0
 11
-0.003984
 21
50.003509
 31
0.0
  0
LINE
  5
48
  8
TEAM-BODY
 10
-0.003984
 20
50.003509
 30
0.0
 11
-0.003984
 21
50.003509
 31
0.0
  0
CIRCLE
  5
49
  8
TEAM-INSP
 10
0.0
 20
0.0
 30
0.0
 40
10.0
  0
LINE
  5
4B
  8
TEAM-DET1
 10
112.50289
 20
358.0
 30
0.0
 11
112.50289
 21
244.953711
 31
0.0
  0
LINE
  5
4D
  8
TEAM-DET1
 10
37.50289
 20
358.0
 30
0.0
 11
37.50289
 21
244.953711
 31
0.0
  0
ARC
  5
4E
  8
TEAM-HIDE
 10
294.602158
 20
358.771199
 30
0.0
 40
137.180547
 50
193.533078
 51
226.316158
  0
LINE
  5
4F
  8
TEAM-HIDE
 10
22.917762
 20
270.995413
 30
0.0
 11
22.917762
 21
168.995413
 31
0.0
  0
ARC
  5
50
  8
TEAM-HIDE
 10
260.768993
 20
171.105332
 30
0.0
 40
106.262047
 50
287.262303
 51
340.921835
  0
LINE
  5
51
  8
TEAM-HIDE
 10
384.229896
 20
214.19518
 30
0.0
 11
361.194443
 21
136.372756
 31
0.0
  0
ARC
  5
52
  8
TEAM-HIDE
 10
412.794053
 20
205.025177
 30
0.0
 40
30.0
 50
100.900024
 51
162.201717
  0
ARC
  5
53
  8
TEAM-HIDE
 10
258.883152
 20
154.649439
 30
0.0
 40
89.733498
 50
180.675497
 51
244.096565
  0
LINE
  5
54
  8
TEAM-HIDE
 10
85.948284
 20
167.0
 30
0.0
 11
85.948284
 21
91.055682
 31
0.0
  0
LINE
  5
55
  8
TEAM-HIDE
 10
78.948284
 20
84.055682
 30
0.0
 11
0.0
 21
84.055682
 31
0.0
  0
LINE
  5
56
  8
TEAM-HIDE
 10
85.948284
 20
158.532591
 30
0.0
 11
164.156238
 21
158.532591
 31
0.0
  0
ARC
  5
57
  8
TEAM-HIDE
 10
61.952285
 20
119.54138
 30
0.0
 40
196.530714
 50
4.012706
 51
45.437829
  0
ARC
  5
58
  8
TEAM-HIDE
 10
164.156238
 20
153.532591
 30
0.0
 40
5.0
 50
0.675497
 51
90.0
  0
LINE
  5
59
  8
TEAM-HIDE
 10
85.948284
 20
126.928591
 30
0.0
 11
7.919202
 21
120.431478
 31
0.0
  0
LINE
  5
5A
  8
TEAM-HIDE
 10
80.948284
 20
172.0
 30
0.0
 11
22.917762
 21
168.995413
 31
0.0
  0
ARC
  5
5B
  8
TEAM-HIDE
 10
80.948284
 20
167.0
 30
0.0
 40
5.0
 50
0.0
 51
90.0
  0
ARC
  5
5C
  8
TEAM-HIDE
 10
13.084004
 20
108.32589
 30
0.0
 40
13.161324
 50
113.105326
 51
173.786339
  0
LINE
  5
5D
  8
TEAM-DET1
 10
91.681164
 20
237.953711
 30
0.0
 11
57.08487
 21
237.953711
 31
0.0
  0
LINE
  5
5E
  8
TEAM-AXE
 10
93.051903
 20
219.995413
 30
0.0
 11
-9.538711
 21
219.995413
 31
0.0
  0
ARC
  5
61
  8
TEAM-DET1
 10
105.50289
 20
244.953711
 30
0.0
 40
7.0
 50
270.0
 51
0.0
  0
ARC
  5
62
  8
TEAM-DET1
 10
44.50289
 20
244.953711
 30
0.0
 40
7.0
 50
180.0
 51
270.0
  0
LINE
  5
63
  8
TEAM-HIDE
 10
160.366389
 20
274.0
 30
0.0
 11
22.917762
 21
270.995413
 31
0.0
  0
LINE
  5
64
  8
TEAM-HIDE
 10
156.369256
 20
330.5
 30
0.0
 11
15.814143
 21
330.5
 31
0.0
  0
LINE
  5
65
  8
TEAM-HIDE
 10
190.800963
 20
346.263518
 30
0.0
 11
158.964348
 21
329.773816
 31
0.0
  0
ARC
  5
66
  8
TEAM-HIDE
 10
156.369256
 20
325.5
 30
0.0
 40
5.0
 50
13.533078
 51
90.0
  0
LINE
  5
67
  8
TEAM-HIDE
 10
182.345729
 20
394.215537
 30
0.0
 11
190.800963
 21
346.263518
 31
0.0
  0
ARC
  5
68
  8
TEAM-HIDE
 10
200.649041
 20
348.0
 30
0.0
 40
10.0
 50
90.0
 51
190.0
  0
LINE
  5
69
  8
TEAM-HIDE
 10
15.814143
 20
385.5
 30
0.0
 11
15.814143
 21
330.5
 31
0.0
  0
LINE
  5
6A
  8
TEAM-HIDE
 10
59.137464
 20
338.236993
 30
0.0
 11
59.137464
 21
330.5
 31
0.0
  0
LINE
  5
6B
  8
TEAM-HIDE
 10
59.137464
 20
385.5
 30
0.0
 11
15.814143
 21
385.5
 31
0.0
  0
LINE
  5
6C
  8
TEAM-HIDE
 10
59.137464
 20
385.5
 30
0.0
 11
59.137464
 21
377.500582
 31
0.0
  0
LINE
  5
6D
  8
TEAM-AXE
 10
48.357671
 20
358.0
 30
0.0
 11
-16.642329
 21
358.0
 31
0.0
  0
ARC
  5
6E
  8
TEAM-HIDE
 10
8.074911
 20
388.26368
 30
0.0
 40
5.0
 50
32.872349
 51
90.0
  0
LINE
  5
6F
  8
TEAM-HIDE
 10
15.814143
 20
385.5
 30
0.0
 11
12.274321
 21
390.977526
 31
0.0
  0
LINE
  5
70
  8
TEAM-HIDE
 10
8.074911
 20
393.26368
 30
0.0
 11
0.0
 21
393.26368
 31
0.0
  0
ARC
  5
71
  8
TEAM-HIDE
 10
78.948284
 20
91.055682
 30
0.0
 40
7.0
 50
270.0
 51
0.0
  0
ARC
  5
72
  8
TEAM-HIDE
 10
156.781278
 20
291.182004
 30
0.0
 40
17.552045
 50
281.785953
 51
5.781195
  0
TEXT
  5
73
  8
TEAM-TXT
 10
243.98925
 20
306.175034
 30
0.0
 40
30.0
  1
team 342035
 41
0.8
 51
15.0
  7
TEAM
  0
DIMENSION
  5
76
  8
TEAM-MAS
  2
*D2
 10
-41.439786
 20
219.995413
 30
0.0
 11
-41.439786
 21
109.997706
 31
0.0
 12
-8000.0
 22
-60000.0
 32
0.0
 13
0.0
 23
0.0
 33
0.0
 14
0.461289
 24
219.995413
 34
0.0
 50
90.0
1001
ACAD
1000
DSTYLE
1002
{
1070
    40
1040
1.0
1002
}
  0
ENDSEC
  0
EOF
