  0
SECTION
  2
HEADER
  9
$ACADVER
  1
AC1009
  9
$INSBASE
 10
0.0
 20
0.0
 30
0.0
  9
$EXTMIN
 10
-239.037208
 20
-10.024018
 30
0.0
  9
$EXTMAX
 10
263.459714
 20
560.170265
 30
0.000005
  9
$LIMMIN
 10
-239.037208
 20
-10.024018
  9
$LIMMAX
 10
263.459714
 20
560.170265
  9
$ORTHOMODE
 70
     1
  9
$REGENMODE
 70
     1
  9
$FILLMODE
 70
     1
  9
$QTEXTMODE
 70
     0
  9
$MIRRTEXT
 70
     0
  9
$DRAGMODE
 70
     2
  9
$LTSCALE
 40
50.0
  9
$OSMODE
 70
     0
  9
$ATTMODE
 70
     1
  9
$TEXTSIZE
 40
200.0
  9
$TRACEWID
 40
1.0
  9
$TEXTSTYLE
  7
STANDARD
  9
$CLAYER
  8
TEAM-MAS
  9
$CELTYPE
  6
BYLAYER
  9
$CECOLOR
 62
   256
  9
$DIMSCALE
 40
0.0
  9
$DIMASZ
 40
20.0
  9
$DIMEXO
 40
10.0
  9
$DIMDLI
 40
1.0
  9
$DIMRND
 40
0.0
  9
$DIMDLE
 40
0.0
  9
$DIMEXE
 40
1.0
  9
$DIMTP
 40
0.0
  9
$DIMTM
 40
0.0
  9
$DIMTXT
 40
35.0
  9
$DIMCEN
 40
1.0
  9
$DIMTSZ
 40
0.0
  9
$DIMTOL
 70
     0
  9
$DIMLIM
 70
     0
  9
$DIMTIH
 70
     0
  9
$DIMTOH
 70
     0
  9
$DIMSE1
 70
     0
  9
$DIMSE2
 70
     0
  9
$DIMTAD
 70
     0
  9
$DIMZIN
 70
     0
  9
$DIMBLK
  1

  9
$DIMASO
 70
     1
  9
$DIMSHO
 70
     0
  9
$DIMPOST
  1

  9
$DIMAPOST
  1

  9
$DIMALT
 70
     0
  9
$DIMALTD
 70
     2
  9
$DIMALTF
 40
25.4
  9
$DIMLFAC
 40
1.0
  9
$DIMTOFL
 70
     0
  9
$DIMTVP
 40
0.0
  9
$DIMTIX
 70
     0
  9
$DIMSOXD
 70
     0
  9
$DIMSAH
 70
     0
  9
$DIMBLK1
  1

  9
$DIMBLK2
  1

  9
$DIMSTYLE
  2
TEAM
  9
$DIMCLRD
 70
     9
  9
$DIMCLRE
 70
     9
  9
$DIMCLRT
 70
    11
  9
$DIMTFAC
 40
1.0
  9
$DIMGAP
 40
7.0
  9
$LUNITS
 70
     2
  9
$LUPREC
 70
     1
  9
$SKETCHINC
 40
1.0
  9
$FILLETRAD
 40
10.0
  9
$AUNITS
 70
     0
  9
$AUPREC
 70
     0
  9
$MENU
  1
ROPLANS
  9
$ELEVATION
 40
0.0
  9
$PELEVATION
 40
0.0
  9
$THICKNESS
 40
0.0
  9
$LIMCHECK
 70
     0
  9
$BLIPMODE
 70
     1
  9
$CHAMFERA
 40
0.0
  9
$CHAMFERB
 40
0.0
  9
$SKPOLY
 70
     0
  9
$TDCREATE
 40
2450392.957851
  9
$TDUPDATE
 40
2456108.504222
  9
$TDINDWG
 40
4.193894
  9
$TDUSRTIMER
 40
4.193894
  9
$USRTIMER
 70
     1
  9
$ANGBASE
 50
0.0
  9
$ANGDIR
 70
     0
  9
$PDMODE
 70
     0
  9
$PDSIZE
 40
0.0
  9
$PLINEWID
 40
0.0
  9
$COORDS
 70
     2
  9
$SPLFRAME
 70
     0
  9
$SPLINETYPE
 70
     6
  9
$SPLINESEGS
 70
     8
  9
$ATTDIA
 70
     0
  9
$ATTREQ
 70
     0
  9
$HANDLING
 70
     1
  9
$HANDSEED
  5
137
  9
$SURFTAB1
 70
    36
  9
$SURFTAB2
 70
    36
  9
$SURFTYPE
 70
     6
  9
$SURFU
 70
     6
  9
$SURFV
 70
     6
  9
$UCSNAME
  2

  9
$UCSORG
 10
0.0
 20
0.0
 30
0.0
  9
$UCSXDIR
 10
1.0
 20
0.0
 30
0.0
  9
$UCSYDIR
 10
0.0
 20
1.0
 30
0.0
  9
$PUCSNAME
  2

  9
$PUCSORG
 10
0.0
 20
0.0
 30
0.0
  9
$PUCSXDIR
 10
1.0
 20
0.0
 30
0.0
  9
$PUCSYDIR
 10
0.0
 20
1.0
 30
0.0
  9
$USERI1
 70
     0
  9
$USERI2
 70
     0
  9
$USERI3
 70
     0
  9
$USERI4
 70
     0
  9
$USERI5
 70
     0
  9
$USERR1
 40
0.0
  9
$USERR2
 40
0.0
  9
$USERR3
 40
0.0
  9
$USERR4
 40
0.0
  9
$USERR5
 40
0.0
  9
$WORLDVIEW
 70
     1
  9
$SHADEDGE
 70
     0
  9
$SHADEDIF
 70
    70
  9
$TILEMODE
 70
     1
  9
$MAXACTVP
 70
    16
  9
$PLIMCHECK
 70
     0
  9
$PEXTMIN
 10
-0.805942
 20
0.005011
 30
0.0
  9
$PEXTMAX
 10
20.250094
 20
11.356329
 30
0.0
  9
$PLIMMIN
 10
0.0
 20
0.0
  9
$PLIMMAX
 10
12.0
 20
9.0
  9
$UNITMODE
 70
     0
  9
$VISRETAIN
 70
     0
  9
$PLINEGEN
 70
     0
  9
$PSLTSCALE
 70
     0
  0
ENDSEC
  0
SECTION
  2
TABLES
  0
TABLE
  2
VPORT
 70
     2
  0
VPORT
  2
*ACTIVE
 70
     0
 10
0.0
 20
0.0
 11
1.0
 21
1.0
 12
12.211253
 22
275.073124
 13
0.0
 23
0.0
 14
1.0
 24
1.0
 15
50.0
 25
50.0
 16
0.0
 26
0.0
 36
1.0
 17
0.0
 27
0.0
 37
0.0
 40
573.784174
 41
1.911765
 42
50.0
 43
0.0
 44
0.0
 50
0.0
 51
0.0
 71
     0
 72
   100
 73
     1
 74
     1
 75
     0
 76
     0
 77
     0
 78
     0
  0
ENDTAB
  0
TABLE
  2
LTYPE
 70
     3
  0
LTYPE
  2
CONTINUOUS
 70
     0
  3
Solid Line
 72
    65
 73
     0
 40
0.0
  0
LTYPE
  2
31
 70
     0
  3

 72
    65
 73
     4
 40
2.1
 49
1.5
 49
-0.3
 49
0.0
 49
-0.3
  0
LTYPE
  2
22
 70
     0
  3

 72
    65
 73
     2
 40
1.4
 49
1.2
 49
-0.2
  0
ENDTAB
  0
TABLE
  2
LAYER
 70
    10
  0
LAYER
  2
0
 70
     0
 62
     7
  6
CONTINUOUS
  0
LAYER
  2
DEFPOINTS
 70
     0
 62
     7
  6
CONTINUOUS
  0
LAYER
  2
TEAM-BODY
 70
     0
 62
     2
  6
CONTINUOUS
  0
LAYER
  2
TEAM-AXE
 70
     0
 62
    10
  6
31
  0
LAYER
  2
TEAM-MAS
 70
     0
 62
     9
  6
CONTINUOUS
  0
LAYER
  2
TEAM-TXT
 70
     0
 62
    11
  6
CONTINUOUS
  0
LAYER
  2
TEAM-COLD
 70
     0
 62
     3
  6
CONTINUOUS
  0
LAYER
  2
TEAM-HIDE
 70
     0
 62
     8
  6
22
  0
LAYER
  2
TEAM-KAN
 70
     0
 62
     6
  6
CONTINUOUS
  0
LAYER
  2
TEAM-INSP
 70
     0
 62
     5
  6
CONTINUOUS
  0
ENDTAB
  0
TABLE
  2
STYLE
 70
     2
  0
STYLE
  2
STANDARD
 70
     0
 40
0.0
 41
1.0
 50
0.0
 71
     0
 42
200.0
  3
txt
  4

  0
STYLE
  2
TEAM
 70
     0
 40
0.0
 41
0.8
 50
15.0
 71
     0
 42
7.0
  3
ROMANS.shx
  4

  0
ENDTAB
  0
TABLE
  2
VIEW
 70
     0
  0
ENDTAB
  0
TABLE
  2
UCS
 70
     0
  0
ENDTAB
  0
TABLE
  2
APPID
 70
     1
  0
APPID
  2
ACAD
 70
     0
  0
ENDTAB
  0
TABLE
  2
DIMSTYLE
 70
     1
  0
DIMSTYLE
  2
TEAM
 70
     0
  3

  4

  5

  6

  7

 40
0.0
 41
20.0
 42
10.0
 43
1.0
 44
1.0
 45
0.0
 46
0.0
 47
0.0
 48
0.0
140
35.0
141
1.0
142
0.0
143
25.4
144
1.0
145
0.0
146
1.0
147
7.0
 71
     0
 72
     0
 73
     0
 74
     0
 75
     0
 76
     0
 77
     0
 78
     0
170
     0
171
     2
172
     0
173
     0
174
     0
175
     0
176
     9
177
     9
178
    11
  0
ENDTAB
  0
ENDSEC
  0
SECTION
  2
BLOCKS
  0
BLOCK
  8
0
  2
$MODEL_SPACE
 70
     0
 10
0.0
 20
0.0
 30
0.0
  3
$MODEL_SPACE
  1

  0
ENDBLK
  5
10D
  8
0
  0
BLOCK
 67
     1
  8
0
  2
$PAPER_SPACE
 70
     0
 10
0.0
 20
0.0
 30
0.0
  3
$PAPER_SPACE
  1

  0
ENDBLK
  5
10B
 67
     1
  8
0
  0
BLOCK
  8
0
  2
*D0
 70
     1
 10
0.0
 20
0.0
 30
0.0
  3
*D0
  1

  0
LINE
  5
24
  8
0
  6
BYBLOCK
 62
     9
 10
12010.0
 20
60000.0
 30
0.0
 11
12246.946929
 21
60000.0
 31
0.0
  0
LINE
  5
25
  8
0
  6
BYBLOCK
 62
     9
 10
12172.424925
 20
60400.0
 30
0.0
 11
12246.946929
 21
60400.0
 31
0.0
  0
LINE
  5
26
  8
0
  6
BYBLOCK
 62
     9
 10
12245.946929
 20
60020.0
 30
0.0
 11
12245.946929
 21
60152.166667
 31
0.0
  0
LINE
  5
27
  8
0
  6
BYBLOCK
 62
     9
 10
12245.946929
 20
60380.0
 30
0.0
 11
12245.946929
 21
60247.833333
 31
0.0
  0
SOLID
  5
28
  8
0
  6
BYBLOCK
 62
     9
 10
12242.613596
 20
60020.0
 30
0.0
 11
12249.280263
 21
60020.0
 31
0.0
 12
12245.946929
 22
60000.0
 32
0.0
 13
12245.946929
 23
60000.0
 33
0.0
  0
SOLID
  5
29
  8
0
  6
BYBLOCK
 62
     9
 10
12242.613596
 20
60380.0
 30
0.0
 11
12249.280263
 21
60380.0
 31
0.0
 12
12245.946929
 22
60400.0
 32
0.0
 13
12245.946929
 23
60400.0
 33
0.0
  0
TEXT
  5
2A
  8
0
  6
BYBLOCK
 62
    11
 10
12263.446929
 20
60159.166667
 30
0.0
 40
35.0
  1
400
 50
90.0
  0
POINT
  5
2B
  8
DEFPOINTS
  6
BYBLOCK
 62
     0
 10
12000.0
 20
60000.0
 30
0.0
  0
POINT
  5
2D
  8
DEFPOINTS
  6
BYBLOCK
 62
     0
 10
12162.424925
 20
60400.0
 30
0.0
  0
POINT
  5
2E
  8
DEFPOINTS
  6
BYBLOCK
 62
     0
 10
12245.946929
 20
60400.0
 30
0.0
  0
ENDBLK
  5
30
  8
0
  0
BLOCK
  8
0
  2
*D1
 70
     1
 10
0.0
 20
0.0
 30
0.0
  3
*D1
  1

  0
LINE
  5
33
  8
0
  6
BYBLOCK
 62
     9
 10
11909.892779
 20
60338.999256
 30
0.0
 11
11909.892779
 21
60493.78867
 31
0.0
  0
LINE
  5
34
  8
0
  6
BYBLOCK
 62
     9
 10
12089.892779
 20
60338.999256
 30
0.0
 11
12089.892779
 21
60493.78867
 31
0.0
  0
LINE
  5
35
  8
0
  6
BYBLOCK
 62
     9
 10
11929.892779
 20
60492.78867
 30
0.0
 11
11954.976112
 21
60492.78867
 31
0.0
  0
LINE
  5
36
  8
0
  6
BYBLOCK
 62
     9
 10
12069.892779
 20
60492.78867
 30
0.0
 11
12044.809446
 21
60492.78867
 31
0.0
  0
SOLID
  5
37
  8
0
  6
BYBLOCK
 62
     9
 10
11929.892779
 20
60496.122003
 30
0.0
 11
11929.892779
 21
60489.455336
 31
0.0
 12
11909.892779
 22
60492.78867
 32
0.0
 13
11909.892779
 23
60492.78867
 33
0.0
  0
SOLID
  5
38
  8
0
  6
BYBLOCK
 62
     9
 10
12069.892779
 20
60496.122003
 30
0.0
 11
12069.892779
 21
60489.455336
 31
0.0
 12
12089.892779
 22
60492.78867
 32
0.0
 13
12089.892779
 23
60492.78867
 33
0.0
  0
TEXT
  5
39
  8
0
  6
BYBLOCK
 62
    11
 10
11961.976112
 20
60475.28867
 30
0.0
 40
35.0
  1
180
  0
POINT
  5
3A
  8
DEFPOINTS
  6
BYBLOCK
 62
     0
 10
11909.892779
 20
60328.999256
 30
0.0
  0
POINT
  5
3B
  8
DEFPOINTS
  6
BYBLOCK
 62
     0
 10
12089.892779
 20
60328.999256
 30
0.0
  0
POINT
  5
3C
  8
DEFPOINTS
  6
BYBLOCK
 62
     0
 10
12089.892779
 20
60492.78867
 30
0.0
  0
ENDBLK
  5
3E
  8
0
  0
BLOCK
  8
0
  2
*D2
 70
     1
 10
0.0
 20
0.0
 30
0.0
  3
*D2
  1

  0
LINE
  5
41
  8
0
  6
BYBLOCK
 62
     9
 10
11817.5
 20
60389.0
 30
0.0
 11
11817.5
 21
60543.636026
 31
0.0
  0
LINE
  5
42
  8
0
  6
BYBLOCK
 62
     9
 10
12182.5
 20
60389.0
 30
0.0
 11
12182.5
 21
60543.636026
 31
0.0
  0
LINE
  5
43
  8
0
  6
BYBLOCK
 62
     9
 10
11837.5
 20
60542.636026
 30
0.0
 11
11946.333333
 21
60542.636026
 31
0.0
  0
LINE
  5
44
  8
0
  6
BYBLOCK
 62
     9
 10
12162.5
 20
60542.636026
 30
0.0
 11
12053.666667
 21
60542.636026
 31
0.0
  0
SOLID
  5
45
  8
0
  6
BYBLOCK
 62
     9
 10
11837.5
 20
60545.96936
 30
0.0
 11
11837.5
 21
60539.302693
 31
0.0
 12
11817.5
 22
60542.636026
 32
0.0
 13
11817.5
 23
60542.636026
 33
0.0
  0
SOLID
  5
46
  8
0
  6
BYBLOCK
 62
     9
 10
12162.5
 20
60545.96936
 30
0.0
 11
12162.5
 21
60539.302693
 31
0.0
 12
12182.5
 22
60542.636026
 32
0.0
 13
12182.5
 23
60542.636026
 33
0.0
  0
TEXT
  5
47
  8
0
  6
BYBLOCK
 62
    11
 10
11953.333333
 20
60525.136026
 30
0.0
 40
35.0
  1
365
  0
POINT
  5
48
  8
DEFPOINTS
  6
BYBLOCK
 62
     0
 10
11817.5
 20
60379.0
 30
0.0
  0
POINT
  5
49
  8
DEFPOINTS
  6
BYBLOCK
 62
     0
 10
12182.5
 20
60379.0
 30
0.0
  0
POINT
  5
4A
  8
DEFPOINTS
  6
BYBLOCK
 62
     0
 10
12182.5
 20
60542.636026
 30
0.0
  0
ENDBLK
  5
4C
  8
0
  0
BLOCK
  8
0
  2
*D3
 70
     1
 10
0.0
 20
0.0
 30
0.0
  3
*D3
  1

  0
LINE
  5
84
  8
0
  6
BYBLOCK
 62
     9
 10
12119.892779
 20
60319.999256
 30
0.0
 11
12202.815717
 21
60319.999256
 31
0.0
  0
LINE
  5
85
  8
0
  6
BYBLOCK
 62
     9
 10
12060.0
 20
60219.99702
 30
0.0
 11
12202.815717
 21
60219.99702
 31
0.0
  0
LINE
  5
86
  8
0
  6
BYBLOCK
 62
     9
 10
12201.815717
 20
60299.999256
 30
0.0
 11
12201.815717
 21
60239.99702
 31
0.0
  0
TEXT
  5
87
  8
0
  6
BYBLOCK
 62
    11
 10
12218.455434
 20
60137.807436
 30
0.0
 40
35.0
  1
100
 50
90.0
  0
SOLID
  5
88
  8
0
  6
BYBLOCK
 62
     9
 10
12198.482384
 20
60299.999256
 30
0.0
 11
12205.14905
 21
60299.999256
 31
0.0
 12
12201.815717
 22
60319.999256
 32
0.0
 13
12201.815717
 23
60319.999256
 33
0.0
  0
SOLID
  5
89
  8
0
  6
BYBLOCK
 62
     9
 10
12198.482384
 20
60239.99702
 30
0.0
 11
12205.14905
 21
60239.99702
 31
0.0
 12
12201.815717
 22
60219.99702
 32
0.0
 13
12201.815717
 23
60219.99702
 33
0.0
  0
POINT
  5
8A
  8
DEFPOINTS
  6
BYBLOCK
 62
     0
 10
12109.892779
 20
60319.999256
 30
0.0
  0
POINT
  5
8B
  8
DEFPOINTS
  6
BYBLOCK
 62
     0
 10
12050.0
 20
60219.99702
 30
0.0
  0
POINT
  5
8C
  8
DEFPOINTS
  6
BYBLOCK
 62
     0
 10
12201.815717
 20
60219.99702
 30
0.0
  0
ENDBLK
  5
8E
  8
0
  0
BLOCK
  8
0
  2
*D4
 70
     1
 10
0.0
 20
0.0
 30
0.0
  3
*D4
  1

  0
LINE
  5
50
  8
0
  6
BYBLOCK
 62
     9
 10
11965.0
 20
60354.99702
 30
0.0
 11
11777.463509
 21
60354.99702
 31
0.0
  0
LINE
  5
51
  8
0
  6
BYBLOCK
 62
     9
 10
11940.0
 20
60219.99702
 30
0.0
 11
11777.463509
 21
60219.99702
 31
0.0
  0
LINE
  5
52
  8
0
  6
BYBLOCK
 62
     9
 10
11778.463509
 20
60374.99702
 30
0.0
 11
11778.463509
 21
60394.99702
 31
0.0
  0
LINE
  5
53
  8
0
  6
BYBLOCK
 62
     9
 10
11778.463509
 20
60199.99702
 30
0.0
 11
11778.463509
 21
60179.99702
 31
0.0
  0
SOLID
  5
54
  8
0
  6
BYBLOCK
 62
     9
 10
11775.130176
 20
60374.99702
 30
0.0
 11
11781.796843
 21
60374.99702
 31
0.0
 12
11778.463509
 22
60354.99702
 32
0.0
 13
11778.463509
 23
60354.99702
 33
0.0
  0
SOLID
  5
55
  8
0
  6
BYBLOCK
 62
     9
 10
11775.130176
 20
60199.99702
 30
0.0
 11
11781.796843
 21
60199.99702
 31
0.0
 12
11778.463509
 22
60219.99702
 32
0.0
 13
11778.463509
 23
60219.99702
 33
0.0
  0
TEXT
  5
56
  8
0
  6
BYBLOCK
 62
    11
 10
11795.963509
 20
60246.663687
 30
0.0
 40
35.0
  1
135
 50
90.0
  0
POINT
  5
57
  8
DEFPOINTS
  6
BYBLOCK
 62
     0
 10
11975.0
 20
60354.99702
 30
0.0
  0
POINT
  5
58
  8
DEFPOINTS
  6
BYBLOCK
 62
     0
 10
11950.0
 20
60219.99702
 30
0.0
  0
POINT
  5
59
  8
DEFPOINTS
  6
BYBLOCK
 62
     0
 10
11778.463509
 20
60219.99702
 30
0.0
  0
ENDBLK
  5
5B
  8
0
  0
BLOCK
  8
0
  2
*D5
 70
     1
 10
0.0
 20
0.0
 30
0.0
  3
*D5
  1

  0
LINE
  5
5E
  8
0
  6
BYBLOCK
 62
     9
 10
11990.0
 20
60000.0
 30
0.0
 11
11777.463509
 21
60000.0
 31
0.0
  0
LINE
  5
5F
  8
0
  6
BYBLOCK
 62
     9
 10
11940.0
 20
60219.99702
 30
0.0
 11
11777.463509
 21
60219.99702
 31
0.0
  0
LINE
  5
60
  8
0
  6
BYBLOCK
 62
     9
 10
11778.463509
 20
60020.0
 30
0.0
 11
11778.463509
 21
60059.24851
 31
0.0
  0
LINE
  5
61
  8
0
  6
BYBLOCK
 62
     9
 10
11778.463509
 20
60199.99702
 30
0.0
 11
11778.463509
 21
60160.74851
 31
0.0
  0
SOLID
  5
62
  8
0
  6
BYBLOCK
 62
     9
 10
11775.130176
 20
60020.0
 30
0.0
 11
11781.796843
 21
60020.0
 31
0.0
 12
11778.463509
 22
60000.0
 32
0.0
 13
11778.463509
 23
60000.0
 33
0.0
  0
SOLID
  5
63
  8
0
  6
BYBLOCK
 62
     9
 10
11775.130176
 20
60199.99702
 30
0.0
 11
11781.796843
 21
60199.99702
 31
0.0
 12
11778.463509
 22
60219.99702
 32
0.0
 13
11778.463509
 23
60219.99702
 33
0.0
  0
TEXT
  5
64
  8
0
  6
BYBLOCK
 62
    11
 10
11795.963509
 20
60066.24851
 30
0.0
 40
35.0
  1
220
 50
90.0
  0
POINT
  5
65
  8
DEFPOINTS
  6
BYBLOCK
 62
     0
 10
12000.0
 20
60000.0
 30
0.0
  0
POINT
  5
66
  8
DEFPOINTS
  6
BYBLOCK
 62
     0
 10
11950.0
 20
60219.99702
 30
0.0
  0
POINT
  5
67
  8
DEFPOINTS
  6
BYBLOCK
 62
     0
 10
11778.463509
 20
60219.99702
 30
0.0
  0
ENDBLK
  5
69
  8
0
  0
ENDSEC
  0
SECTION
  2
ENTITIES
  0
POLYLINE
  5
20
  8
TEAM-BODY
 66
     1
 10
0.0
 20
0.0
 30
0.0
 70
     1
  0
VERTEX
  5
113
  8
TEAM-BODY
 10
172.511854
 20
355.010312
 30
0.0
 42
-0.41361
  0
VERTEX
  5
114
  8
TEAM-BODY
 10
177.511843
 20
360.0
 30
0.0
  0
VERTEX
  5
115
  8
TEAM-BODY
 10
177.5
 20
360.0
 30
0.0
 42
0.414214
  0
VERTEX
  5
116
  8
TEAM-BODY
 10
182.5
 20
365.0
 30
0.0
  0
VERTEX
  5
117
  8
TEAM-BODY
 10
182.5
 20
393.0
 30
0.0
 42
0.331679
  0
VERTEX
  5
118
  8
TEAM-BODY
 10
177.5
 20
399.708204
 30
0.0
  0
VERTEX
  5
119
  8
TEAM-BODY
 10
177.5
 20
430.0
 30
0.0
 42
0.414214
  0
VERTEX
  5
11A
  8
TEAM-BODY
 10
172.5
 20
435.0
 30
0.0
  0
VERTEX
  5
11B
  8
TEAM-BODY
 10
-172.5
 20
435.0
 30
0.0
 42
0.414214
  0
VERTEX
  5
11C
  8
TEAM-BODY
 10
-177.5
 20
430.0
 30
0.0
  0
VERTEX
  5
11D
  8
TEAM-BODY
 10
-177.5
 20
399.708204
 30
0.0
 42
0.331679
  0
VERTEX
  5
11E
  8
TEAM-BODY
 10
-182.5
 20
393.0
 30
0.0
  0
VERTEX
  5
11F
  8
TEAM-BODY
 10
-182.5
 20
365.0
 30
0.0
 42
0.414214
  0
VERTEX
  5
120
  8
TEAM-BODY
 10
-177.5
 20
360.0
 30
0.0
  0
VERTEX
  5
121
  8
TEAM-BODY
 10
-177.511843
 20
360.0
 30
0.0
 42
-0.41361
  0
VERTEX
  5
122
  8
TEAM-BODY
 10
-172.511854
 20
355.010312
 30
0.0
 42
0.107466
  0
VERTEX
  5
123
  8
TEAM-BODY
 10
-121.27096
 20
121.677194
 30
0.0
 42
0.192917
  0
VERTEX
  5
124
  8
TEAM-BODY
 10
-88.895592
 20
90.945257
 30
0.0
 42
0.055684
  0
VERTEX
  5
125
  8
TEAM-BODY
 10
-37.333147
 20
76.843676
 30
0.0
 42
-0.112063
  0
VERTEX
  5
126
  8
TEAM-BODY
 10
-34.454098
 20
75.697422
 30
0.0
 42
0.310483
  0
VERTEX
  5
127
  8
TEAM-BODY
 10
34.454098
 20
75.697422
 30
0.0
 42
-0.112063
  0
VERTEX
  5
128
  8
TEAM-BODY
 10
37.333147
 20
76.843676
 30
0.0
 42
0.055684
  0
VERTEX
  5
129
  8
TEAM-BODY
 10
88.895592
 20
90.945257
 30
0.0
 42
0.192917
  0
VERTEX
  5
12A
  8
TEAM-BODY
 10
121.27096
 20
121.677194
 30
0.0
 42
0.107466
  0
SEQEND
  5
12B
  8
TEAM-BODY
  0
DIMENSION
  5
22
  8
TEAM-MAS
  2
*D0
 10
245.946929
 20
400.0
 30
0.0
 11
245.946929
 21
200.0
 31
0.0
 12
-12000.0
 22
-60000.0
 32
0.0
 13
0.0
 23
0.0
 33
0.0
 14
162.424925
 24
400.0
 34
0.0
 50
90.0
1001
ACAD
1000
DSTYLE
1002
{
1070
    40
1040
1.0
1002
}
  0
DIMENSION
  5
31
  8
TEAM-MAS
  2
*D1
 10
89.892779
 20
492.78867
 30
0.0
 11
-0.107221
 21
492.78867
 31
0.0
 12
-12000.0
 22
-60000.0
 32
0.0
 13
-90.107221
 23
328.999256
 33
0.0
 14
89.892779
 24
328.999256
 34
0.0
1001
ACAD
1000
DSTYLE
1002
{
1070
    40
1040
1.0
1002
}
  0
DIMENSION
  5
3F
  8
TEAM-MAS
  2
*D2
 10
182.5
 20
542.636026
 30
0.0
 11
0.0
 21
542.636026
 31
0.0
 12
-12000.0
 22
-60000.0
 32
0.0
 13
-182.5
 23
379.0
 33
0.0
 14
182.5
 24
379.0
 34
0.0
1001
ACAD
1000
DSTYLE
1002
{
1070
    40
1040
1.0
1002
}
  0
LINE
  5
4D
  8
TEAM-BODY
 10
-173.979957
 20
358.539178
 30
0.0
 11
173.979957
 21
358.539178
 31
0.0
  0
DIMENSION
  5
4E
  8
TEAM-MAS
  2
*D4
 10
-221.536491
 20
219.99702
 30
0.0
 11
-221.536491
 21
287.49702
 31
0.0
 12
-12000.0
 22
-60000.0
 32
0.0
 13
-25.0
 23
354.99702
 33
0.0
 14
-50.0
 24
219.99702
 34
0.0
 50
90.0
1001
ACAD
1000
DSTYLE
1002
{
1070
    40
1040
1.0
1002
}
  0
DIMENSION
  5
5C
  8
TEAM-MAS
  2
*D5
 10
-221.536491
 20
219.99702
 30
0.0
 11
-221.536491
 21
109.99851
 31
0.0
 12
-12000.0
 22
-60000.0
 32
0.0
 13
0.0
 23
0.0
 33
0.0
 14
-50.0
 24
219.99702
 34
0.0
 50
90.0
1001
ACAD
1000
DSTYLE
1002
{
1070
    40
1040
1.0
1002
}
  0
LINE
  5
6A
  8
TEAM-AXE
 10
89.892779
 20
328.999256
 30
0.0
 11
89.892779
 21
310.999256
 31
0.0
  0
POLYLINE
  5
6D
  8
TEAM-HIDE
 66
     1
 10
0.0
 20
0.0
 30
0.0
 70
     1
  0
VERTEX
  5
12C
  8
TEAM-HIDE
 10
-79.107221
 20
310.999256
 30
0.0
 42
1.0
  0
VERTEX
  5
12D
  8
TEAM-HIDE
 10
-79.107221
 20
328.999256
 30
0.0
  0
VERTEX
  5
12E
  8
TEAM-HIDE
 10
-101.107221
 20
328.999256
 30
0.0
 42
1.0
  0
VERTEX
  5
12F
  8
TEAM-HIDE
 10
-101.107221
 20
310.999256
 30
0.0
  0
SEQEND
  5
130
  8
TEAM-HIDE
  0
LINE
  5
70
  8
TEAM-AXE
 10
0.0
 20
269.99702
 30
0.0
 11
0.0
 21
169.99702
 31
0.0
  0
CIRCLE
  5
71
  8
TEAM-KAN
 10
0.0
 20
219.99702
 30
0.0
 40
50.0
  0
LINE
  5
73
  8
TEAM-AXE
 10
50.0
 20
219.99702
 30
0.0
 11
-50.0
 21
219.99702
 31
0.0
  0
CIRCLE
  5
74
  8
TEAM-INSP
 10
0.0
 20
0.0
 30
0.0
 40
10.0
  0
LINE
  5
76
  8
TEAM-AXE
 10
0.0
 20
379.99702
 30
0.0
 11
0.0
 21
329.99702
 31
0.0
  0
CIRCLE
  5
77
  8
TEAM-COLD
 10
0.0
 20
354.99702
 30
0.0
 40
25.0
  0
LINE
  5
79
  8
TEAM-AXE
 10
25.0
 20
354.99702
 30
0.0
 11
-25.0
 21
354.99702
 31
0.0
  0
LINE
  5
7A
  8
TEAM-AXE
 10
-110.107221
 20
319.999256
 30
0.0
 11
-70.107221
 21
319.999256
 31
0.0
  0
LINE
  5
7B
  8
TEAM-AXE
 10
-90.107221
 20
328.999256
 30
0.0
 11
-90.107221
 21
310.999256
 31
0.0
  0
ARC
  5
7C
  8
TEAM-BODY
 10
0.0
 20
314.672229
 30
0.0
 40
240.740907
 50
261.078794
 51
278.921206
  0
POLYLINE
  5
7D
  8
TEAM-HIDE
 66
     1
 10
0.0
 20
0.0
 30
0.0
 70
     1
  0
VERTEX
  5
131
  8
TEAM-HIDE
 10
100.892779
 20
310.999256
 30
0.0
 42
1.0
  0
VERTEX
  5
132
  8
TEAM-HIDE
 10
100.892779
 20
328.999256
 30
0.0
  0
VERTEX
  5
133
  8
TEAM-HIDE
 10
78.892779
 20
328.999256
 30
0.0
 42
1.0
  0
VERTEX
  5
134
  8
TEAM-HIDE
 10
78.892779
 20
310.999256
 30
0.0
  0
SEQEND
  5
135
  8
TEAM-HIDE
  0
LINE
  5
7E
  8
TEAM-AXE
 10
69.892779
 20
319.999256
 30
0.0
 11
109.892779
 21
319.999256
 31
0.0
  0
TEXT
  5
7F
  8
TEAM-TXT
 10
-134.355617
 20
276.105963
 30
0.0
 40
30.0
  1
team 342035
 41
0.8
 51
15.0
  7
TEAM
  0
DIMENSION
  5
82
  8
TEAM-MAS
  2
*D3
 10
201.815717
 20
219.99702
 30
0.0
 11
200.955434
 21
172.807436
 31
0.0
 12
-12000.0
 22
-60000.0
 32
0.0
 70
   128
 13
109.892779
 23
319.999256
 33
0.0
 14
50.0
 24
219.99702
 34
0.0
 50
90.0
1001
ACAD
1000
DSTYLE
1002
{
1070
    40
1040
1.0
1002
}
  0
LINE
  5
8F
  8
TEAM-BODY
 10
-177.5
 20
400.0
 30
0.0
 11
177.5
 21
400.0
 31
0.0
  0
ENDSEC
  0
EOF
