  0
SECTION
  2
HEADER
  9
$ACADVER
  1
AC1009
  9
$INSBASE
 10
0.0
 20
0.0
 30
0.0
  9
$EXTMIN
 10
-182.523071
 20
-592.31067
 30
0.0
  9
$EXTMAX
 10
252.757288
 20
62.167307
 30
0.0
  9
$LIMMIN
 10
-182.523071
 20
-592.31067
  9
$LIMMAX
 10
252.757288
 20
62.167307
  9
$ORTHOMODE
 70
     1
  9
$REGENMODE
 70
     1
  9
$FILLMODE
 70
     1
  9
$QTEXTMODE
 70
     0
  9
$MIRRTEXT
 70
     0
  9
$DRAGMODE
 70
     2
  9
$LTSCALE
 40
50.0
  9
$OSMODE
 70
     0
  9
$ATTMODE
 70
     1
  9
$TEXTSIZE
 40
200.0
  9
$TRACEWID
 40
1.0
  9
$TEXTSTYLE
  7
STANDARD
  9
$CLAYER
  8
TEAM-MAS
  9
$CELTYPE
  6
BYLAYER
  9
$CECOLOR
 62
   256
  9
$DIMSCALE
 40
1.0
  9
$DIMASZ
 40
20.0
  9
$DIMEXO
 40
10.0
  9
$DIMDLI
 40
1.0
  9
$DIMRND
 40
0.0
  9
$DIMDLE
 40
0.0
  9
$DIMEXE
 40
1.0
  9
$DIMTP
 40
0.0
  9
$DIMTM
 40
0.0
  9
$DIMTXT
 40
35.0
  9
$DIMCEN
 40
1.0
  9
$DIMTSZ
 40
0.0
  9
$DIMTOL
 70
     0
  9
$DIMLIM
 70
     0
  9
$DIMTIH
 70
     0
  9
$DIMTOH
 70
     0
  9
$DIMSE1
 70
     0
  9
$DIMSE2
 70
     0
  9
$DIMTAD
 70
     0
  9
$DIMZIN
 70
     0
  9
$DIMBLK
  1

  9
$DIMASO
 70
     1
  9
$DIMSHO
 70
     0
  9
$DIMPOST
  1

  9
$DIMAPOST
  1

  9
$DIMALT
 70
     0
  9
$DIMALTD
 70
     2
  9
$DIMALTF
 40
25.4
  9
$DIMLFAC
 40
1.0
  9
$DIMTOFL
 70
     0
  9
$DIMTVP
 40
0.0
  9
$DIMTIX
 70
     0
  9
$DIMSOXD
 70
     0
  9
$DIMSAH
 70
     0
  9
$DIMBLK1
  1

  9
$DIMBLK2
  1

  9
$DIMSTYLE
  2
TEAM
  9
$DIMCLRD
 70
     9
  9
$DIMCLRE
 70
     9
  9
$DIMCLRT
 70
    11
  9
$DIMTFAC
 40
1.0
  9
$DIMGAP
 40
7.0
  9
$LUNITS
 70
     2
  9
$LUPREC
 70
     1
  9
$SKETCHINC
 40
1.0
  9
$FILLETRAD
 40
10.0
  9
$AUNITS
 70
     0
  9
$AUPREC
 70
     0
  9
$MENU
  1
ROPLANS
  9
$ELEVATION
 40
0.0
  9
$PELEVATION
 40
0.0
  9
$THICKNESS
 40
0.0
  9
$LIMCHECK
 70
     0
  9
$BLIPMODE
 70
     1
  9
$CHAMFERA
 40
0.0
  9
$CHAMFERB
 40
0.0
  9
$SKPOLY
 70
     0
  9
$TDCREATE
 40
2450392.957851
  9
$TDUPDATE
 40
2456128.567992
  9
$TDINDWG
 40
2.128216
  9
$TDUSRTIMER
 40
2.128216
  9
$USRTIMER
 70
     1
  9
$ANGBASE
 50
0.0
  9
$ANGDIR
 70
     0
  9
$PDMODE
 70
     0
  9
$PDSIZE
 40
0.0
  9
$PLINEWID
 40
0.0
  9
$COORDS
 70
     2
  9
$SPLFRAME
 70
     0
  9
$SPLINETYPE
 70
     6
  9
$SPLINESEGS
 70
     8
  9
$ATTDIA
 70
     0
  9
$ATTREQ
 70
     0
  9
$HANDLING
 70
     1
  9
$HANDSEED
  5
FF
  9
$SURFTAB1
 70
    24
  9
$SURFTAB2
 70
    24
  9
$SURFTYPE
 70
     6
  9
$SURFU
 70
     6
  9
$SURFV
 70
     6
  9
$UCSNAME
  2

  9
$UCSORG
 10
0.0
 20
0.0
 30
0.0
  9
$UCSXDIR
 10
1.0
 20
0.0
 30
0.0
  9
$UCSYDIR
 10
0.0
 20
1.0
 30
0.0
  9
$PUCSNAME
  2

  9
$PUCSORG
 10
0.0
 20
0.0
 30
0.0
  9
$PUCSXDIR
 10
1.0
 20
0.0
 30
0.0
  9
$PUCSYDIR
 10
0.0
 20
1.0
 30
0.0
  9
$USERI1
 70
     0
  9
$USERI2
 70
     0
  9
$USERI3
 70
     0
  9
$USERI4
 70
     0
  9
$USERI5
 70
     0
  9
$USERR1
 40
0.0
  9
$USERR2
 40
0.0
  9
$USERR3
 40
0.0
  9
$USERR4
 40
0.0
  9
$USERR5
 40
0.0
  9
$WORLDVIEW
 70
     1
  9
$SHADEDGE
 70
     0
  9
$SHADEDIF
 70
    70
  9
$TILEMODE
 70
     1
  9
$MAXACTVP
 70
    16
  9
$PLIMCHECK
 70
     0
  9
$PEXTMIN
 10
-0.805942
 20
0.005011
 30
0.0
  9
$PEXTMAX
 10
20.250094
 20
11.356329
 30
0.0
  9
$PLIMMIN
 10
0.0
 20
0.0
  9
$PLIMMAX
 10
12.0
 20
9.0
  9
$UNITMODE
 70
     0
  9
$VISRETAIN
 70
     0
  9
$PLINEGEN
 70
     0
  9
$PSLTSCALE
 70
     0
  0
ENDSEC
  0
SECTION
  2
TABLES
  0
TABLE
  2
VPORT
 70
     2
  0
VPORT
  2
*ACTIVE
 70
     0
 10
0.0
 20
0.0
 11
1.0
 21
1.0
 12
35.117109
 22
-265.071682
 13
0.0
 23
0.0
 14
1.0
 24
1.0
 15
50.0
 25
50.0
 16
0.0
 26
0.0
 36
1.0
 17
0.0
 27
0.0
 37
0.0
 40
658.598511
 41
1.911765
 42
50.0
 43
0.0
 44
0.0
 50
0.0
 51
0.0
 71
     0
 72
   100
 73
     1
 74
     1
 75
     0
 76
     0
 77
     0
 78
     0
  0
ENDTAB
  0
TABLE
  2
LTYPE
 70
     2
  0
LTYPE
  2
CONTINUOUS
 70
     0
  3
Solid Line
 72
    65
 73
     0
 40
0.0
  0
LTYPE
  2
31
 70
     0
  3

 72
    65
 73
     4
 40
2.1
 49
1.5
 49
-0.3
 49
0.0
 49
-0.3
  0
ENDTAB
  0
TABLE
  2
LAYER
 70
     8
  0
LAYER
  2
0
 70
     0
 62
     7
  6
CONTINUOUS
  0
LAYER
  2
DEFPOINTS
 70
     0
 62
     7
  6
CONTINUOUS
  0
LAYER
  2
TEAM-BODY
 70
     0
 62
     2
  6
CONTINUOUS
  0
LAYER
  2
TEAM-AXE
 70
     0
 62
    10
  6
31
  0
LAYER
  2
TEAM-MAS
 70
     0
 62
     9
  6
CONTINUOUS
  0
LAYER
  2
TEAM-TXT
 70
     0
 62
    11
  6
CONTINUOUS
  0
LAYER
  2
TEAM-DET1
 70
     0
 62
     4
  6
CONTINUOUS
  0
LAYER
  2
TEAM-INSP
 70
     0
 62
     5
  6
CONTINUOUS
  0
ENDTAB
  0
TABLE
  2
STYLE
 70
     2
  0
STYLE
  2
STANDARD
 70
     0
 40
0.0
 41
1.0
 50
0.0
 71
     0
 42
200.0
  3
txt
  4

  0
STYLE
  2
TEAM
 70
     0
 40
0.0
 41
0.8
 50
15.0
 71
     0
 42
7.0
  3
ROMANS.shx
  4

  0
ENDTAB
  0
TABLE
  2
VIEW
 70
     0
  0
ENDTAB
  0
TABLE
  2
UCS
 70
     0
  0
ENDTAB
  0
TABLE
  2
APPID
 70
     1
  0
APPID
  2
ACAD
 70
     0
  0
ENDTAB
  0
TABLE
  2
DIMSTYLE
 70
     1
  0
DIMSTYLE
  2
TEAM
 70
     0
  3

  4

  5

  6

  7

 40
1.0
 41
20.0
 42
10.0
 43
1.0
 44
1.0
 45
0.0
 46
0.0
 47
0.0
 48
0.0
140
35.0
141
1.0
142
0.0
143
25.4
144
1.0
145
0.0
146
1.0
147
7.0
 71
     0
 72
     0
 73
     0
 74
     0
 75
     0
 76
     0
 77
     0
 78
     0
170
     0
171
     2
172
     0
173
     0
174
     0
175
     0
176
     9
177
     9
178
    11
  0
ENDTAB
  0
ENDSEC
  0
SECTION
  2
BLOCKS
  0
BLOCK
  8
0
  2
$MODEL_SPACE
 70
     0
 10
0.0
 20
0.0
 30
0.0
  3
$MODEL_SPACE
  1

  0
ENDBLK
  5
F1
  8
0
  0
BLOCK
 67
     1
  8
0
  2
$PAPER_SPACE
 70
     0
 10
0.0
 20
0.0
 30
0.0
  3
$PAPER_SPACE
  1

  0
ENDBLK
  5
EF
 67
     1
  8
0
  0
BLOCK
  8
0
  2
*D0
 70
     1
 10
0.0
 20
0.0
 30
0.0
  3
*D0
  1

  0
LINE
  5
54
  8
0
  6
BYBLOCK
 62
     9
 10
4010.0
 20
20000.0
 30
0.0
 11
4236.244683
 21
20000.0
 31
0.0
  0
LINE
  5
55
  8
0
  6
BYBLOCK
 62
     9
 10
4010.0
 20
19455.0
 30
0.0
 11
4236.244683
 21
19455.0
 31
0.0
  0
LINE
  5
56
  8
0
  6
BYBLOCK
 62
     9
 10
4235.244683
 20
19980.0
 30
0.0
 11
4235.244683
 21
19781.166667
 31
0.0
  0
LINE
  5
57
  8
0
  6
BYBLOCK
 62
     9
 10
4235.244683
 20
19475.0
 30
0.0
 11
4235.244683
 21
19673.833333
 31
0.0
  0
SOLID
  5
58
  8
0
  6
BYBLOCK
 62
     9
 10
4231.91135
 20
19980.0
 30
0.0
 11
4238.578017
 21
19980.0
 31
0.0
 12
4235.244683
 22
20000.0
 32
0.0
 13
4235.244683
 23
20000.0
 33
0.0
  0
SOLID
  5
59
  8
0
  6
BYBLOCK
 62
     9
 10
4231.91135
 20
19475.0
 30
0.0
 11
4238.578017
 21
19475.0
 31
0.0
 12
4235.244683
 22
19455.0
 32
0.0
 13
4235.244683
 23
19455.0
 33
0.0
  0
TEXT
  5
5A
  8
0
  6
BYBLOCK
 62
    11
 10
4252.744683
 20
19680.833333
 30
0.0
 40
35.0
  1
545
 50
90.0
  0
POINT
  5
5B
  8
DEFPOINTS
  6
BYBLOCK
 62
     0
 10
4000.0
 20
20000.0
 30
0.0
  0
POINT
  5
5C
  8
DEFPOINTS
  6
BYBLOCK
 62
     0
 10
4000.0
 20
19455.0
 30
0.0
  0
POINT
  5
5D
  8
DEFPOINTS
  6
BYBLOCK
 62
     0
 10
4235.244683
 20
19455.0
 30
0.0
  0
ENDBLK
  5
5F
  8
0
  0
BLOCK
  8
0
  2
*D1
 70
     1
 10
0.0
 20
0.0
 30
0.0
  3
*D1
  1

  0
LINE
  5
31
  8
0
  6
BYBLOCK
 62
     9
 10
4180.0
 20
19627.335621
 30
0.0
 11
4180.0
 21
19424.197233
 31
0.0
  0
LINE
  5
32
  8
0
  6
BYBLOCK
 62
     9
 10
3820.0
 20
19627.335621
 30
0.0
 11
3820.0
 21
19424.197233
 31
0.0
  0
LINE
  5
33
  8
0
  6
BYBLOCK
 62
     9
 10
4160.0
 20
19425.197233
 30
0.0
 11
4050.75
 21
19425.197233
 31
0.0
  0
LINE
  5
34
  8
0
  6
BYBLOCK
 62
     9
 10
3840.0
 20
19425.197233
 30
0.0
 11
3949.25
 21
19425.197233
 31
0.0
  0
SOLID
  5
35
  8
0
  6
BYBLOCK
 62
     9
 10
4160.0
 20
19428.530567
 30
0.0
 11
4160.0
 21
19421.8639
 31
0.0
 12
4180.0
 22
19425.197233
 32
0.0
 13
4180.0
 23
19425.197233
 33
0.0
  0
SOLID
  5
36
  8
0
  6
BYBLOCK
 62
     9
 10
3840.0
 20
19428.530567
 30
0.0
 11
3840.0
 21
19421.8639
 31
0.0
 12
3820.0
 22
19425.197233
 32
0.0
 13
3820.0
 23
19425.197233
 33
0.0
  0
TEXT
  5
37
  8
0
  6
BYBLOCK
 62
    11
 10
3956.25
 20
19407.697233
 30
0.0
 40
35.0
  1
360
  0
POINT
  5
38
  8
DEFPOINTS
  6
BYBLOCK
 62
     0
 10
4180.0
 20
19637.335621
 30
0.0
  0
POINT
  5
39
  8
DEFPOINTS
  6
BYBLOCK
 62
     0
 10
3820.0
 20
19637.335621
 30
0.0
  0
POINT
  5
3A
  8
DEFPOINTS
  6
BYBLOCK
 62
     0
 10
3820.0
 20
19425.197233
 30
0.0
  0
ENDBLK
  5
3C
  8
0
  0
BLOCK
  8
0
  2
*D2
 70
     1
 10
0.0
 20
0.0
 30
0.0
  3
*D2
  1

  0
LINE
  5
22
  8
0
  6
BYBLOCK
 62
     9
 10
3817.5
 20
20005.0
 30
0.0
 11
3817.5
 21
20045.635288
 31
0.0
  0
LINE
  5
23
  8
0
  6
BYBLOCK
 62
     9
 10
4182.5
 20
20005.0
 30
0.0
 11
4182.5
 21
20045.635288
 31
0.0
  0
LINE
  5
24
  8
0
  6
BYBLOCK
 62
     9
 10
3837.5
 20
20044.635288
 30
0.0
 11
3946.333333
 21
20044.635288
 31
0.0
  0
LINE
  5
25
  8
0
  6
BYBLOCK
 62
     9
 10
4162.5
 20
20044.635288
 30
0.0
 11
4053.666667
 21
20044.635288
 31
0.0
  0
SOLID
  5
26
  8
0
  6
BYBLOCK
 62
     9
 10
3837.5
 20
20047.968621
 30
0.0
 11
3837.5
 21
20041.301954
 31
0.0
 12
3817.5
 22
20044.635288
 32
0.0
 13
3817.5
 23
20044.635288
 33
0.0
  0
SOLID
  5
27
  8
0
  6
BYBLOCK
 62
     9
 10
4162.5
 20
20047.968621
 30
0.0
 11
4162.5
 21
20041.301954
 31
0.0
 12
4182.5
 22
20044.635288
 32
0.0
 13
4182.5
 23
20044.635288
 33
0.0
  0
TEXT
  5
28
  8
0
  6
BYBLOCK
 62
    11
 10
3953.333333
 20
20027.135288
 30
0.0
 40
35.0
  1
365
  0
POINT
  5
29
  8
DEFPOINTS
  6
BYBLOCK
 62
     0
 10
3817.5
 20
19995.0
 30
0.0
  0
POINT
  5
2B
  8
DEFPOINTS
  6
BYBLOCK
 62
     0
 10
4182.5
 20
19995.0
 30
0.0
  0
POINT
  5
2C
  8
DEFPOINTS
  6
BYBLOCK
 62
     0
 10
4182.5
 20
20044.635288
 30
0.0
  0
ENDBLK
  5
2E
  8
0
  0
ENDSEC
  0
SECTION
  2
ENTITIES
  0
DIMENSION
  5
20
  8
TEAM-MAS
  2
*D2
 10
182.5
 20
44.635288
 30
0.0
 11
0.0
 21
44.635288
 31
0.0
 12
-4000.0
 22
-20000.0
 32
0.0
 13
-182.5
 23
-5.0
 33
0.0
 14
182.5
 24
-5.0
 34
0.0
1001
ACAD
1000
DSTYLE
1002
{
1070
    40
1040
1.0
1002
}
  0
DIMENSION
  5
2F
  8
TEAM-MAS
  2
*D1
 10
-180.0
 20
-574.802767
 30
0.0
 11
0.0
 21
-574.802767
 31
0.0
 12
-4000.0
 22
-20000.0
 32
0.0
 13
180.0
 23
-362.664379
 33
0.0
 14
-180.0
 24
-362.664379
 34
0.0
1001
ACAD
1000
DSTYLE
1002
{
1070
    40
1040
1.0
1002
}
  0
LINE
  5
3D
  8
TEAM-DET1
 10
-162.297674
 20
-44.116125
 30
0.0
 11
162.297674
 21
-44.116125
 31
0.0
  0
LINE
  5
3F
  8
TEAM-DET1
 10
-169.34419
 20
-49.116125
 30
0.0
 11
169.34419
 21
-49.116125
 31
0.0
  0
TEXT
  5
40
  8
TEAM-TXT
 10
-134.355617
 20
-405.50151
 30
0.0
 40
30.0
  1
team 342112
 41
0.8
 51
15.0
  7
TEAM
  0
ARC
  5
43
  8
TEAM-BODY
 10
0.0
 20
-361.0
 30
0.0
 40
130.0
 50
182.318989
 51
357.681011
  0
ARC
  5
45
  8
TEAM-BODY
 10
0.0
 20
-364.0
 30
0.0
 40
125.0
 50
182.618373
 51
357.381627
  0
ARC
  5
46
  8
TEAM-BODY
 10
-0.277297
 20
-305.452074
 30
0.0
 40
130.0
 50
90.0
 51
180.397193
  0
ARC
  5
47
  8
TEAM-BODY
 10
-0.277297
 20
-305.452074
 30
0.0
 40
125.0
 50
90.0
 51
180.397193
  0
POLYLINE
  5
48
  8
TEAM-BODY
 66
     1
 10
0.0
 20
0.0
 30
0.0
 70
   129
  0
VERTEX
  5
F7
  8
TEAM-BODY
 10
-182.5
 20
0.0
 30
0.0
  0
VERTEX
  5
F8
  8
TEAM-BODY
 10
-182.5
 20
-5.0
 30
0.0
  0
VERTEX
  5
F9
  8
TEAM-BODY
 10
-179.995675
 20
-366.247807
 30
0.0
 42
0.993092
  0
VERTEX
  5
FA
  8
TEAM-BODY
 10
179.995675
 20
-366.247807
 30
0.0
  0
VERTEX
  5
FB
  8
TEAM-BODY
 10
182.5
 20
-5.0
 30
0.0
  0
VERTEX
  5
FC
  8
TEAM-BODY
 10
182.5
 20
0.0
 30
0.0
  0
SEQEND
  5
FD
  8
TEAM-BODY
  0
LINE
  5
49
  8
TEAM-DET1
 10
-172.534422
 20
0.0
 30
0.0
 11
-172.297434
 21
-34.185447
 31
0.0
  0
ARC
  5
4A
  8
TEAM-DET1
 10
-162.297674
 20
-34.116125
 30
0.0
 40
10.0
 50
180.397193
 51
270.0
  0
LINE
  5
4B
  8
TEAM-AXE
 10
-141.5
 20
-130.0
 30
0.0
 11
-118.5
 21
-130.0
 31
0.0
  0
LINE
  5
4E
  8
TEAM-AXE
 10
-130.0
 20
-141.5
 30
0.0
 11
-130.0
 21
-118.5
 31
0.0
  0
CIRCLE
  5
4F
  8
TEAM-DET1
 10
-130.0
 20
-130.0
 30
0.0
 40
7.5
  0
LINE
  5
50
  8
TEAM-BODY
 10
-130.274174
 20
-306.353269
 30
0.0
 11
-129.852407
 21
-367.192936
 31
0.0
  0
LINE
  5
51
  8
TEAM-BODY
 10
-125.274294
 20
-306.318607
 30
0.0
 11
-124.829127
 21
-370.533684
 31
0.0
  0
DIMENSION
  5
52
  8
TEAM-MAS
  2
*D0
 10
235.244683
 20
-545.0
 30
0.0
 11
235.244683
 21
-272.5
 31
0.0
 12
-4000.0
 22
-20000.0
 32
0.0
 13
0.0
 23
0.0
 33
0.0
 14
0.0
 24
-545.0
 34
0.0
 50
90.0
1001
ACAD
1000
DSTYLE
1002
{
1070
    40
1040
1.0
1002
}
  0
CIRCLE
  5
60
  8
TEAM-INSP
 10
0.0
 20
0.0
 30
0.0
 40
10.0
  0
LINE
  5
62
  8
TEAM-DET1
 10
172.297434
 20
-34.185447
 30
0.0
 11
172.534422
 21
0.0
 31
0.0
  0
ARC
  5
63
  8
TEAM-DET1
 10
162.297674
 20
-34.116125
 30
0.0
 40
10.0
 50
270.0
 51
359.602807
  0
LINE
  5
64
  8
TEAM-AXE
 10
130.0
 20
-141.5
 30
0.0
 11
130.0
 21
-118.5
 31
0.0
  0
CIRCLE
  5
65
  8
TEAM-DET1
 10
130.0
 20
-130.0
 30
0.0
 40
7.5
  0
LINE
  5
66
  8
TEAM-AXE
 10
118.5
 20
-130.0
 30
0.0
 11
141.5
 21
-130.0
 31
0.0
  0
LINE
  5
67
  8
TEAM-BODY
 10
130.274174
 20
-306.353269
 30
0.0
 11
129.852407
 21
-367.192936
 31
0.0
  0
LINE
  5
68
  8
TEAM-BODY
 10
-40.0
 20
-269.727017
 30
0.0
 11
-40.0
 21
-319.727017
 31
0.0
  0
LINE
  5
69
  8
TEAM-BODY
 10
40.0
 20
-269.727017
 30
0.0
 11
40.0
 21
-319.727017
 31
0.0
  0
LINE
  5
6A
  8
TEAM-BODY
 10
-20.0
 20
-249.727017
 30
0.0
 11
20.0
 21
-249.727017
 31
0.0
  0
ARC
  5
6B
  8
TEAM-BODY
 10
0.0
 20
-319.727017
 30
0.0
 40
40.0
 50
180.0
 51
0.0
  0
ARC
  5
6C
  8
TEAM-BODY
 10
-20.0
 20
-269.727017
 30
0.0
 40
20.0
 50
90.0
 51
180.0
  0
ARC
  5
6D
  8
TEAM-BODY
 10
20.0
 20
-269.727017
 30
0.0
 40
20.0
 50
0.0
 51
90.0
  0
LINE
  5
6E
  8
TEAM-BODY
 10
125.274294
 20
-306.318607
 30
0.0
 11
124.829127
 21
-370.533684
 31
0.0
  0
ARC
  5
6F
  8
TEAM-BODY
 10
0.277297
 20
-305.452074
 30
0.0
 40
130.0
 50
359.602807
 51
90.0
  0
ARC
  5
70
  8
TEAM-BODY
 10
0.277297
 20
-305.452074
 30
0.0
 40
125.0
 50
359.602807
 51
90.0
  0
ENDSEC
  0
EOF
