  0
SECTION
  2
HEADER
  9
$ACADVER
  1
AC1009
  9
$INSBASE
 10
0.0
 20
0.0
 30
0.0
  9
$EXTMIN
 10
-268.036491
 20
-10.0
 30
0.0
  9
$EXTMAX
 10
263.446929
 20
579.088911
 30
0.0
  9
$LIMMIN
 10
-239.052541
 20
-10.018269
  9
$LIMMAX
 10
263.47505
 20
579.112497
  9
$ORTHOMODE
 70
     1
  9
$REGENMODE
 70
     1
  9
$FILLMODE
 70
     1
  9
$QTEXTMODE
 70
     0
  9
$MIRRTEXT
 70
     0
  9
$DRAGMODE
 70
     2
  9
$LTSCALE
 40
50.0
  9
$OSMODE
 70
     0
  9
$ATTMODE
 70
     1
  9
$TEXTSIZE
 40
200.0
  9
$TRACEWID
 40
1.0
  9
$TEXTSTYLE
  7
TEAM
  9
$CLAYER
  8
TEAM-MAS
  9
$CELTYPE
  6
BYLAYER
  9
$CECOLOR
 62
   256
  9
$DIMSCALE
 40
1.0
  9
$DIMASZ
 40
20.0
  9
$DIMEXO
 40
10.0
  9
$DIMDLI
 40
1.0
  9
$DIMRND
 40
0.0
  9
$DIMDLE
 40
0.0
  9
$DIMEXE
 40
1.0
  9
$DIMTP
 40
0.0
  9
$DIMTM
 40
0.0
  9
$DIMTXT
 40
35.0
  9
$DIMCEN
 40
1.0
  9
$DIMTSZ
 40
0.0
  9
$DIMTOL
 70
     0
  9
$DIMLIM
 70
     0
  9
$DIMTIH
 70
     0
  9
$DIMTOH
 70
     0
  9
$DIMSE1
 70
     0
  9
$DIMSE2
 70
     0
  9
$DIMTAD
 70
     0
  9
$DIMZIN
 70
     0
  9
$DIMBLK
  1

  9
$DIMASO
 70
     1
  9
$DIMSHO
 70
     0
  9
$DIMPOST
  1

  9
$DIMAPOST
  1

  9
$DIMALT
 70
     0
  9
$DIMALTD
 70
     2
  9
$DIMALTF
 40
25.4
  9
$DIMLFAC
 40
1.0
  9
$DIMTOFL
 70
     0
  9
$DIMTVP
 40
0.0
  9
$DIMTIX
 70
     0
  9
$DIMSOXD
 70
     0
  9
$DIMSAH
 70
     0
  9
$DIMBLK1
  1

  9
$DIMBLK2
  1

  9
$DIMSTYLE
  2
TEAM
  9
$DIMCLRD
 70
     9
  9
$DIMCLRE
 70
     9
  9
$DIMCLRT
 70
    11
  9
$DIMTFAC
 40
1.0
  9
$DIMGAP
 40
7.0
  9
$LUNITS
 70
     2
  9
$LUPREC
 70
     1
  9
$SKETCHINC
 40
1.0
  9
$FILLETRAD
 40
10.0
  9
$AUNITS
 70
     0
  9
$AUPREC
 70
     0
  9
$MENU
  1
ROPLANS
  9
$ELEVATION
 40
0.0
  9
$PELEVATION
 40
0.0
  9
$THICKNESS
 40
0.0
  9
$LIMCHECK
 70
     0
  9
$BLIPMODE
 70
     1
  9
$CHAMFERA
 40
0.0
  9
$CHAMFERB
 40
0.0
  9
$SKPOLY
 70
     0
  9
$TDCREATE
 40
2450392.957851
  9
$TDUPDATE
 40
2456472.578768
  9
$TDINDWG
 40
2.129807
  9
$TDUSRTIMER
 40
2.129807
  9
$USRTIMER
 70
     1
  9
$ANGBASE
 50
0.0
  9
$ANGDIR
 70
     0
  9
$PDMODE
 70
     0
  9
$PDSIZE
 40
0.0
  9
$PLINEWID
 40
0.0
  9
$COORDS
 70
     2
  9
$SPLFRAME
 70
     0
  9
$SPLINETYPE
 70
     6
  9
$SPLINESEGS
 70
     8
  9
$ATTDIA
 70
     0
  9
$ATTREQ
 70
     0
  9
$HANDLING
 70
     1
  9
$HANDSEED
  5
2A0
  9
$SURFTAB1
 70
    24
  9
$SURFTAB2
 70
    24
  9
$SURFTYPE
 70
     6
  9
$SURFU
 70
     6
  9
$SURFV
 70
     6
  9
$UCSNAME
  2

  9
$UCSORG
 10
0.0
 20
0.0
 30
0.0
  9
$UCSXDIR
 10
1.0
 20
0.0
 30
0.0
  9
$UCSYDIR
 10
0.0
 20
1.0
 30
0.0
  9
$PUCSNAME
  2

  9
$PUCSORG
 10
0.0
 20
0.0
 30
0.0
  9
$PUCSXDIR
 10
1.0
 20
0.0
 30
0.0
  9
$PUCSYDIR
 10
0.0
 20
1.0
 30
0.0
  9
$USERI1
 70
     0
  9
$USERI2
 70
     0
  9
$USERI3
 70
     0
  9
$USERI4
 70
     0
  9
$USERI5
 70
     0
  9
$USERR1
 40
0.0
  9
$USERR2
 40
0.0
  9
$USERR3
 40
0.0
  9
$USERR4
 40
0.0
  9
$USERR5
 40
0.0
  9
$WORLDVIEW
 70
     1
  9
$SHADEDGE
 70
     0
  9
$SHADEDIF
 70
    70
  9
$TILEMODE
 70
     1
  9
$MAXACTVP
 70
    16
  9
$PLIMCHECK
 70
     0
  9
$PEXTMIN
 10
-0.805942
 20
0.005011
 30
0.0
  9
$PEXTMAX
 10
20.250094
 20
11.356329
 30
0.0
  9
$PLIMMIN
 10
0.0
 20
0.0
  9
$PLIMMAX
 10
12.0
 20
9.0
  9
$UNITMODE
 70
     0
  9
$VISRETAIN
 70
     0
  9
$PLINEGEN
 70
     0
  9
$PSLTSCALE
 70
     0
  0
ENDSEC
  0
SECTION
  2
TABLES
  0
TABLE
  2
VPORT
 70
     4
  0
VPORT
  2
*ACTIVE
 70
     0
 10
0.0
 20
0.0
 11
1.0
 21
1.0
 12
12.211254
 22
287.349404
 13
0.0
 23
0.0
 14
1.0
 24
1.0
 15
50.0
 25
50.0
 16
0.0
 26
0.0
 36
1.0
 17
0.0
 27
0.0
 37
0.0
 40
598.444457
 41
1.893861
 42
50.0
 43
0.0
 44
0.0
 50
0.0
 51
0.0
 71
     0
 72
   100
 73
     1
 74
     1
 75
     0
 76
     0
 77
     0
 78
     0
  0
ENDTAB
  0
TABLE
  2
LTYPE
 70
     3
  0
LTYPE
  2
CONTINUOUS
 70
     0
  3
Solid Line
 72
    65
 73
     0
 40
0.0
  0
LTYPE
  2
31
 70
     0
  3

 72
    65
 73
     4
 40
2.1
 49
1.5
 49
-0.3
 49
0.0
 49
-0.3
  0
LTYPE
  2
22
 70
     0
  3

 72
    65
 73
     2
 40
1.4
 49
1.2
 49
-0.2
  0
ENDTAB
  0
TABLE
  2
LAYER
 70
    10
  0
LAYER
  2
0
 70
     0
 62
     7
  6
CONTINUOUS
  0
LAYER
  2
DEFPOINTS
 70
     0
 62
     7
  6
CONTINUOUS
  0
LAYER
  2
TEAM-BODY
 70
     0
 62
     2
  6
CONTINUOUS
  0
LAYER
  2
TEAM-AXE
 70
     0
 62
    10
  6
31
  0
LAYER
  2
TEAM-MAS
 70
     0
 62
     9
  6
CONTINUOUS
  0
LAYER
  2
TEAM-TXT
 70
     0
 62
    11
  6
CONTINUOUS
  0
LAYER
  2
TEAM-COLD
 70
     0
 62
     3
  6
CONTINUOUS
  0
LAYER
  2
TEAM-HIDE
 70
     0
 62
     8
  6
22
  0
LAYER
  2
TEAM-KAN
 70
     0
 62
     6
  6
CONTINUOUS
  0
LAYER
  2
TEAM-INSP
 70
     0
 62
     5
  6
CONTINUOUS
  0
ENDTAB
  0
TABLE
  2
STYLE
 70
     2
  0
STYLE
  2
STANDARD
 70
     0
 40
0.0
 41
1.0
 50
0.0
 71
     0
 42
200.0
  3
txt
  4

  0
STYLE
  2
TEAM
 70
     0
 40
0.0
 41
0.8
 50
15.0
 71
     0
 42
7.0
  3
ROMANS.shx
  4

  0
ENDTAB
  0
TABLE
  2
VIEW
 70
     0
  0
ENDTAB
  0
TABLE
  2
UCS
 70
     0
  0
ENDTAB
  0
TABLE
  2
APPID
 70
     1
  0
APPID
  2
ACAD
 70
     0
  0
ENDTAB
  0
TABLE
  2
DIMSTYLE
 70
     1
  0
DIMSTYLE
  2
TEAM
 70
     0
  3

  4

  5

  6

  7

 40
1.0
 41
20.0
 42
10.0
 43
1.0
 44
1.0
 45
0.0
 46
0.0
 47
0.0
 48
0.0
140
35.0
141
1.0
142
0.0
143
25.4
144
1.0
145
0.0
146
1.0
147
7.0
 71
     0
 72
     0
 73
     0
 74
     0
 75
     0
 76
     0
 77
     0
 78
     0
170
     0
171
     2
172
     0
173
     0
174
     0
175
     0
176
     9
177
     9
178
    11
  0
ENDTAB
  0
ENDSEC
  0
SECTION
  2
BLOCKS
  0
BLOCK
  8
0
  2
$MODEL_SPACE
 70
     0
 10
0.0
 20
0.0
 30
0.0
  3
$MODEL_SPACE
  1

  0
ENDBLK
  5
20B
  8
0
  0
BLOCK
 67
     1
  8
0
  2
$PAPER_SPACE
 70
     0
 10
0.0
 20
0.0
 30
0.0
  3
$PAPER_SPACE
  1

  0
ENDBLK
  5
209
 67
     1
  8
0
  0
BLOCK
  8
0
  2
*D0
 70
     1
 10
0.0
 20
0.0
 30
0.0
  3
*D0
  1

  0
LINE
  5
6D
  8
0
  6
BYBLOCK
 62
     9
 10
11965.0
 20
20334.99702
 30
0.0
 11
11777.463509
 21
20334.99702
 31
0.0
  0
LINE
  5
6E
  8
0
  6
BYBLOCK
 62
     9
 10
11940.0
 20
20219.99702
 30
0.0
 11
11777.463509
 21
20219.99702
 31
0.0
  0
LINE
  5
6F
  8
0
  6
BYBLOCK
 62
     9
 10
11778.463509
 20
20354.99702
 30
0.0
 11
11778.463509
 21
20374.99702
 31
0.0
  0
LINE
  5
70
  8
0
  6
BYBLOCK
 62
     9
 10
11778.463509
 20
20199.99702
 30
0.0
 11
11778.463509
 21
20179.99702
 31
0.0
  0
SOLID
  5
71
  8
0
  6
BYBLOCK
 62
     9
 10
11775.130176
 20
20354.99702
 30
0.0
 11
11781.796843
 21
20354.99702
 31
0.0
 12
11778.463509
 22
20334.99702
 32
0.0
 13
11778.463509
 23
20334.99702
 33
0.0
  0
SOLID
  5
72
  8
0
  6
BYBLOCK
 62
     9
 10
11775.130176
 20
20199.99702
 30
0.0
 11
11781.796843
 21
20199.99702
 31
0.0
 12
11778.463509
 22
20219.99702
 32
0.0
 13
11778.463509
 23
20219.99702
 33
0.0
  0
TEXT
  5
73
  8
0
  6
BYBLOCK
 62
    11
 10
11795.963509
 20
20242.49702
 30
0.0
 40
35.0
  1
115
 50
90.0
  0
POINT
  5
74
  8
DEFPOINTS
  6
BYBLOCK
 62
     0
 10
11975.0
 20
20334.99702
 30
0.0
  0
POINT
  5
75
  8
DEFPOINTS
  6
BYBLOCK
 62
     0
 10
11950.0
 20
20219.99702
 30
0.0
  0
POINT
  5
76
  8
DEFPOINTS
  6
BYBLOCK
 62
     0
 10
11778.463509
 20
20219.99702
 30
0.0
  0
ENDBLK
  5
78
  8
0
  0
BLOCK
  8
0
  2
*D1
 70
     1
 10
0.0
 20
0.0
 30
0.0
  3
*D1
  1

  0
LINE
  5
3E
  8
0
  6
BYBLOCK
 62
     9
 10
11990.0
 20
20000.0
 30
0.0
 11
11777.463509
 21
20000.0
 31
0.0
  0
LINE
  5
3F
  8
0
  6
BYBLOCK
 62
     9
 10
11940.0
 20
20219.99702
 30
0.0
 11
11777.463509
 21
20219.99702
 31
0.0
  0
LINE
  5
40
  8
0
  6
BYBLOCK
 62
     9
 10
11778.463509
 20
20020.0
 30
0.0
 11
11778.463509
 21
20059.24851
 31
0.0
  0
LINE
  5
41
  8
0
  6
BYBLOCK
 62
     9
 10
11778.463509
 20
20199.99702
 30
0.0
 11
11778.463509
 21
20160.74851
 31
0.0
  0
SOLID
  5
42
  8
0
  6
BYBLOCK
 62
     9
 10
11775.130176
 20
20020.0
 30
0.0
 11
11781.796843
 21
20020.0
 31
0.0
 12
11778.463509
 22
20000.0
 32
0.0
 13
11778.463509
 23
20000.0
 33
0.0
  0
SOLID
  5
43
  8
0
  6
BYBLOCK
 62
     9
 10
11775.130176
 20
20199.99702
 30
0.0
 11
11781.796843
 21
20199.99702
 31
0.0
 12
11778.463509
 22
20219.99702
 32
0.0
 13
11778.463509
 23
20219.99702
 33
0.0
  0
TEXT
  5
44
  8
0
  6
BYBLOCK
 62
    11
 10
11795.963509
 20
20066.24851
 30
0.0
 40
35.0
  1
220
 50
90.0
  0
POINT
  5
45
  8
DEFPOINTS
  6
BYBLOCK
 62
     0
 10
12000.0
 20
20000.0
 30
0.0
  0
POINT
  5
46
  8
DEFPOINTS
  6
BYBLOCK
 62
     0
 10
11950.0
 20
20219.99702
 30
0.0
  0
POINT
  5
47
  8
DEFPOINTS
  6
BYBLOCK
 62
     0
 10
11778.463509
 20
20219.99702
 30
0.0
  0
ENDBLK
  5
49
  8
0
  0
BLOCK
  8
0
  2
*D2
 70
     1
 10
0.0
 20
0.0
 30
0.0
  3
*D2
  1

  0
LINE
  5
5F
  8
0
  6
BYBLOCK
 62
     9
 10
11817.5
 20
20439.0
 30
0.0
 11
11817.5
 21
20562.588911
 31
0.0
  0
LINE
  5
60
  8
0
  6
BYBLOCK
 62
     9
 10
12182.5
 20
20439.0
 30
0.0
 11
12182.5
 21
20562.588911
 31
0.0
  0
LINE
  5
61
  8
0
  6
BYBLOCK
 62
     9
 10
11837.5
 20
20561.588911
 30
0.0
 11
11946.333333
 21
20561.588911
 31
0.0
  0
LINE
  5
62
  8
0
  6
BYBLOCK
 62
     9
 10
12162.5
 20
20561.588911
 30
0.0
 11
12053.666667
 21
20561.588911
 31
0.0
  0
SOLID
  5
63
  8
0
  6
BYBLOCK
 62
     9
 10
11837.5
 20
20564.922244
 30
0.0
 11
11837.5
 21
20558.255577
 31
0.0
 12
11817.5
 22
20561.588911
 32
0.0
 13
11817.5
 23
20561.588911
 33
0.0
  0
SOLID
  5
64
  8
0
  6
BYBLOCK
 62
     9
 10
12162.5
 20
20564.922244
 30
0.0
 11
12162.5
 21
20558.255577
 31
0.0
 12
12182.5
 22
20561.588911
 32
0.0
 13
12182.5
 23
20561.588911
 33
0.0
  0
TEXT
  5
65
  8
0
  6
BYBLOCK
 62
    11
 10
11953.333333
 20
20544.088911
 30
0.0
 40
35.0
  1
365
  0
POINT
  5
66
  8
DEFPOINTS
  6
BYBLOCK
 62
     0
 10
11817.5
 20
20429.0
 30
0.0
  0
POINT
  5
67
  8
DEFPOINTS
  6
BYBLOCK
 62
     0
 10
12182.5
 20
20429.0
 30
0.0
  0
POINT
  5
68
  8
DEFPOINTS
  6
BYBLOCK
 62
     0
 10
12182.5
 20
20561.588911
 30
0.0
  0
ENDBLK
  5
6A
  8
0
  0
BLOCK
  8
0
  2
*D3
 70
     1
 10
0.0
 20
0.0
 30
0.0
  3
*D3
  1

  0
LINE
  5
30
  8
0
  6
BYBLOCK
 62
     9
 10
12010.0
 20
20000.0
 30
0.0
 11
12246.946929
 21
20000.0
 31
0.0
  0
LINE
  5
31
  8
0
  6
BYBLOCK
 62
     9
 10
12187.5
 20
20450.0
 30
0.0
 11
12246.946929
 21
20450.0
 31
0.0
  0
LINE
  5
32
  8
0
  6
BYBLOCK
 62
     9
 10
12245.946929
 20
20020.0
 30
0.0
 11
12245.946929
 21
20174.25
 31
0.0
  0
LINE
  5
33
  8
0
  6
BYBLOCK
 62
     9
 10
12245.946929
 20
20430.0
 30
0.0
 11
12245.946929
 21
20275.75
 31
0.0
  0
SOLID
  5
34
  8
0
  6
BYBLOCK
 62
     9
 10
12242.613596
 20
20020.0
 30
0.0
 11
12249.280263
 21
20020.0
 31
0.0
 12
12245.946929
 22
20000.0
 32
0.0
 13
12245.946929
 23
20000.0
 33
0.0
  0
SOLID
  5
35
  8
0
  6
BYBLOCK
 62
     9
 10
12242.613596
 20
20430.0
 30
0.0
 11
12249.280263
 21
20430.0
 31
0.0
 12
12245.946929
 22
20450.0
 32
0.0
 13
12245.946929
 23
20450.0
 33
0.0
  0
TEXT
  5
36
  8
0
  6
BYBLOCK
 62
    11
 10
12263.446929
 20
20181.25
 30
0.0
 40
35.0
  1
450
 50
90.0
  0
POINT
  5
37
  8
DEFPOINTS
  6
BYBLOCK
 62
     0
 10
12000.0
 20
20000.0
 30
0.0
  0
POINT
  5
38
  8
DEFPOINTS
  6
BYBLOCK
 62
     0
 10
12177.5
 20
20450.0
 30
0.0
  0
POINT
  5
39
  8
DEFPOINTS
  6
BYBLOCK
 62
     0
 10
12245.946929
 20
20450.0
 30
0.0
  0
ENDBLK
  5
3B
  8
0
  0
BLOCK
  8
0
  2
*D4
 70
     1
 10
0.0
 20
0.0
 30
0.0
  3
*D4
  1

  0
LINE
  5
22
  8
0
  6
BYBLOCK
 62
     9
 10
12119.892779
 20
20319.999256
 30
0.0
 11
12202.815717
 21
20319.999256
 31
0.0
  0
LINE
  5
23
  8
0
  6
BYBLOCK
 62
     9
 10
12060.0
 20
20219.99702
 30
0.0
 11
12202.815717
 21
20219.99702
 31
0.0
  0
LINE
  5
24
  8
0
  6
BYBLOCK
 62
     9
 10
12201.815717
 20
20299.999256
 30
0.0
 11
12201.815717
 21
20239.99702
 31
0.0
  0
TEXT
  5
25
  8
0
  6
BYBLOCK
 62
    11
 10
12218.455434
 20
20137.807436
 30
0.0
 40
35.0
  1
100
 50
90.0
  0
SOLID
  5
26
  8
0
  6
BYBLOCK
 62
     9
 10
12198.482384
 20
20299.999256
 30
0.0
 11
12205.14905
 21
20299.999256
 31
0.0
 12
12201.815717
 22
20319.999256
 32
0.0
 13
12201.815717
 23
20319.999256
 33
0.0
  0
SOLID
  5
27
  8
0
  6
BYBLOCK
 62
     9
 10
12198.482384
 20
20239.99702
 30
0.0
 11
12205.14905
 21
20239.99702
 31
0.0
 12
12201.815717
 22
20219.99702
 32
0.0
 13
12201.815717
 23
20219.99702
 33
0.0
  0
POINT
  5
28
  8
DEFPOINTS
  6
BYBLOCK
 62
     0
 10
12109.892779
 20
20319.999256
 30
0.0
  0
POINT
  5
2A
  8
DEFPOINTS
  6
BYBLOCK
 62
     0
 10
12050.0
 20
20219.99702
 30
0.0
  0
POINT
  5
2B
  8
DEFPOINTS
  6
BYBLOCK
 62
     0
 10
12201.815717
 20
20219.99702
 30
0.0
  0
ENDBLK
  5
2D
  8
0
  0
BLOCK
  8
0
  2
*D5
 70
     1
 10
0.0
 20
0.0
 30
0.0
  3
*D5
  1

  0
LINE
  5
51
  8
0
  6
BYBLOCK
 62
     9
 10
11909.892779
 20
20338.999256
 30
0.0
 11
11909.892779
 21
20512.741554
 31
0.0
  0
LINE
  5
52
  8
0
  6
BYBLOCK
 62
     9
 10
12089.892779
 20
20338.999256
 30
0.0
 11
12089.892779
 21
20512.741554
 31
0.0
  0
LINE
  5
53
  8
0
  6
BYBLOCK
 62
     9
 10
11929.892779
 20
20511.741554
 30
0.0
 11
11954.976112
 21
20511.741554
 31
0.0
  0
LINE
  5
54
  8
0
  6
BYBLOCK
 62
     9
 10
12069.892779
 20
20511.741554
 30
0.0
 11
12044.809446
 21
20511.741554
 31
0.0
  0
SOLID
  5
55
  8
0
  6
BYBLOCK
 62
     9
 10
11929.892779
 20
20515.074887
 30
0.0
 11
11929.892779
 21
20508.408221
 31
0.0
 12
11909.892779
 22
20511.741554
 32
0.0
 13
11909.892779
 23
20511.741554
 33
0.0
  0
SOLID
  5
56
  8
0
  6
BYBLOCK
 62
     9
 10
12069.892779
 20
20515.074887
 30
0.0
 11
12069.892779
 21
20508.408221
 31
0.0
 12
12089.892779
 22
20511.741554
 32
0.0
 13
12089.892779
 23
20511.741554
 33
0.0
  0
TEXT
  5
57
  8
0
  6
BYBLOCK
 62
    11
 10
11961.976112
 20
20494.241554
 30
0.0
 40
35.0
  1
180
  0
POINT
  5
58
  8
DEFPOINTS
  6
BYBLOCK
 62
     0
 10
11909.892779
 20
20328.999256
 30
0.0
  0
POINT
  5
59
  8
DEFPOINTS
  6
BYBLOCK
 62
     0
 10
12089.892779
 20
20328.999256
 30
0.0
  0
POINT
  5
5A
  8
DEFPOINTS
  6
BYBLOCK
 62
     0
 10
12089.892779
 20
20511.741554
 30
0.0
  0
ENDBLK
  5
5C
  8
0
  0
BLOCK
  8
0
  2
*D6
 70
     1
 10
0.0
 20
0.0
 30
0.0
  3
*D6
  1

  0
LINE
  5
26A
  8
0
  6
BYBLOCK
 62
     9
 10
-35.0
 20
354.99702
 30
0.0
 11
-222.536491
 21
354.99702
 31
0.0
  0
LINE
  5
26B
  8
0
  6
BYBLOCK
 62
     9
 10
-60.0
 20
219.99702
 30
0.0
 11
-222.536491
 21
219.99702
 31
0.0
  0
LINE
  5
26C
  8
0
  6
BYBLOCK
 62
     9
 10
-221.536491
 20
334.99702
 30
0.0
 11
-221.536491
 21
327.99702
 31
0.0
  0
LINE
  5
26D
  8
0
  6
BYBLOCK
 62
     9
 10
-221.536491
 20
239.99702
 30
0.0
 11
-221.536491
 21
246.99702
 31
0.0
  0
TEXT
  8
0
  40
35
  5
29A
  62
11
  72
0
  71
0
 10
-291.536
 20
225.547
 30
0.000000
  1
135
  0
SOLID
  5
26F
  8
0
  6
BYBLOCK
 62
     9
 10
-224.869824
 20
334.99702
 30
0.0
 11
-218.203157
 21
334.99702
 31
0.0
 12
-221.536491
 22
354.99702
 32
0.0
 13
-221.536491
 23
354.99702
 33
0.0
  0
SOLID
  5
270
  8
0
  6
BYBLOCK
 62
     9
 10
-224.869824
 20
239.99702
 30
0.0
 11
-218.203157
 21
239.99702
 31
0.0
 12
-221.536491
 22
219.99702
 32
0.0
 13
-221.536491
 23
219.99702
 33
0.0
  0
POINT
  5
271
  8
DEFPOINTS
  6
BYBLOCK
 62
     0
 10
-25.0
 20
354.99702
 30
0.0
  0
POINT
  5
272
  8
DEFPOINTS
  6
BYBLOCK
 62
     0
 10
-50.0
 20
219.99702
 30
0.0
  0
POINT
  5
273
  8
DEFPOINTS
  6
BYBLOCK
 62
     0
 10
-221.536491
 20
219.99702
 30
0.0
  0
ENDBLK
  5
274
  8
0
  0
BLOCK
  8
0
  2
*D7
 70
     1
 10
0.0
 20
0.0
 30
0.0
  3
*D7
  1

  0
LINE
  5
22B
  8
0
  6
BYBLOCK
 62
     9
 10
119.892779
 20
319.999256
 30
0.0
 11
202.815717
 21
319.999256
 31
0.0
  0
LINE
  5
22C
  8
0
  6
BYBLOCK
 62
     9
 10
60.0
 20
219.99702
 30
0.0
 11
202.815717
 21
219.99702
 31
0.0
  0
LINE
  5
22D
  8
0
  6
BYBLOCK
 62
     9
 10
201.815717
 20
299.999256
 30
0.0
 11
201.815717
 21
239.99702
 31
0.0
  0
TEXT
  8
0
  40
35
  5
29B
  62
11
  72
0
  71
0
 10
130.955
 20
110.857
 30
0.000000
  1
100
  0
SOLID
  5
22F
  8
0
  6
BYBLOCK
 62
     9
 10
198.482384
 20
299.999256
 30
0.0
 11
205.14905
 21
299.999256
 31
0.0
 12
201.815717
 22
319.999256
 32
0.0
 13
201.815717
 23
319.999256
 33
0.0
  0
SOLID
  5
230
  8
0
  6
BYBLOCK
 62
     9
 10
198.482384
 20
239.99702
 30
0.0
 11
205.14905
 21
239.99702
 31
0.0
 12
201.815717
 22
219.99702
 32
0.0
 13
201.815717
 23
219.99702
 33
0.0
  0
POINT
  5
231
  8
DEFPOINTS
  6
BYBLOCK
 62
     0
 10
109.892779
 20
319.999256
 30
0.0
  0
POINT
  5
232
  8
DEFPOINTS
  6
BYBLOCK
 62
     0
 10
50.0
 20
219.99702
 30
0.0
  0
POINT
  5
233
  8
DEFPOINTS
  6
BYBLOCK
 62
     0
 10
201.815717
 20
219.99702
 30
0.0
  0
ENDBLK
  5
234
  8
0
  0
BLOCK
  8
0
  2
*D8
 70
     1
 10
0.0
 20
0.0
 30
0.0
  3
*D8
  1

  0
LINE
  5
237
  8
0
  6
BYBLOCK
 62
     9
 10
10.0
 20
0.0
 30
0.0
 11
246.946929
 21
0.0
 31
0.0
  0
LINE
  5
238
  8
0
  6
BYBLOCK
 62
     9
 10
187.5
 20
450.0
 30
0.0
 11
246.946929
 21
450.0
 31
0.0
  0
LINE
  5
239
  8
0
  6
BYBLOCK
 62
     9
 10
245.946929
 20
20.0
 30
0.0
 11
245.946929
 21
174.25
 31
0.0
  0
LINE
  5
23A
  8
0
  6
BYBLOCK
 62
     9
 10
245.946929
 20
430.0
 30
0.0
 11
245.946929
 21
275.75
 31
0.0
  0
SOLID
  5
23B
  8
0
  6
BYBLOCK
 62
     9
 10
242.613596
 20
20.0
 30
0.0
 11
249.280263
 21
20.0
 31
0.0
 12
245.946929
 22
0.0
 32
0.0
 13
245.946929
 23
0.0
 33
0.0
  0
SOLID
  5
23C
  8
0
  6
BYBLOCK
 62
     9
 10
242.613596
 20
430.0
 30
0.0
 11
249.280263
 21
430.0
 31
0.0
 12
245.946929
 22
450.0
 32
0.0
 13
245.946929
 23
450.0
 33
0.0
  0
TEXT
  8
0
  40
35
  5
29C
  62
11
  72
0
  71
0
 10
175.947
 20
163.050
 30
0.000000
  1
450
  0
POINT
  5
23E
  8
DEFPOINTS
  6
BYBLOCK
 62
     0
 10
0.0
 20
0.0
 30
0.0
  0
POINT
  5
23F
  8
DEFPOINTS
  6
BYBLOCK
 62
     0
 10
177.5
 20
450.0
 30
0.0
  0
POINT
  5
240
  8
DEFPOINTS
  6
BYBLOCK
 62
     0
 10
245.946929
 20
450.0
 30
0.0
  0
ENDBLK
  5
241
  8
0
  0
BLOCK
  8
0
  2
*D9
 70
     1
 10
0.0
 20
0.0
 30
0.0
  3
*D9
  1

  0
LINE
  5
244
  8
0
  6
BYBLOCK
 62
     9
 10
-10.0
 20
0.0
 30
0.0
 11
-222.536491
 21
0.0
 31
0.0
  0
LINE
  5
245
  8
0
  6
BYBLOCK
 62
     9
 10
-60.0
 20
219.99702
 30
0.0
 11
-222.536491
 21
219.99702
 31
0.0
  0
LINE
  5
246
  8
0
  6
BYBLOCK
 62
     9
 10
-221.536491
 20
20.0
 30
0.0
 11
-221.536491
 21
59.24851
 31
0.0
  0
LINE
  5
247
  8
0
  6
BYBLOCK
 62
     9
 10
-221.536491
 20
199.99702
 30
0.0
 11
-221.536491
 21
160.74851
 31
0.0
  0
SOLID
  5
248
  8
0
  6
BYBLOCK
 62
     9
 10
-224.869824
 20
20.0
 30
0.0
 11
-218.203157
 21
20.0
 31
0.0
 12
-221.536491
 22
0.0
 32
0.0
 13
-221.536491
 23
0.0
 33
0.0
  0
SOLID
  5
249
  8
0
  6
BYBLOCK
 62
     9
 10
-224.869824
 20
199.99702
 30
0.0
 11
-218.203157
 21
199.99702
 31
0.0
 12
-221.536491
 22
219.99702
 32
0.0
 13
-221.536491
 23
219.99702
 33
0.0
  0
TEXT
  8
0
  40
35
  5
29D
  62
11
  72
0
  71
0
 10
-291.536
 20
48.0485
 30
0.000000
  1
220
  0
POINT
  5
24B
  8
DEFPOINTS
  6
BYBLOCK
 62
     0
 10
0.0
 20
0.0
 30
0.0
  0
POINT
  5
24C
  8
DEFPOINTS
  6
BYBLOCK
 62
     0
 10
-50.0
 20
219.99702
 30
0.0
  0
POINT
  5
24D
  8
DEFPOINTS
  6
BYBLOCK
 62
     0
 10
-221.536491
 20
219.99702
 30
0.0
  0
ENDBLK
  5
24E
  8
0
  0
BLOCK
  8
0
  2
*D10
 70
     1
 10
0.0
 20
0.0
 30
0.0
  3
*D10
  1

  0
LINE
  5
251
  8
0
  6
BYBLOCK
 62
     9
 10
-90.107221
 20
338.999256
 30
0.0
 11
-90.107221
 21
512.741554
 31
0.0
  0
LINE
  5
252
  8
0
  6
BYBLOCK
 62
     9
 10
89.892779
 20
338.999256
 30
0.0
 11
89.892779
 21
512.741554
 31
0.0
  0
LINE
  5
253
  8
0
  6
BYBLOCK
 62
     9
 10
-70.107221
 20
511.741554
 30
0.0
 11
-45.023888
 21
511.741554
 31
0.0
  0
LINE
  5
254
  8
0
  6
BYBLOCK
 62
     9
 10
69.892779
 20
511.741554
 30
0.0
 11
44.809446
 21
511.741554
 31
0.0
  0
SOLID
  5
255
  8
0
  6
BYBLOCK
 62
     9
 10
-70.107221
 20
515.074887
 30
0.0
 11
-70.107221
 21
508.408221
 31
0.0
 12
-90.107221
 22
511.741554
 32
0.0
 13
-90.107221
 23
511.741554
 33
0.0
  0
SOLID
  5
256
  8
0
  6
BYBLOCK
 62
     9
 10
69.892779
 20
515.074887
 30
0.0
 11
69.892779
 21
508.408221
 31
0.0
 12
89.892779
 22
511.741554
 32
0.0
 13
89.892779
 23
511.741554
 33
0.0
  0
TEXT
  8
0
  40
35
  5
29E
  62
11
  72
0
  71
0
 10
-70.1072
 20
449.792
 30
0.000000
  1
180
  0
POINT
  5
258
  8
DEFPOINTS
  6
BYBLOCK
 62
     0
 10
-90.107221
 20
328.999256
 30
0.0
  0
POINT
  5
259
  8
DEFPOINTS
  6
BYBLOCK
 62
     0
 10
89.892779
 20
328.999256
 30
0.0
  0
POINT
  5
25A
  8
DEFPOINTS
  6
BYBLOCK
 62
     0
 10
89.892779
 20
511.741554
 30
0.0
  0
ENDBLK
  5
25B
  8
0
  0
BLOCK
  8
0
  2
*D11
 70
     1
 10
0.0
 20
0.0
 30
0.0
  3
*D11
  1

  0
LINE
  5
25E
  8
0
  6
BYBLOCK
 62
     9
 10
-182.5
 20
439.0
 30
0.0
 11
-182.5
 21
562.588911
 31
0.0
  0
LINE
  5
25F
  8
0
  6
BYBLOCK
 62
     9
 10
182.5
 20
439.0
 30
0.0
 11
182.5
 21
562.588911
 31
0.0
  0
LINE
  5
260
  8
0
  6
BYBLOCK
 62
     9
 10
-162.5
 20
561.588911
 30
0.0
 11
-53.666667
 21
561.588911
 31
0.0
  0
LINE
  5
261
  8
0
  6
BYBLOCK
 62
     9
 10
162.5
 20
561.588911
 30
0.0
 11
53.666667
 21
561.588911
 31
0.0
  0
SOLID
  5
262
  8
0
  6
BYBLOCK
 62
     9
 10
-162.5
 20
564.922244
 30
0.0
 11
-162.5
 21
558.255577
 31
0.0
 12
-182.5
 22
561.588911
 32
0.0
 13
-182.5
 23
561.588911
 33
0.0
  0
SOLID
  5
263
  8
0
  6
BYBLOCK
 62
     9
 10
162.5
 20
564.922244
 30
0.0
 11
162.5
 21
558.255577
 31
0.0
 12
182.5
 22
561.588911
 32
0.0
 13
182.5
 23
561.588911
 33
0.0
  0
TEXT
  8
0
  40
35
  5
29F
  62
11
  72
0
  71
0
 10
-70.0000
 20
499.639
 30
0.000000
  1
365
  0
POINT
  5
265
  8
DEFPOINTS
  6
BYBLOCK
 62
     0
 10
-182.5
 20
429.0
 30
0.0
  0
POINT
  5
266
  8
DEFPOINTS
  6
BYBLOCK
 62
     0
 10
182.5
 20
429.0
 30
0.0
  0
POINT
  5
267
  8
DEFPOINTS
  6
BYBLOCK
 62
     0
 10
182.5
 20
561.588911
 30
0.0
  0
ENDBLK
  5
268
  8
0
  0
ENDSEC
  0
SECTION
  2
ENTITIES
  0
DIMENSION
  5
20
  8
TEAM-MAS
  2
*D7
 10
201.815717
 20
219.99702
 30
0.0
 11
200.955434
 21
172.807436
 31
0.0
 70
   128
 13
109.892779
 23
319.999256
 33
0.0
 14
50.0
 24
219.99702
 34
0.0
 50
90.0
1001
ACAD
1000
DSTYLE
1002
{
1070
    40
1040
1.0
1002
}
  0
DIMENSION
  5
2E
  8
TEAM-MAS
  2
*D8
 10
245.946929
 20
450.0
 30
0.0
 11
245.946929
 21
225.0
 31
0.0
 70
     0
 13
0.0
 23
0.0
 33
0.0
 14
177.5
 24
450.0
 34
0.0
 50
90.0
1001
ACAD
1000
DSTYLE
1002
{
1070
    40
1040
1.0
1002
}
  0
DIMENSION
  5
3C
  8
TEAM-MAS
  2
*D9
 10
-221.536491
 20
219.99702
 30
0.0
 11
-221.536491
 21
109.99851
 31
0.0
 70
     0
 13
0.0
 23
0.0
 33
0.0
 14
-50.0
 24
219.99702
 34
0.0
 50
90.0
1001
ACAD
1000
DSTYLE
1002
{
1070
    40
1040
1.0
1002
}
  0
POLYLINE
  5
4A
  8
TEAM-BODY
 66
     1
 10
0.0
 20
0.0
 30
0.0
 70
     1
  0
VERTEX
  5
276
  8
TEAM-BODY
 10
172.511854
 20
405.010312
 30
0.0
 42
-0.41361
  0
VERTEX
  5
277
  8
TEAM-BODY
 10
177.511843
 20
410.0
 30
0.0
  0
VERTEX
  5
278
  8
TEAM-BODY
 10
177.5
 20
410.0
 30
0.0
 42
0.414214
  0
VERTEX
  5
279
  8
TEAM-BODY
 10
182.5
 20
415.0
 30
0.0
  0
VERTEX
  5
27A
  8
TEAM-BODY
 10
182.5
 20
443.0
 30
0.0
 42
0.331679
  0
VERTEX
  5
27B
  8
TEAM-BODY
 10
177.5
 20
449.708204
 30
0.0
  0
VERTEX
  5
27C
  8
TEAM-BODY
 10
177.5
 20
480.0
 30
0.0
 42
0.414214
  0
VERTEX
  5
27D
  8
TEAM-BODY
 10
172.5
 20
485.0
 30
0.0
  0
VERTEX
  5
27E
  8
TEAM-BODY
 10
-172.5
 20
485.0
 30
0.0
 42
0.414214
  0
VERTEX
  5
27F
  8
TEAM-BODY
 10
-177.5
 20
480.0
 30
0.0
  0
VERTEX
  5
280
  8
TEAM-BODY
 10
-177.5
 20
449.708204
 30
0.0
 42
0.331679
  0
VERTEX
  5
281
  8
TEAM-BODY
 10
-182.5
 20
443.0
 30
0.0
  0
VERTEX
  5
282
  8
TEAM-BODY
 10
-182.5
 20
415.0
 30
0.0
 42
0.414214
  0
VERTEX
  5
283
  8
TEAM-BODY
 10
-177.5
 20
410.0
 30
0.0
  0
VERTEX
  5
284
  8
TEAM-BODY
 10
-177.511843
 20
410.0
 30
0.0
 42
-0.41361
  0
VERTEX
  5
285
  8
TEAM-BODY
 10
-172.511854
 20
405.010312
 30
0.0
 42
0.089164
  0
VERTEX
  5
286
  8
TEAM-BODY
 10
-121.27096
 20
121.677194
 30
0.0
 42
0.192917
  0
VERTEX
  5
287
  8
TEAM-BODY
 10
-88.895592
 20
90.945257
 30
0.0
 42
0.055684
  0
VERTEX
  5
288
  8
TEAM-BODY
 10
-37.333147
 20
76.843676
 30
0.0
 42
-0.112063
  0
VERTEX
  5
289
  8
TEAM-BODY
 10
-34.454098
 20
75.697422
 30
0.0
 42
0.310483
  0
VERTEX
  5
28A
  8
TEAM-BODY
 10
34.454098
 20
75.697422
 30
0.0
 42
-0.112063
  0
VERTEX
  5
28B
  8
TEAM-BODY
 10
37.333147
 20
76.843676
 30
0.0
 42
0.055684
  0
VERTEX
  5
28C
  8
TEAM-BODY
 10
88.895592
 20
90.945257
 30
0.0
 42
0.192917
  0
VERTEX
  5
28D
  8
TEAM-BODY
 10
121.27096
 20
121.677194
 30
0.0
 42
0.089164
  0
SEQEND
  5
28E
  8
TEAM-BODY
  0
CIRCLE
  5
4C
  8
TEAM-INSP
 10
0.0
 20
0.0
 30
0.0
 40
10.0
  0
ARC
  5
4E
  8
TEAM-BODY
 10
0.0
 20
314.672229
 30
0.0
 40
240.740907
 50
261.078794
 51
278.921206
  0
DIMENSION
  5
4F
  8
TEAM-MAS
  2
*D10
 10
89.892779
 20
511.741554
 30
0.0
 11
-0.107221
 21
511.741554
 31
0.0
 70
     0
 13
-90.107221
 23
328.999256
 33
0.0
 14
89.892779
 24
328.999256
 34
0.0
1001
ACAD
1000
DSTYLE
1002
{
1070
    40
1040
1.0
1002
}
  0
DIMENSION
  5
5D
  8
TEAM-MAS
  2
*D11
 10
182.5
 20
561.588911
 30
0.0
 11
0.0
 21
561.588911
 31
0.0
 70
     0
 13
-182.5
 23
429.0
 33
0.0
 14
182.5
 24
429.0
 34
0.0
1001
ACAD
1000
DSTYLE
1002
{
1070
    40
1040
1.0
1002
}
  0
DIMENSION
  5
6B
  8
TEAM-MAS
  2
*D6
 10
-221.536491
 20
219.99702
 30
0.0
 11
-221.536491
 21
287.49702
 31
0.0
 70
   128
 13
-25.0
 23
354.99702
 33
0.0
 14
-50.0
 24
219.99702
 34
0.0
 50
90.0
1001
ACAD
1000
DSTYLE
1002
{
1070
    40
1040
1.0
1002
}
  0
LINE
  5
79
  8
TEAM-AXE
 10
0.0
 20
379.99702
 30
0.0
 11
0.0
 21
329.99702
 31
0.0
  0
CIRCLE
  5
7C
  8
TEAM-COLD
 10
0.0
 20
354.99702
 30
0.0
 40
25.0
  0
LINE
  5
7E
  8
TEAM-AXE
 10
25.0
 20
354.99702
 30
0.0
 11
-25.0
 21
354.99702
 31
0.0
  0
POLYLINE
  5
7F
  8
TEAM-HIDE
 66
     1
 10
0.0
 20
0.0
 30
0.0
 70
     1
  0
VERTEX
  5
28F
  8
TEAM-HIDE
 10
100.892779
 20
310.999256
 30
0.0
 42
1.0
  0
VERTEX
  5
290
  8
TEAM-HIDE
 10
100.892779
 20
328.999256
 30
0.0
  0
VERTEX
  5
291
  8
TEAM-HIDE
 10
78.892779
 20
328.999256
 30
0.0
 42
1.0
  0
VERTEX
  5
292
  8
TEAM-HIDE
 10
78.892779
 20
310.999256
 30
0.0
  0
SEQEND
  5
293
  8
TEAM-HIDE
  0
LINE
  5
82
  8
TEAM-AXE
 10
89.892779
 20
328.999256
 30
0.0
 11
89.892779
 21
310.999256
 31
0.0
  0
LINE
  5
83
  8
TEAM-AXE
 10
69.892779
 20
319.999256
 30
0.0
 11
109.892779
 21
319.999256
 31
0.0
  0
LINE
  5
84
  8
TEAM-AXE
 10
-90.107221
 20
328.999256
 30
0.0
 11
-90.107221
 21
310.999256
 31
0.0
  0
POLYLINE
  5
85
  8
TEAM-HIDE
 66
     1
 10
0.0
 20
0.0
 30
0.0
 70
     1
  0
VERTEX
  5
294
  8
TEAM-HIDE
 10
-79.107221
 20
310.999256
 30
0.0
 42
1.0
  0
VERTEX
  5
295
  8
TEAM-HIDE
 10
-79.107221
 20
328.999256
 30
0.0
  0
VERTEX
  5
296
  8
TEAM-HIDE
 10
-101.107221
 20
328.999256
 30
0.0
 42
1.0
  0
VERTEX
  5
297
  8
TEAM-HIDE
 10
-101.107221
 20
310.999256
 30
0.0
  0
SEQEND
  5
298
  8
TEAM-HIDE
  0
LINE
  5
86
  8
TEAM-AXE
 10
-110.107221
 20
319.999256
 30
0.0
 11
-70.107221
 21
319.999256
 31
0.0
  0
LINE
  5
87
  8
TEAM-AXE
 10
50.0
 20
219.99702
 30
0.0
 11
-50.0
 21
219.99702
 31
0.0
  0
CIRCLE
  5
88
  8
TEAM-KAN
 10
0.0
 20
219.99702
 30
0.0
 40
50.0
  0
LINE
  5
8A
  8
TEAM-AXE
 10
0.0
 20
269.99702
 30
0.0
 11
0.0
 21
169.99702
 31
0.0
  0
TEXT
  5
8B
  8
TEAM-TXT
 10
-134.355617
 20
276.105963
 30
0.0
 40
30.0
  1
team 342112
 41
0.8
 51
15.0
  7
TEAM
  0
LINE
  5
8E
  8
TEAM-BODY
 10
-177.5
 20
450.0
 30
0.0
 11
177.5
 21
450.0
 31
0.0
  0
LINE
  5
8F
  8
TEAM-BODY
 10
-173.979957
 20
408.539178
 30
0.0
 11
173.979957
 21
408.539178
 31
0.0
  0
ENDSEC
  0
EOF
