  0
SECTION
  2
HEADER
  9
$ACADVER
  1
AC1009
  9
$INSBASE
 10
0.0
 20
0.0
 30
0.0
  9
$EXTMIN
 10
-230.753077
 20
-321.453924
 30
-0.001526
  9
$EXTMAX
 10
159.250236
 20
67.51516
 30
0.0
  9
$LIMMIN
 10
-230.753077
 20
-321.453924
  9
$LIMMAX
 10
159.250236
 20
67.51516
  9
$ORTHOMODE
 70
     1
  9
$REGENMODE
 70
     1
  9
$FILLMODE
 70
     1
  9
$QTEXTMODE
 70
     0
  9
$MIRRTEXT
 70
     0
  9
$DRAGMODE
 70
     2
  9
$LTSCALE
 40
25.0
  9
$OSMODE
 70
     0
  9
$ATTMODE
 70
     1
  9
$TEXTSIZE
 40
200.0
  9
$TRACEWID
 40
1.0
  9
$TEXTSTYLE
  7
STANDARD
  9
$CLAYER
  8
TEAM-MAS
  9
$CELTYPE
  6
BYLAYER
  9
$CECOLOR
 62
   256
  9
$DIMSCALE
 40
0.0
  9
$DIMASZ
 40
20.0
  9
$DIMEXO
 40
10.0
  9
$DIMDLI
 40
1.0
  9
$DIMRND
 40
0.0
  9
$DIMDLE
 40
0.0
  9
$DIMEXE
 40
1.0
  9
$DIMTP
 40
0.0
  9
$DIMTM
 40
0.0
  9
$DIMTXT
 40
35.0
  9
$DIMCEN
 40
1.0
  9
$DIMTSZ
 40
0.0
  9
$DIMTOL
 70
     0
  9
$DIMLIM
 70
     0
  9
$DIMTIH
 70
     0
  9
$DIMTOH
 70
     0
  9
$DIMSE1
 70
     0
  9
$DIMSE2
 70
     0
  9
$DIMTAD
 70
     0
  9
$DIMZIN
 70
     0
  9
$DIMBLK
  1

  9
$DIMASO
 70
     1
  9
$DIMSHO
 70
     0
  9
$DIMPOST
  1

  9
$DIMAPOST
  1

  9
$DIMALT
 70
     0
  9
$DIMALTD
 70
     2
  9
$DIMALTF
 40
25.4
  9
$DIMLFAC
 40
1.0
  9
$DIMTOFL
 70
     0
  9
$DIMTVP
 40
0.0
  9
$DIMTIX
 70
     0
  9
$DIMSOXD
 70
     0
  9
$DIMSAH
 70
     0
  9
$DIMBLK1
  1

  9
$DIMBLK2
  1

  9
$DIMSTYLE
  2
TEAM
  9
$DIMCLRD
 70
     9
  9
$DIMCLRE
 70
     9
  9
$DIMCLRT
 70
    11
  9
$DIMTFAC
 40
1.0
  9
$DIMGAP
 40
15.0
  9
$LUNITS
 70
     2
  9
$LUPREC
 70
     1
  9
$SKETCHINC
 40
1.0
  9
$FILLETRAD
 40
20.0
  9
$AUNITS
 70
     0
  9
$AUPREC
 70
     0
  9
$MENU
  1
ROPLANS
  9
$ELEVATION
 40
0.0
  9
$PELEVATION
 40
0.0
  9
$THICKNESS
 40
0.0
  9
$LIMCHECK
 70
     0
  9
$BLIPMODE
 70
     1
  9
$CHAMFERA
 40
0.0
  9
$CHAMFERB
 40
0.0
  9
$SKPOLY
 70
     0
  9
$TDCREATE
 40
2450392.957851
  9
$TDUPDATE
 40
2455536.798295
  9
$TDINDWG
 40
2.489744
  9
$TDUSRTIMER
 40
2.489744
  9
$USRTIMER
 70
     1
  9
$ANGBASE
 50
0.0
  9
$ANGDIR
 70
     0
  9
$PDMODE
 70
     0
  9
$PDSIZE
 40
0.0
  9
$PLINEWID
 40
0.0
  9
$COORDS
 70
     2
  9
$SPLFRAME
 70
     0
  9
$SPLINETYPE
 70
     6
  9
$SPLINESEGS
 70
     8
  9
$ATTDIA
 70
     0
  9
$ATTREQ
 70
     0
  9
$HANDLING
 70
     1
  9
$HANDSEED
  5
14B
  9
$SURFTAB1
 70
    48
  9
$SURFTAB2
 70
    48
  9
$SURFTYPE
 70
     6
  9
$SURFU
 70
     6
  9
$SURFV
 70
     6
  9
$UCSNAME
  2

  9
$UCSORG
 10
0.0
 20
0.0
 30
0.0
  9
$UCSXDIR
 10
1.0
 20
0.0
 30
0.0
  9
$UCSYDIR
 10
0.0
 20
1.0
 30
0.0
  9
$PUCSNAME
  2

  9
$PUCSORG
 10
0.0
 20
0.0
 30
0.0
  9
$PUCSXDIR
 10
1.0
 20
0.0
 30
0.0
  9
$PUCSYDIR
 10
0.0
 20
1.0
 30
0.0
  9
$USERI1
 70
     0
  9
$USERI2
 70
     0
  9
$USERI3
 70
     0
  9
$USERI4
 70
     0
  9
$USERI5
 70
     0
  9
$USERR1
 40
0.0
  9
$USERR2
 40
0.0
  9
$USERR3
 40
0.0
  9
$USERR4
 40
0.0
  9
$USERR5
 40
0.0
  9
$WORLDVIEW
 70
     1
  9
$SHADEDGE
 70
     0
  9
$SHADEDIF
 70
    70
  9
$TILEMODE
 70
     1
  9
$MAXACTVP
 70
    16
  9
$PLIMCHECK
 70
     0
  9
$PEXTMIN
 10
-0.805942
 20
0.005011
 30
0.0
  9
$PEXTMAX
 10
20.421406
 20
13.753816
 30
0.0
  9
$PLIMMIN
 10
0.0
 20
0.0
  9
$PLIMMAX
 10
12.0
 20
9.0
  9
$UNITMODE
 70
     0
  9
$VISRETAIN
 70
     0
  9
$PLINEGEN
 70
     0
  9
$PSLTSCALE
 70
     0
  0
ENDSEC
  0
SECTION
  2
TABLES
  0
TABLE
  2
VPORT
 70
     2
  0
VPORT
  2
*ACTIVE
 70
     0
 10
0.0
 20
0.0
 11
1.0
 21
1.0
 12
-35.751421
 22
-126.969382
 13
0.0
 23
0.0
 14
1.0
 24
1.0
 15
50.0
 25
50.0
 16
0.0
 26
0.0
 36
1.0
 17
0.0
 27
0.0
 37
0.0
 40
391.35784
 41
1.865779
 42
50.0
 43
0.0
 44
0.0
 50
0.0
 51
0.0
 71
     0
 72
   100
 73
     1
 74
     1
 75
     0
 76
     0
 77
     0
 78
     0
  0
ENDTAB
  0
TABLE
  2
LTYPE
 70
     2
  0
LTYPE
  2
CONTINUOUS
 70
     0
  3
Solid Line
 72
    65
 73
     0
 40
0.0
  0
LTYPE
  2
31
 70
     0
  3

 72
    65
 73
     4
 40
2.1
 49
1.5
 49
-0.3
 49
0.0
 49
-0.3
  0
ENDTAB
  0
TABLE
  2
LAYER
 70
     8
  0
LAYER
  2
0
 70
     0
 62
     7
  6
CONTINUOUS
  0
LAYER
  2
DEFPOINTS
 70
     0
 62
     7
  6
CONTINUOUS
  0
LAYER
  2
TEAM-BODY
 70
     0
 62
     2
  6
CONTINUOUS
  0
LAYER
  2
TEAM-AXE
 70
     0
 62
    10
  6
31
  0
LAYER
  2
TEAM-MAS
 70
     0
 62
     9
  6
CONTINUOUS
  0
LAYER
  2
TEAM-TXT
 70
     0
 62
    11
  6
CONTINUOUS
  0
LAYER
  2
TEAM-DET1
 70
     0
 62
     4
  6
CONTINUOUS
  0
LAYER
  2
TEAM-INSP
 70
     0
 62
     5
  6
CONTINUOUS
  0
ENDTAB
  0
TABLE
  2
STYLE
 70
     2
  0
STYLE
  2
STANDARD
 70
     0
 40
0.0
 41
1.0
 50
0.0
 71
     0
 42
200.0
  3
txt
  4

  0
STYLE
  2
TEAM
 70
     0
 40
0.0
 41
0.8
 50
15.0
 71
     0
 42
7.0
  3
ROMANS.shx
  4

  0
ENDTAB
  0
TABLE
  2
VIEW
 70
     0
  0
ENDTAB
  0
TABLE
  2
UCS
 70
     0
  0
ENDTAB
  0
TABLE
  2
APPID
 70
     1
  0
APPID
  2
ACAD
 70
     0
  0
ENDTAB
  0
TABLE
  2
DIMSTYLE
 70
     1
  0
DIMSTYLE
  2
TEAM
 70
     0
  3

  4

  5

  6

  7

 40
0.0
 41
20.0
 42
10.0
 43
1.0
 44
1.0
 45
0.0
 46
0.0
 47
0.0
 48
0.0
140
35.0
141
1.0
142
0.0
143
25.4
144
1.0
145
0.0
146
1.0
147
15.0
 71
     0
 72
     0
 73
     0
 74
     0
 75
     0
 76
     0
 77
     0
 78
     0
170
     0
171
     2
172
     0
173
     0
174
     0
175
     0
176
     9
177
     9
178
    11
  0
ENDTAB
  0
ENDSEC
  0
SECTION
  2
BLOCKS
  0
BLOCK
  8
0
  2
$MODEL_SPACE
 70
     0
 10
0.0
 20
0.0
 30
0.0
  3
$MODEL_SPACE
  1

  0
ENDBLK
  5
F7
  8
0
  0
BLOCK
 67
     1
  8
0
  2
$PAPER_SPACE
 70
     0
 10
0.0
 20
0.0
 30
0.0
  3
$PAPER_SPACE
  1

  0
ENDBLK
  5
F5
 67
     1
  8
0
  0
BLOCK
  8
0
  2
*D0
 70
     1
 10
0.0
 20
0.0
 30
0.0
  3
*D0
  1

  0
LINE
  5
22
  8
0
  6
BYBLOCK
 62
     9
 10
3871.301995
 20
12000.0
 30
0.0
 11
3785.770115
 21
12000.0
 31
0.0
  0
LINE
  5
23
  8
0
  6
BYBLOCK
 62
     9
 10
3849.5
 20
11680.0
 30
0.0
 11
3785.770115
 21
11680.0
 31
0.0
  0
LINE
  5
24
  8
0
  6
BYBLOCK
 62
     9
 10
3786.770115
 20
11980.0
 30
0.0
 11
3786.770115
 21
11898.75
 31
0.0
  0
LINE
  5
25
  8
0
  6
BYBLOCK
 62
     9
 10
3786.770115
 20
11700.0
 30
0.0
 11
3786.770115
 21
11781.25
 31
0.0
  0
SOLID
  5
26
  8
0
  6
BYBLOCK
 62
     9
 10
3783.436782
 20
11980.0
 30
0.0
 11
3790.103449
 21
11980.0
 31
0.0
 12
3786.770115
 22
12000.0
 32
0.0
 13
3786.770115
 23
12000.0
 33
0.0
  0
SOLID
  5
27
  8
0
  6
BYBLOCK
 62
     9
 10
3783.436782
 20
11700.0
 30
0.0
 11
3790.103449
 21
11700.0
 31
0.0
 12
3786.770115
 22
11680.0
 32
0.0
 13
3786.770115
 23
11680.0
 33
0.0
  0
TEXT
  5
28
  8
0
  6
BYBLOCK
 62
    11
 10
3804.270115
 20
11803.23622
 30
0.0
 40
35.0
  1
320
 50
90.0
  0
POINT
  5
29
  8
DEFPOINTS
  6
BYBLOCK
 62
     0
 10
3881.301995
 20
12000.0
 30
0.0
  0
POINT
  5
2B
  8
DEFPOINTS
  6
BYBLOCK
 62
     0
 10
3859.5
 20
11680.0
 30
0.0
  0
POINT
  5
2C
  8
DEFPOINTS
  6
BYBLOCK
 62
     0
 10
3786.770115
 20
11680.0
 30
0.0
  0
ENDBLK
  5
2E
  8
0
  0
BLOCK
  8
0
  2
*D1
 70
     1
 10
0.0
 20
0.0
 30
0.0
  3
*D1
  1

  0
LINE
  5
31
  8
0
  6
BYBLOCK
 62
     9
 10
3852.5
 20
12003.0
 30
0.0
 11
3852.5
 21
12051.0
 31
0.0
  0
LINE
  5
32
  8
0
  6
BYBLOCK
 62
     9
 10
4147.5
 20
12003.0
 30
0.0
 11
4147.5
 21
12051.0
 31
0.0
  0
LINE
  5
33
  8
0
  6
BYBLOCK
 62
     9
 10
3872.5
 20
12050.0
 30
0.0
 11
3938.333333
 21
12050.0
 31
0.0
  0
LINE
  5
34
  8
0
  6
BYBLOCK
 62
     9
 10
4127.5
 20
12050.0
 30
0.0
 11
4061.666667
 21
12050.0
 31
0.0
  0
SOLID
  5
35
  8
0
  6
BYBLOCK
 62
     9
 10
3872.5
 20
12053.333333
 30
0.0
 11
3872.5
 21
12046.666667
 31
0.0
 12
3852.5
 22
12050.0
 32
0.0
 13
3852.5
 23
12050.0
 33
0.0
  0
SOLID
  5
36
  8
0
  6
BYBLOCK
 62
     9
 10
4127.5
 20
12053.333333
 30
0.0
 11
4127.5
 21
12046.666667
 31
0.0
 12
4147.5
 22
12050.0
 32
0.0
 13
4147.5
 23
12050.0
 33
0.0
  0
TEXT
  5
37
  8
0
  6
BYBLOCK
 62
    11
 10
3962.908365
 20
12032.5
 30
0.0
 40
35.0
  1
295
  0
POINT
  5
38
  8
DEFPOINTS
  6
BYBLOCK
 62
     0
 10
3852.5
 20
11993.0
 30
0.0
  0
POINT
  5
39
  8
DEFPOINTS
  6
BYBLOCK
 62
     0
 10
4147.5
 20
11993.0
 30
0.0
  0
POINT
  5
3A
  8
DEFPOINTS
  6
BYBLOCK
 62
     0
 10
4147.5
 20
12050.0
 30
0.0
  0
ENDBLK
  5
3C
  8
0
  0
ENDSEC
  0
SECTION
  2
ENTITIES
  0
DIMENSION
  5
20
  8
TEAM-MAS
  2
*D0
 10
-213.229885
 20
-320.0
 30
0.0
 11
-213.229885
 21
-160.0
 31
0.0
 12
-4000.0
 22
-12000.0
 32
0.0
 13
-118.698006
 23
0.0
 33
0.0
 14
-140.5
 24
-320.0
 34
0.0
 50
90.0
  0
DIMENSION
  5
2F
  8
TEAM-MAS
  2
*D1
 10
147.5
 20
50.0
 30
0.0
 11
0.0
 21
50.0
 31
0.0
 12
-4000.0
 22
-12000.0
 32
0.0
 13
-147.5
 23
-7.0
 33
0.0
 14
147.5
 24
-7.0
 34
0.0
  0
CIRCLE
  5
3D
  8
TEAM-INSP
 10
0.0
 20
0.0
 30
0.0
 40
10.0
  0
POLYLINE
  5
3F
  8
TEAM-DET1
 66
     1
 10
0.0
 20
0.0
 30
0.0
 70
   129
210
0.0
220
0.0
230
-1.0
  0
VERTEX
  5
FD
  8
TEAM-DET1
 10
-80.919888
 20
-13.67997
 30
0.0
  0
VERTEX
  5
FE
  8
TEAM-DET1
 10
-80.809182
 20
-14.401257
 30
0.0
  0
VERTEX
  5
FF
  8
TEAM-DET1
 10
-80.481066
 20
-15.096474
 30
0.0
  0
VERTEX
  5
100
  8
TEAM-DET1
 10
-79.947397
 20
-15.740496
 30
0.0
  0
VERTEX
  5
101
  8
TEAM-DET1
 10
-79.227465
 20
-16.310044
 30
0.0
  0
VERTEX
  5
102
  8
TEAM-DET1
 10
-78.34729
 20
-16.784535
 30
0.0
  0
VERTEX
  5
103
  8
TEAM-DET1
 10
-77.338683
 20
-17.146818
 30
0.0
  0
VERTEX
  5
104
  8
TEAM-DET1
 10
-76.238098
 20
-17.383801
 30
0.0
  0
VERTEX
  5
105
  8
TEAM-DET1
 10
-75.085313
 20
-17.486918
 30
0.0
  0
VERTEX
  5
106
  8
TEAM-DET1
 10
-73.921993
 20
-17.452442
 30
0.0
  0
VERTEX
  5
107
  8
TEAM-DET1
 10
-72.790183
 20
-17.281618
 30
0.0
  0
VERTEX
  5
108
  8
TEAM-DET1
 10
-71.73079
 20
-16.980622
 30
0.0
  0
VERTEX
  5
109
  8
TEAM-DET1
 10
-70.782103
 20
-16.560332
 30
0.0
  0
VERTEX
  5
10A
  8
TEAM-DET1
 10
-69.97841
 20
-16.035938
 30
0.0
  0
VERTEX
  5
10B
  8
TEAM-DET1
 10
-69.348759
 20
-15.426393
 30
0.0
  0
VERTEX
  5
10C
  8
TEAM-DET1
 10
-68.915906
 20
-14.753728
 30
0.0
  0
VERTEX
  5
10D
  8
TEAM-DET1
 10
-68.695497
 20
-14.042254
 30
0.0
  0
VERTEX
  5
10E
  8
TEAM-DET1
 10
-68.695497
 20
-13.317687
 30
0.0
  0
VERTEX
  5
10F
  8
TEAM-DET1
 10
-68.915906
 20
-12.606213
 30
0.0
  0
VERTEX
  5
110
  8
TEAM-DET1
 10
-69.348759
 20
-11.933548
 30
0.0
  0
VERTEX
  5
111
  8
TEAM-DET1
 10
-69.97841
 20
-11.324003
 30
0.0
  0
VERTEX
  5
112
  8
TEAM-DET1
 10
-70.782103
 20
-10.799609
 30
0.0
  0
VERTEX
  5
113
  8
TEAM-DET1
 10
-71.73079
 20
-10.379319
 30
0.0
  0
VERTEX
  5
114
  8
TEAM-DET1
 10
-72.790183
 20
-10.078323
 30
0.0
  0
VERTEX
  5
115
  8
TEAM-DET1
 10
-73.921993
 20
-9.907499
 30
0.0
  0
VERTEX
  5
116
  8
TEAM-DET1
 10
-75.085313
 20
-9.873023
 30
0.0
  0
VERTEX
  5
117
  8
TEAM-DET1
 10
-76.238098
 20
-9.97614
 30
0.0
  0
VERTEX
  5
118
  8
TEAM-DET1
 10
-77.338683
 20
-10.213122
 30
0.0
  0
VERTEX
  5
119
  8
TEAM-DET1
 10
-78.34729
 20
-10.575406
 30
0.0
  0
VERTEX
  5
11A
  8
TEAM-DET1
 10
-79.227465
 20
-11.049897
 30
0.0
  0
VERTEX
  5
11B
  8
TEAM-DET1
 10
-79.947397
 20
-11.619445
 30
0.0
  0
VERTEX
  5
11C
  8
TEAM-DET1
 10
-80.481066
 20
-12.263467
 30
0.0
  0
VERTEX
  5
11D
  8
TEAM-DET1
 10
-80.809182
 20
-12.958684
 30
0.0
  0
SEQEND
  5
11E
  8
TEAM-DET1
  0
POLYLINE
  5
41
  8
TEAM-DET1
 66
     1
 10
0.0
 20
0.0
 30
0.0
 70
   129
  0
VERTEX
  5
11F
  8
TEAM-DET1
 10
-80.919888
 20
-13.67997
 30
0.0
  0
VERTEX
  5
120
  8
TEAM-DET1
 10
-80.809182
 20
-14.401257
 30
0.0
  0
VERTEX
  5
121
  8
TEAM-DET1
 10
-80.481066
 20
-15.096474
 30
0.0
  0
VERTEX
  5
122
  8
TEAM-DET1
 10
-79.947397
 20
-15.740496
 30
0.0
  0
VERTEX
  5
123
  8
TEAM-DET1
 10
-79.227465
 20
-16.310044
 30
0.0
  0
VERTEX
  5
124
  8
TEAM-DET1
 10
-78.34729
 20
-16.784535
 30
0.0
  0
VERTEX
  5
125
  8
TEAM-DET1
 10
-77.338683
 20
-17.146818
 30
0.0
  0
VERTEX
  5
126
  8
TEAM-DET1
 10
-76.238098
 20
-17.383801
 30
0.0
  0
VERTEX
  5
127
  8
TEAM-DET1
 10
-75.085313
 20
-17.486918
 30
0.0
  0
VERTEX
  5
128
  8
TEAM-DET1
 10
-73.921993
 20
-17.452442
 30
0.0
  0
VERTEX
  5
129
  8
TEAM-DET1
 10
-72.790183
 20
-17.281618
 30
0.0
  0
VERTEX
  5
12A
  8
TEAM-DET1
 10
-71.73079
 20
-16.980622
 30
0.0
  0
VERTEX
  5
12B
  8
TEAM-DET1
 10
-70.782103
 20
-16.560332
 30
0.0
  0
VERTEX
  5
12C
  8
TEAM-DET1
 10
-69.97841
 20
-16.035938
 30
0.0
  0
VERTEX
  5
12D
  8
TEAM-DET1
 10
-69.348759
 20
-15.426393
 30
0.0
  0
VERTEX
  5
12E
  8
TEAM-DET1
 10
-68.915906
 20
-14.753728
 30
0.0
  0
VERTEX
  5
12F
  8
TEAM-DET1
 10
-68.695497
 20
-14.042254
 30
0.0
  0
VERTEX
  5
130
  8
TEAM-DET1
 10
-68.695497
 20
-13.317687
 30
0.0
  0
VERTEX
  5
131
  8
TEAM-DET1
 10
-68.915906
 20
-12.606213
 30
0.0
  0
VERTEX
  5
132
  8
TEAM-DET1
 10
-69.348759
 20
-11.933548
 30
0.0
  0
VERTEX
  5
133
  8
TEAM-DET1
 10
-69.97841
 20
-11.324003
 30
0.0
  0
VERTEX
  5
134
  8
TEAM-DET1
 10
-70.782103
 20
-10.799609
 30
0.0
  0
VERTEX
  5
135
  8
TEAM-DET1
 10
-71.73079
 20
-10.379319
 30
0.0
  0
VERTEX
  5
136
  8
TEAM-DET1
 10
-72.790183
 20
-10.078323
 30
0.0
  0
VERTEX
  5
137
  8
TEAM-DET1
 10
-73.921993
 20
-9.907499
 30
0.0
  0
VERTEX
  5
138
  8
TEAM-DET1
 10
-75.085313
 20
-9.873023
 30
0.0
  0
VERTEX
  5
139
  8
TEAM-DET1
 10
-76.238098
 20
-9.97614
 30
0.0
  0
VERTEX
  5
13A
  8
TEAM-DET1
 10
-77.338683
 20
-10.213122
 30
0.0
  0
VERTEX
  5
13B
  8
TEAM-DET1
 10
-78.34729
 20
-10.575406
 30
0.0
  0
VERTEX
  5
13C
  8
TEAM-DET1
 10
-79.227465
 20
-11.049897
 30
0.0
  0
VERTEX
  5
13D
  8
TEAM-DET1
 10
-79.947397
 20
-11.619445
 30
0.0
  0
VERTEX
  5
13E
  8
TEAM-DET1
 10
-80.481066
 20
-12.263467
 30
0.0
  0
VERTEX
  5
13F
  8
TEAM-DET1
 10
-80.809182
 20
-12.958684
 30
0.0
  0
SEQEND
  5
140
  8
TEAM-DET1
  0
LINE
  5
42
  8
TEAM-AXE
 10
75.0
 20
-17.480678
 30
0.0
 11
75.0
 21
-9.879263
 31
0.0
  0
LINE
  5
45
  8
TEAM-AXE
 10
81.211898
 20
-13.67997
 30
0.0
 11
68.547413
 21
-13.67997
 31
0.0
  0
LINE
  5
46
  8
TEAM-AXE
 10
-81.211898
 20
-13.67997
 30
0.0
 11
-68.547413
 21
-13.67997
 31
0.0
  0
LINE
  5
47
  8
TEAM-AXE
 10
-75.0
 20
-17.480678
 30
0.0
 11
-75.0
 21
-9.879263
 31
0.0
  0
LINE
  5
48
  8
TEAM-AXE
 10
-126.829194
 20
-30.0
 30
0.0
 11
-160.17571
 21
-30.0
 31
0.0
  0
LINE
  5
49
  8
TEAM-AXE
 10
-95.0
 20
-12.513304
 30
0.0
 11
-95.0
 21
12.87899
 31
0.0
  0
LINE
  5
4A
  8
TEAM-AXE
 10
95.0
 20
-12.513304
 30
0.0
 11
95.0
 21
12.87899
 31
0.0
  0
LINE
  5
4B
  8
TEAM-AXE
 10
125.891872
 20
-30.0
 30
0.0
 11
159.238387
 21
-30.0
 31
0.0
  0
LINE
  5
4C
  8
TEAM-DET1
 10
-84.295571
 20
0.0
 30
0.0
 11
-84.295571
 21
-8.0
 31
0.0
  0
LINE
  5
4D
  8
TEAM-DET1
 10
-125.080706
 20
-40.151801
 30
0.0
 11
-116.888514
 21
-40.151801
 31
0.0
  0
LINE
  5
4E
  8
TEAM-DET1
 10
-116.888514
 20
-40.151801
 30
0.0
 11
-123.978345
 21
-8.0
 31
0.0
  0
LINE
  5
4F
  8
TEAM-DET1
 10
-125.080706
 20
-40.151801
 30
0.0
 11
-133.934626
 21
0.0
 31
0.0
  0
LINE
  5
50
  8
TEAM-DET1
 10
-123.978345
 20
-8.0
 30
0.0
 11
-84.295571
 21
-8.0
 31
0.0
  0
LINE
  5
51
  8
TEAM-DET1
 10
125.080706
 20
-40.151801
 30
0.0
 11
116.888514
 21
-40.151801
 31
0.0
  0
LINE
  5
52
  8
TEAM-DET1
 10
84.295571
 20
0.0
 30
0.0
 11
84.295571
 21
-8.0
 31
0.0
  0
LINE
  5
53
  8
TEAM-DET1
 10
123.978345
 20
-8.0
 30
0.0
 11
84.295571
 21
-8.0
 31
0.0
  0
LINE
  5
54
  8
TEAM-DET1
 10
125.080706
 20
-40.151801
 30
0.0
 11
133.934626
 21
0.0
 31
0.0
  0
LINE
  5
55
  8
TEAM-DET1
 10
116.888514
 20
-40.151801
 30
0.0
 11
123.978345
 21
-8.0
 31
0.0
  0
LINE
  5
56
  8
TEAM-DET1
 10
-10.421608
 20
-96.103006
 30
0.0
 11
10.578392
 21
-96.103006
 31
0.0
  0
LINE
  5
57
  8
TEAM-DET1
 10
17.578392
 20
-103.103006
 30
0.0
 11
17.578392
 21
-124.103006
 31
0.0
  0
LINE
  5
58
  8
TEAM-DET1
 10
-17.421608
 20
-103.103006
 30
0.0
 11
-17.421608
 21
-124.103006
 31
0.0
  0
ARC
  5
59
  8
TEAM-DET1
 10
-10.421608
 20
-103.103006
 30
0.0
 40
7.0
 50
90.0
 51
180.0
  0
ARC
  5
5A
  8
TEAM-DET1
 10
10.578392
 20
-103.103006
 30
0.0
 40
7.0
 50
0.0
 51
90.0
  0
ARC
  5
5B
  8
TEAM-DET1
 10
-7.381346
 20
-124.370456
 30
0.0
 40
10.032621
 50
179.215048
 51
267.599618
  0
ARC
  5
5C
  8
TEAM-DET1
 10
7.538129
 20
-124.370456
 30
0.0
 40
10.032621
 50
272.400382
 51
0.784952
  0
LINE
  5
5D
  8
TEAM-DET1
 10
7.958318
 20
-134.394274
 30
0.0
 11
-7.801535
 21
-134.394274
 31
0.0
  0
POLYLINE
  5
5E
  8
TEAM-BODY
 66
     1
 10
0.0
 20
0.0
 30
0.0
 70
     1
  0
VERTEX
  5
141
  8
TEAM-BODY
 10
147.5
 20
-7.0
 30
0.0
 42
0.414214
  0
VERTEX
  5
142
  8
TEAM-BODY
 10
140.5
 20
0.0
 30
0.0
  0
VERTEX
  5
143
  8
TEAM-BODY
 10
-140.5
 20
0.0
 30
0.0
 42
0.414214
  0
VERTEX
  5
144
  8
TEAM-BODY
 10
-147.5
 20
-7.0
 30
0.0
  0
VERTEX
  5
145
  8
TEAM-BODY
 10
-147.5
 20
-313.0
 30
0.0
 42
0.414214
  0
VERTEX
  5
146
  8
TEAM-BODY
 10
-140.5
 20
-320.0
 30
0.0
  0
VERTEX
  5
147
  8
TEAM-BODY
 10
140.5
 20
-320.0
 30
0.0
 42
0.414214
  0
VERTEX
  5
148
  8
TEAM-BODY
 10
147.5
 20
-313.0
 30
0.0
  0
SEQEND
  5
149
  8
TEAM-BODY
  0
LINE
  5
60
  8
TEAM-BODY
 10
-107.474889
 20
-245.381145
 30
0.0
 11
-107.474889
 21
-266.076648
 31
0.0
  0
LINE
  5
61
  8
TEAM-BODY
 10
107.525111
 20
-266.076648
 30
0.0
 11
107.525111
 21
-245.381145
 31
0.0
  0
ARC
  5
62
  8
TEAM-BODY
 10
-100.474889
 20
-245.381145
 30
0.0
 40
7.0
 50
180.0
 51
270.0
  0
ARC
  5
63
  8
TEAM-BODY
 10
100.525111
 20
-245.381145
 30
0.0
 40
7.0
 50
270.0
 51
0.0
  0
ARC
  5
64
  8
TEAM-BODY
 10
-100.474889
 20
-266.076648
 30
0.0
 40
7.0
 50
180.0
 51
270.0
  0
ARC
  5
65
  8
TEAM-BODY
 10
100.525111
 20
-266.076648
 30
0.0
 40
7.0
 50
270.0
 51
0.0
  0
LINE
  5
66
  8
TEAM-BODY
 10
100.525111
 20
-252.381145
 30
0.0
 11
-100.474889
 21
-252.381145
 31
0.0
  0
LINE
  5
67
  8
TEAM-BODY
 10
100.525111
 20
-273.076648
 30
0.0
 11
-100.474889
 21
-273.076648
 31
0.0
  0
LINE
  5
68
  8
TEAM-BODY
 10
107.578392
 20
-43.075145
 30
0.0
 11
-107.421608
 21
-43.075145
 31
0.0
  0
ARC
  5
69
  8
TEAM-BODY
 10
-100.5
 20
-31.063197
 30
0.0
 40
7.0
 50
90.0
 51
180.0
  0
ARC
  5
6A
  8
TEAM-BODY
 10
100.5
 20
-31.063197
 30
0.0
 40
7.0
 50
0.0
 51
90.0
  0
LINE
  5
6B
  8
TEAM-BODY
 10
100.5
 20
-24.063197
 30
0.0
 11
-100.5
 21
-24.063197
 31
0.0
  0
LINE
  5
6C
  8
TEAM-BODY
 10
-107.5
 20
-31.063197
 30
0.0
 11
-107.5
 21
-245.573936
 31
0.0
  0
LINE
  5
6D
  8
TEAM-BODY
 10
107.5
 20
-31.063197
 30
0.0
 11
107.5
 21
-245.573936
 31
0.0
  0
TEXT
  5
6E
  8
TEAM-TXT
 10
-144.687736
 20
-231.394811
 30
0.0
 40
30.0
  1
team 347135
 41
0.8
 51
15.0
  7
TEAM
  0
ENDSEC
  0
EOF
