  0
SECTION
  2
HEADER
  9
$ACADVER
  1
AC1009
  9
$INSBASE
 10
0.0
 20
0.0
 30
0.0
  9
$EXTMIN
 10
-228.980812
 20
-341.024932
 30
0.0
  9
$EXTMAX
 10
156.523637
 20
65.779529
 30
0.0
  9
$LIMMIN
 10
-228.980812
 20
-341.024932
  9
$LIMMAX
 10
156.523637
 20
65.779529
  9
$ORTHOMODE
 70
     0
  9
$REGENMODE
 70
     1
  9
$FILLMODE
 70
     1
  9
$QTEXTMODE
 70
     0
  9
$MIRRTEXT
 70
     0
  9
$DRAGMODE
 70
     2
  9
$LTSCALE
 40
25.0
  9
$OSMODE
 70
     0
  9
$ATTMODE
 70
     1
  9
$TEXTSIZE
 40
200.0
  9
$TRACEWID
 40
1.0
  9
$TEXTSTYLE
  7
STANDARD
  9
$CLAYER
  8
0
  9
$CELTYPE
  6
BYLAYER
  9
$CECOLOR
 62
   256
  9
$DIMSCALE
 40
0.0
  9
$DIMASZ
 40
20.0
  9
$DIMEXO
 40
10.0
  9
$DIMDLI
 40
1.0
  9
$DIMRND
 40
0.0
  9
$DIMDLE
 40
0.0
  9
$DIMEXE
 40
1.0
  9
$DIMTP
 40
0.0
  9
$DIMTM
 40
0.0
  9
$DIMTXT
 40
35.0
  9
$DIMCEN
 40
1.0
  9
$DIMTSZ
 40
0.0
  9
$DIMTOL
 70
     0
  9
$DIMLIM
 70
     0
  9
$DIMTIH
 70
     0
  9
$DIMTOH
 70
     0
  9
$DIMSE1
 70
     0
  9
$DIMSE2
 70
     0
  9
$DIMTAD
 70
     0
  9
$DIMZIN
 70
     0
  9
$DIMBLK
  1

  9
$DIMASO
 70
     1
  9
$DIMSHO
 70
     0
  9
$DIMPOST
  1

  9
$DIMAPOST
  1

  9
$DIMALT
 70
     0
  9
$DIMALTD
 70
     2
  9
$DIMALTF
 40
25.4
  9
$DIMLFAC
 40
1.0
  9
$DIMTOFL
 70
     0
  9
$DIMTVP
 40
0.0
  9
$DIMTIX
 70
     0
  9
$DIMSOXD
 70
     0
  9
$DIMSAH
 70
     0
  9
$DIMBLK1
  1

  9
$DIMBLK2
  1

  9
$DIMSTYLE
  2
TEAM
  9
$DIMCLRD
 70
     9
  9
$DIMCLRE
 70
     9
  9
$DIMCLRT
 70
    11
  9
$DIMTFAC
 40
1.0
  9
$DIMGAP
 40
15.0
  9
$LUNITS
 70
     2
  9
$LUPREC
 70
     1
  9
$SKETCHINC
 40
1.0
  9
$FILLETRAD
 40
50.0
  9
$AUNITS
 70
     0
  9
$AUPREC
 70
     0
  9
$MENU
  1
ROPLANS
  9
$ELEVATION
 40
0.0
  9
$PELEVATION
 40
0.0
  9
$THICKNESS
 40
0.0
  9
$LIMCHECK
 70
     0
  9
$BLIPMODE
 70
     1
  9
$CHAMFERA
 40
0.0
  9
$CHAMFERB
 40
0.0
  9
$SKPOLY
 70
     0
  9
$TDCREATE
 40
2450392.957851
  9
$TDUPDATE
 40
2455526.943597
  9
$TDINDWG
 40
1.970577
  9
$TDUSRTIMER
 40
1.970577
  9
$USRTIMER
 70
     1
  9
$ANGBASE
 50
0.0
  9
$ANGDIR
 70
     0
  9
$PDMODE
 70
     0
  9
$PDSIZE
 40
0.0
  9
$PLINEWID
 40
0.0
  9
$COORDS
 70
     2
  9
$SPLFRAME
 70
     0
  9
$SPLINETYPE
 70
     6
  9
$SPLINESEGS
 70
     8
  9
$ATTDIA
 70
     0
  9
$ATTREQ
 70
     0
  9
$HANDLING
 70
     1
  9
$HANDSEED
  5
335
  9
$SURFTAB1
 70
    24
  9
$SURFTAB2
 70
    24
  9
$SURFTYPE
 70
     6
  9
$SURFU
 70
     6
  9
$SURFV
 70
     6
  9
$UCSNAME
  2

  9
$UCSORG
 10
0.0
 20
0.0
 30
0.0
  9
$UCSXDIR
 10
1.0
 20
0.0
 30
0.0
  9
$UCSYDIR
 10
0.0
 20
1.0
 30
0.0
  9
$PUCSNAME
  2

  9
$PUCSORG
 10
0.0
 20
0.0
 30
0.0
  9
$PUCSXDIR
 10
1.0
 20
0.0
 30
0.0
  9
$PUCSYDIR
 10
0.0
 20
1.0
 30
0.0
  9
$USERI1
 70
     0
  9
$USERI2
 70
     0
  9
$USERI3
 70
     0
  9
$USERI4
 70
     0
  9
$USERI5
 70
     0
  9
$USERR1
 40
0.0
  9
$USERR2
 40
0.0
  9
$USERR3
 40
0.0
  9
$USERR4
 40
0.0
  9
$USERR5
 40
0.0
  9
$WORLDVIEW
 70
     1
  9
$SHADEDGE
 70
     0
  9
$SHADEDIF
 70
    70
  9
$TILEMODE
 70
     1
  9
$MAXACTVP
 70
    16
  9
$PLIMCHECK
 70
     0
  9
$PEXTMIN
 10
-0.805942
 20
0.005011
 30
0.0
  9
$PEXTMAX
 10
20.392854
 20
13.725274
 30
0.0
  9
$PLIMMIN
 10
0.0
 20
0.0
  9
$PLIMMAX
 10
12.0
 20
9.0
  9
$UNITMODE
 70
     0
  9
$VISRETAIN
 70
     0
  9
$PLINEGEN
 70
     0
  9
$PSLTSCALE
 70
     0
  0
ENDSEC
  0
SECTION
  2
TABLES
  0
TABLE
  2
VPORT
 70
     2
  0
VPORT
  2
*ACTIVE
 70
     0
 10
0.0
 20
0.0
 11
1.0
 21
1.0
 12
-36.228588
 22
-137.622702
 13
0.0
 23
0.0
 14
1.0
 24
1.0
 15
50.0
 25
50.0
 16
0.0
 26
0.0
 36
1.0
 17
0.0
 27
0.0
 37
0.0
 40
409.302748
 41
1.865779
 42
50.0
 43
0.0
 44
0.0
 50
0.0
 51
0.0
 71
     0
 72
   100
 73
     1
 74
     1
 75
     0
 76
     0
 77
     0
 78
     0
  0
ENDTAB
  0
TABLE
  2
LTYPE
 70
     2
  0
LTYPE
  2
CONTINUOUS
 70
     0
  3
Solid Line
 72
    65
 73
     0
 40
0.0
  0
LTYPE
  2
31
 70
     0
  3

 72
    65
 73
     4
 40
2.1
 49
1.5
 49
-0.3
 49
0.0
 49
-0.3
  0
ENDTAB
  0
TABLE
  2
LAYER
 70
     7
  0
LAYER
  2
0
 70
     0
 62
     7
  6
CONTINUOUS
  0
LAYER
  2
DEFPOINTS
 70
     0
 62
     7
  6
CONTINUOUS
  0
LAYER
  2
TEAM-BODY
 70
     0
 62
     2
  6
CONTINUOUS
  0
LAYER
  2
TEAM-AXE
 70
     0
 62
    10
  6
31
  0
LAYER
  2
TEAM-MAS
 70
     0
 62
     9
  6
CONTINUOUS
  0
LAYER
  2
TEAM-TXT
 70
     0
 62
    11
  6
CONTINUOUS
  0
LAYER
  2
TEAM-INSP
 70
     0
 62
     5
  6
CONTINUOUS
  0
ENDTAB
  0
TABLE
  2
STYLE
 70
     2
  0
STYLE
  2
STANDARD
 70
     0
 40
0.0
 41
1.0
 50
0.0
 71
     0
 42
200.0
  3
txt
  4

  0
STYLE
  2
TEAM
 70
     0
 40
0.0
 41
0.8
 50
15.0
 71
     0
 42
7.0
  3
ROMANS.shx
  4

  0
ENDTAB
  0
TABLE
  2
VIEW
 70
     0
  0
ENDTAB
  0
TABLE
  2
UCS
 70
     0
  0
ENDTAB
  0
TABLE
  2
APPID
 70
     1
  0
APPID
  2
ACAD
 70
     0
  0
ENDTAB
  0
TABLE
  2
DIMSTYLE
 70
     1
  0
DIMSTYLE
  2
TEAM
 70
     0
  3

  4

  5

  6

  7

 40
0.0
 41
20.0
 42
10.0
 43
1.0
 44
1.0
 45
0.0
 46
0.0
 47
0.0
 48
0.0
140
35.0
141
1.0
142
0.0
143
25.4
144
1.0
145
0.0
146
1.0
147
15.0
 71
     0
 72
     0
 73
     0
 74
     0
 75
     0
 76
     0
 77
     0
 78
     0
170
     0
171
     2
172
     0
173
     0
174
     0
175
     0
176
     9
177
     9
178
    11
  0
ENDTAB
  0
ENDSEC
  0
SECTION
  2
BLOCKS
  0
BLOCK
  8
0
  2
$MODEL_SPACE
 70
     0
 10
0.0
 20
0.0
 30
0.0
  3
$MODEL_SPACE
  1

  0
ENDBLK
  5
2AE
  8
0
  0
BLOCK
 67
     1
  8
0
  2
$PAPER_SPACE
 70
     0
 10
0.0
 20
0.0
 30
0.0
  3
$PAPER_SPACE
  1

  0
ENDBLK
  5
2AC
 67
     1
  8
0
  0
BLOCK
  8
0
  2
*D0
 70
     1
 10
0.0
 20
0.0
 30
0.0
  3
*D0
  1

  0
LINE
  5
42
  8
0
  6
BYBLOCK
 62
     9
 10
3833.5
 20
328000.0
 30
0.0
 11
3785.770115
 21
328000.0
 31
0.0
  0
LINE
  5
43
  8
0
  6
BYBLOCK
 62
     9
 10
3990.0
 20
327659.0
 30
0.0
 11
3785.770115
 21
327659.0
 31
0.0
  0
LINE
  5
44
  8
0
  6
BYBLOCK
 62
     9
 10
3786.770115
 20
327980.0
 30
0.0
 11
3786.770115
 21
327885.333333
 31
0.0
  0
LINE
  5
45
  8
0
  6
BYBLOCK
 62
     9
 10
3786.770115
 20
327679.0
 30
0.0
 11
3786.770115
 21
327773.666667
 31
0.0
  0
SOLID
  5
46
  8
0
  6
BYBLOCK
 62
     9
 10
3783.436782
 20
327980.0
 30
0.0
 11
3790.103449
 21
327980.0
 31
0.0
 12
3786.770115
 22
328000.0
 32
0.0
 13
3786.770115
 23
328000.0
 33
0.0
  0
SOLID
  5
47
  8
0
  6
BYBLOCK
 62
     9
 10
3783.436782
 20
327679.0
 30
0.0
 11
3790.103449
 21
327679.0
 31
0.0
 12
3786.770115
 22
327659.0
 32
0.0
 13
3786.770115
 23
327659.0
 33
0.0
  0
TEXT
  5
48
  8
0
  6
BYBLOCK
 62
    11
 10
3804.270115
 20
327788.666667
 30
0.0
 40
35.0
  1
341
 50
90.0
  0
POINT
  5
49
  8
DEFPOINTS
  6
BYBLOCK
 62
     0
 10
3843.5
 20
328000.0
 30
0.0
  0
POINT
  5
4A
  8
DEFPOINTS
  6
BYBLOCK
 62
     0
 10
4000.0
 20
327659.0
 30
0.0
  0
POINT
  5
4B
  8
DEFPOINTS
  6
BYBLOCK
 62
     0
 10
3786.770115
 20
327659.0
 30
0.0
  0
ENDBLK
  5
4D
  8
0
  0
BLOCK
  8
0
  2
*D1
 70
     1
 10
0.0
 20
0.0
 30
0.0
  3
*D1
  1

  0
LINE
  5
33
  8
0
  6
BYBLOCK
 62
     9
 10
3843.5
 20
328010.0
 30
0.0
 11
3843.5
 21
328051.0
 31
0.0
  0
LINE
  5
34
  8
0
  6
BYBLOCK
 62
     9
 10
4156.5
 20
328010.0
 30
0.0
 11
4156.5
 21
328051.0
 31
0.0
  0
LINE
  5
35
  8
0
  6
BYBLOCK
 62
     9
 10
3863.5
 20
328050.0
 30
0.0
 11
3944.166667
 21
328050.0
 31
0.0
  0
LINE
  5
36
  8
0
  6
BYBLOCK
 62
     9
 10
4136.5
 20
328050.0
 30
0.0
 11
4055.833333
 21
328050.0
 31
0.0
  0
SOLID
  5
37
  8
0
  6
BYBLOCK
 62
     9
 10
3863.5
 20
328053.333333
 30
0.0
 11
3863.5
 21
328046.666667
 31
0.0
 12
3843.5
 22
328050.0
 32
0.0
 13
3843.5
 23
328050.0
 33
0.0
  0
SOLID
  5
38
  8
0
  6
BYBLOCK
 62
     9
 10
4136.5
 20
328053.333333
 30
0.0
 11
4136.5
 21
328046.666667
 31
0.0
 12
4156.5
 22
328050.0
 32
0.0
 13
4156.5
 23
328050.0
 33
0.0
  0
TEXT
  5
39
  8
0
  6
BYBLOCK
 62
    11
 10
3959.166667
 20
328032.5
 30
0.0
 40
35.0
  1
313
  0
POINT
  5
3A
  8
DEFPOINTS
  6
BYBLOCK
 62
     0
 10
3843.5
 20
328000.0
 30
0.0
  0
POINT
  5
3C
  8
DEFPOINTS
  6
BYBLOCK
 62
     0
 10
4156.5
 20
328000.0
 30
0.0
  0
POINT
  5
3D
  8
DEFPOINTS
  6
BYBLOCK
 62
     0
 10
4156.5
 20
328050.0
 30
0.0
  0
ENDBLK
  5
3F
  8
0
  0
ENDSEC
  0
SECTION
  2
ENTITIES
  0
LINE
  5
1F
  8
TEAM-BODY
 10
0.013174
 20
-262.100238
 30
0.0
 11
0.013174
 21
-310.881912
 31
0.0
  0
LINE
  5
21
  8
TEAM-BODY
 10
0.001419
 20
-88.587321
 30
0.0
 11
0.013174
 21
-184.465234
 31
0.0
  0
CIRCLE
  5
22
  8
TEAM-BODY
 10
0.013174
 20
-223.282736
 30
0.0
 40
38.817502
  0
ARC
  5
23
  8
TEAM-BODY
 10
0.0
 20
-69.749046
 30
0.0
 40
18.838275
 50
183.087146
 51
356.921485
  0
LINE
  5
24
  8
TEAM-AXE
 10
0.0
 20
0.0
 30
0.0
 11
0.0
 21
-341.0
 31
0.0
  0
CIRCLE
  5
27
  8
TEAM-INSP
 10
0.0
 20
0.0
 30
0.0
 40
10.0
  0
POLYLINE
  5
29
  8
TEAM-BODY
 66
     1
 10
0.0
 20
0.0
 30
0.0
 70
   128
210
0.0
220
0.0
230
-1.0
  0
VERTEX
  5
2B4
  8
TEAM-BODY
 10
156.438152
 20
-203.973274
 30
0.0
  0
VERTEX
  5
2B5
  8
TEAM-BODY
 10
155.581095
 20
-189.650081
 30
0.0
  0
VERTEX
  5
2B6
  8
TEAM-BODY
 10
153.019315
 20
-175.483816
 30
0.0
  0
VERTEX
  5
2B7
  8
TEAM-BODY
 10
148.780879
 20
-161.629687
 30
0.0
  0
VERTEX
  5
2B8
  8
TEAM-BODY
 10
142.912224
 20
-148.239483
 30
0.0
  0
VERTEX
  5
2B9
  8
TEAM-BODY
 10
135.477648
 20
-135.459911
 30
0.0
  0
VERTEX
  5
2BA
  8
TEAM-BODY
 10
126.558607
 20
-123.430985
 30
0.0
  0
VERTEX
  5
2BB
  8
TEAM-BODY
 10
116.252819
 20
-112.284497
 30
0.0
  0
VERTEX
  5
2BC
  8
TEAM-BODY
 10
104.673196
 20
-102.142571
 30
0.0
  0
VERTEX
  5
2BD
  8
TEAM-BODY
 10
91.946608
 20
-93.116324
 30
0.0
  0
VERTEX
  5
2BE
  8
TEAM-BODY
 10
78.212489
 20
-85.304648
 30
0.0
  0
VERTEX
  5
2BF
  8
TEAM-BODY
 10
63.621313
 20
-78.793131
 30
0.0
  0
VERTEX
  5
2C0
  8
TEAM-BODY
 10
48.332945
 20
-73.653113
 30
0.0
  0
VERTEX
  5
2C1
  8
TEAM-BODY
 10
32.514886
 20
-69.94091
 30
0.0
  0
VERTEX
  5
2C2
  8
TEAM-BODY
 10
16.340443
 20
-67.697194
 30
0.0
  0
VERTEX
  5
2C3
  8
TEAM-BODY
 10
-0.013174
 20
-66.946548
 30
0.0
  0
VERTEX
  5
2C4
  8
TEAM-BODY
 10
-16.36679
 20
-67.697194
 30
0.0
  0
VERTEX
  5
2C5
  8
TEAM-BODY
 10
-32.541233
 20
-69.94091
 30
0.0
  0
VERTEX
  5
2C6
  8
TEAM-BODY
 10
-48.359292
 20
-73.653113
 30
0.0
  0
VERTEX
  5
2C7
  8
TEAM-BODY
 10
-63.647661
 20
-78.793131
 30
0.0
  0
VERTEX
  5
2C8
  8
TEAM-BODY
 10
-78.238836
 20
-85.304648
 30
0.0
  0
VERTEX
  5
2C9
  8
TEAM-BODY
 10
-91.972956
 20
-93.116324
 30
0.0
  0
VERTEX
  5
2CA
  8
TEAM-BODY
 10
-104.699544
 20
-102.142571
 30
0.0
  0
VERTEX
  5
2CB
  8
TEAM-BODY
 10
-116.279167
 20
-112.284497
 30
0.0
  0
VERTEX
  5
2CC
  8
TEAM-BODY
 10
-126.584955
 20
-123.430985
 30
0.0
  0
VERTEX
  5
2CD
  8
TEAM-BODY
 10
-135.503996
 20
-135.459911
 30
0.0
  0
VERTEX
  5
2CE
  8
TEAM-BODY
 10
-142.938571
 20
-148.239483
 30
0.0
  0
VERTEX
  5
2CF
  8
TEAM-BODY
 10
-148.807226
 20
-161.629687
 30
0.0
  0
VERTEX
  5
2D0
  8
TEAM-BODY
 10
-153.045662
 20
-175.483816
 30
0.0
  0
VERTEX
  5
2D1
  8
TEAM-BODY
 10
-155.607442
 20
-189.650081
 30
0.0
  0
VERTEX
  5
2D2
  8
TEAM-BODY
 10
-156.464499
 20
-203.973274
 30
0.0
  0
SEQEND
  5
2D3
  8
TEAM-BODY
  0
POLYLINE
  5
2A
  8
TEAM-BODY
 66
     1
 10
0.0
 20
0.0
 30
0.0
 70
   128
  0
VERTEX
  5
2D4
  8
TEAM-BODY
 10
-156.438152
 20
-203.973274
 30
0.0
  0
VERTEX
  5
2D5
  8
TEAM-BODY
 10
-155.581095
 20
-218.296467
 30
0.0
  0
VERTEX
  5
2D6
  8
TEAM-BODY
 10
-153.019315
 20
-232.462733
 30
0.0
  0
VERTEX
  5
2D7
  8
TEAM-BODY
 10
-148.780879
 20
-246.316861
 30
0.0
  0
VERTEX
  5
2D8
  8
TEAM-BODY
 10
-142.912224
 20
-259.707065
 30
0.0
  0
VERTEX
  5
2D9
  8
TEAM-BODY
 10
-135.477648
 20
-272.486637
 30
0.0
  0
VERTEX
  5
2DA
  8
TEAM-BODY
 10
-126.558607
 20
-284.515563
 30
0.0
  0
VERTEX
  5
2DB
  8
TEAM-BODY
 10
-116.252819
 20
-295.662051
 30
0.0
  0
VERTEX
  5
2DC
  8
TEAM-BODY
 10
-104.673196
 20
-305.803977
 30
0.0
  0
VERTEX
  5
2DD
  8
TEAM-BODY
 10
-91.946608
 20
-314.830225
 30
0.0
  0
VERTEX
  5
2DE
  8
TEAM-BODY
 10
-78.212489
 20
-322.6419
 30
0.0
  0
VERTEX
  5
2DF
  8
TEAM-BODY
 10
-63.621313
 20
-329.153418
 30
0.0
  0
VERTEX
  5
2E0
  8
TEAM-BODY
 10
-48.332945
 20
-334.293435
 30
0.0
  0
VERTEX
  5
2E1
  8
TEAM-BODY
 10
-32.514886
 20
-338.005638
 30
0.0
  0
VERTEX
  5
2E2
  8
TEAM-BODY
 10
-16.340443
 20
-340.249354
 30
0.0
  0
VERTEX
  5
2E3
  8
TEAM-BODY
 10
0.013174
 20
-341.000001
 30
0.0
  0
VERTEX
  5
2E4
  8
TEAM-BODY
 10
16.36679
 20
-340.249354
 30
0.0
  0
VERTEX
  5
2E5
  8
TEAM-BODY
 10
32.541233
 20
-338.005638
 30
0.0
  0
VERTEX
  5
2E6
  8
TEAM-BODY
 10
48.359292
 20
-334.293435
 30
0.0
  0
VERTEX
  5
2E7
  8
TEAM-BODY
 10
63.647661
 20
-329.153418
 30
0.0
  0
VERTEX
  5
2E8
  8
TEAM-BODY
 10
78.238836
 20
-322.6419
 30
0.0
  0
VERTEX
  5
2E9
  8
TEAM-BODY
 10
91.972956
 20
-314.830225
 30
0.0
  0
VERTEX
  5
2EA
  8
TEAM-BODY
 10
104.699544
 20
-305.803977
 30
0.0
  0
VERTEX
  5
2EB
  8
TEAM-BODY
 10
116.279167
 20
-295.662051
 30
0.0
  0
VERTEX
  5
2EC
  8
TEAM-BODY
 10
126.584955
 20
-284.515563
 30
0.0
  0
VERTEX
  5
2ED
  8
TEAM-BODY
 10
135.503996
 20
-272.486637
 30
0.0
  0
VERTEX
  5
2EE
  8
TEAM-BODY
 10
142.938571
 20
-259.707065
 30
0.0
  0
VERTEX
  5
2EF
  8
TEAM-BODY
 10
148.807226
 20
-246.316861
 30
0.0
  0
VERTEX
  5
2F0
  8
TEAM-BODY
 10
153.045662
 20
-232.462733
 30
0.0
  0
VERTEX
  5
2F1
  8
TEAM-BODY
 10
155.607442
 20
-218.296467
 30
0.0
  0
VERTEX
  5
2F2
  8
TEAM-BODY
 10
156.464499
 20
-203.973274
 30
0.0
  0
SEQEND
  5
2F3
  8
TEAM-BODY
  0
POLYLINE
  5
2B
  8
TEAM-BODY
 66
     1
 10
0.0
 20
0.0
 30
0.0
  0
VERTEX
  5
2F4
  8
TEAM-BODY
 10
-156.438152
 20
-203.973274
 30
0.0
 42
0.000401
  0
VERTEX
  5
2F5
  8
TEAM-BODY
 10
-156.5
 20
0.0
 30
0.0
  0
VERTEX
  5
2F6
  8
TEAM-BODY
 10
156.5
 20
0.0
 30
0.0
 42
0.00023
  0
VERTEX
  5
2F7
  8
TEAM-BODY
 10
156.464499
 20
-203.973274
 30
0.0
  0
SEQEND
  5
2F8
  8
TEAM-BODY
  0
TEXT
  5
2C
  8
TEAM-TXT
 10
-141.692077
 20
-171.476835
 30
0.0
 40
30.0
  1
team 347263
 41
0.8
 51
15.0
  7
TEAM
  0
POLYLINE
  5
2F
  8
TEAM-BODY
 66
     1
 10
0.0
 20
0.0
 30
0.0
 70
   129
  0
VERTEX
  5
2F9
  8
TEAM-BODY
 10
-145.397183
 20
-190.315479
 30
0.0
  0
VERTEX
  5
2FA
  8
TEAM-BODY
 10
-144.544781
 20
-203.351003
 30
0.0
  0
VERTEX
  5
2FB
  8
TEAM-BODY
 10
-141.99757
 20
-216.233698
 30
0.0
  0
VERTEX
  5
2FC
  8
TEAM-BODY
 10
-137.785412
 20
-228.812525
 30
0.0
  0
VERTEX
  5
2FD
  8
TEAM-BODY
 10
-131.957692
 20
-240.94001
 30
0.0
  0
VERTEX
  5
2FE
  8
TEAM-BODY
 10
-124.582734
 20
-252.473968
 30
0.0
  0
VERTEX
  5
2FF
  8
TEAM-BODY
 10
-115.747003
 20
-263.279175
 30
0.0
  0
VERTEX
  5
300
  8
TEAM-BODY
 10
-105.55409
 20
-273.228949
 30
0.0
  0
VERTEX
  5
301
  8
TEAM-BODY
 10
-94.123497
 20
-282.206639
 30
0.0
  0
VERTEX
  5
302
  8
TEAM-BODY
 10
-81.589238
 20
-290.106989
 30
0.0
  0
VERTEX
  5
303
  8
TEAM-BODY
 10
-68.098265
 20
-296.837374
 30
0.0
  0
VERTEX
  5
304
  8
TEAM-BODY
 10
-53.808748
 20
-302.318888
 30
0.0
  0
VERTEX
  5
305
  8
TEAM-BODY
 10
-38.888217
 20
-306.487264
 30
0.0
  0
VERTEX
  5
306
  8
TEAM-BODY
 10
-23.511604
 20
-309.293632
 30
0.0
  0
VERTEX
  5
307
  8
TEAM-BODY
 10
-7.859184
 20
-310.705091
 30
0.0
  0
VERTEX
  5
308
  8
TEAM-BODY
 10
7.885532
 20
-310.705091
 30
0.0
  0
VERTEX
  5
309
  8
TEAM-BODY
 10
23.537952
 20
-309.293632
 30
0.0
  0
VERTEX
  5
30A
  8
TEAM-BODY
 10
38.914565
 20
-306.487264
 30
0.0
  0
VERTEX
  5
30B
  8
TEAM-BODY
 10
53.835095
 20
-302.318888
 30
0.0
  0
VERTEX
  5
30C
  8
TEAM-BODY
 10
68.124612
 20
-296.837374
 30
0.0
  0
VERTEX
  5
30D
  8
TEAM-BODY
 10
81.615585
 20
-290.106989
 30
0.0
  0
VERTEX
  5
30E
  8
TEAM-BODY
 10
94.149844
 20
-282.206639
 30
0.0
  0
VERTEX
  5
30F
  8
TEAM-BODY
 10
105.580437
 20
-273.228949
 30
0.0
  0
VERTEX
  5
310
  8
TEAM-BODY
 10
115.773351
 20
-263.279175
 30
0.0
  0
VERTEX
  5
311
  8
TEAM-BODY
 10
124.609082
 20
-252.473968
 30
0.0
  0
VERTEX
  5
312
  8
TEAM-BODY
 10
131.984039
 20
-240.94001
 30
0.0
  0
VERTEX
  5
313
  8
TEAM-BODY
 10
137.81176
 20
-228.812525
 30
0.0
  0
VERTEX
  5
314
  8
TEAM-BODY
 10
142.023917
 20
-216.233698
 30
0.0
  0
VERTEX
  5
315
  8
TEAM-BODY
 10
144.571129
 20
-203.351003
 30
0.0
  0
VERTEX
  5
316
  8
TEAM-BODY
 10
145.423531
 20
-190.315479
 30
0.0
  0
VERTEX
  5
317
  8
TEAM-BODY
 10
144.571129
 20
-177.279954
 30
0.0
  0
VERTEX
  5
318
  8
TEAM-BODY
 10
142.023917
 20
-164.397259
 30
0.0
  0
VERTEX
  5
319
  8
TEAM-BODY
 10
137.81176
 20
-151.818432
 30
0.0
  0
VERTEX
  5
31A
  8
TEAM-BODY
 10
131.984039
 20
-139.690947
 30
0.0
  0
VERTEX
  5
31B
  8
TEAM-BODY
 10
124.609082
 20
-128.156989
 30
0.0
  0
VERTEX
  5
31C
  8
TEAM-BODY
 10
115.773351
 20
-117.351782
 30
0.0
  0
VERTEX
  5
31D
  8
TEAM-BODY
 10
105.580437
 20
-107.402008
 30
0.0
  0
VERTEX
  5
31E
  8
TEAM-BODY
 10
94.149844
 20
-98.424318
 30
0.0
  0
VERTEX
  5
31F
  8
TEAM-BODY
 10
81.615585
 20
-90.523968
 30
0.0
  0
VERTEX
  5
320
  8
TEAM-BODY
 10
68.124612
 20
-83.793583
 30
0.0
  0
VERTEX
  5
321
  8
TEAM-BODY
 10
53.835095
 20
-78.312069
 30
0.0
  0
VERTEX
  5
322
  8
TEAM-BODY
 10
38.914565
 20
-74.143693
 30
0.0
  0
VERTEX
  5
323
  8
TEAM-BODY
 10
23.537952
 20
-71.337325
 30
0.0
  0
VERTEX
  5
324
  8
TEAM-BODY
 10
7.885532
 20
-69.925867
 30
0.0
  0
VERTEX
  5
325
  8
TEAM-BODY
 10
-7.859184
 20
-69.925867
 30
0.0
  0
VERTEX
  5
326
  8
TEAM-BODY
 10
-23.511604
 20
-71.337325
 30
0.0
  0
VERTEX
  5
327
  8
TEAM-BODY
 10
-38.888217
 20
-74.143693
 30
0.0
  0
VERTEX
  5
328
  8
TEAM-BODY
 10
-53.808748
 20
-78.312069
 30
0.0
  0
VERTEX
  5
329
  8
TEAM-BODY
 10
-68.098265
 20
-83.793583
 30
0.0
  0
VERTEX
  5
32A
  8
TEAM-BODY
 10
-81.589238
 20
-90.523968
 30
0.0
  0
VERTEX
  5
32B
  8
TEAM-BODY
 10
-94.123497
 20
-98.424318
 30
0.0
  0
VERTEX
  5
32C
  8
TEAM-BODY
 10
-105.55409
 20
-107.402008
 30
0.0
  0
VERTEX
  5
32D
  8
TEAM-BODY
 10
-115.747003
 20
-117.351782
 30
0.0
  0
VERTEX
  5
32E
  8
TEAM-BODY
 10
-124.582734
 20
-128.156989
 30
0.0
  0
VERTEX
  5
32F
  8
TEAM-BODY
 10
-131.957692
 20
-139.690947
 30
0.0
  0
VERTEX
  5
330
  8
TEAM-BODY
 10
-137.785412
 20
-151.818432
 30
0.0
  0
VERTEX
  5
331
  8
TEAM-BODY
 10
-141.99757
 20
-164.397259
 30
0.0
  0
VERTEX
  5
332
  8
TEAM-BODY
 10
-144.544781
 20
-177.279954
 30
0.0
  0
SEQEND
  5
333
  8
TEAM-BODY
  0
DIMENSION
  5
30
  8
TEAM-MAS
  2
*D1
 10
156.5
 20
50.0
 30
0.0
 11
0.0
 21
50.0
 31
0.0
 12
-4000.0
 22
-328000.0
 32
0.0
 13
-156.5
 23
0.0
 33
0.0
 14
156.5
 24
0.0
 34
0.0
  0
DIMENSION
  5
40
  8
TEAM-MAS
  2
*D0
 10
-213.229885
 20
-341.0
 30
0.0
 11
-213.229885
 21
-170.5
 31
0.0
 12
-4000.0
 22
-328000.0
 32
0.0
 13
-156.5
 23
0.0
 33
0.0
 14
0.0
 24
-341.0
 34
0.0
 50
90.0
  0
ENDSEC
  0
EOF
