  0
SECTION
  2
HEADER
  9
$ACADVER
  1
AC1009
  9
$INSBASE
 10
0.0
 20
0.0
 30
0.0
  9
$EXTMIN
 10
-243.922023
 20
-10.071102
 30
0.0
  9
$EXTMAX
 10
218.191142
 20
1153.277525
 30
0.0
  9
$LIMMIN
 10
-243.922023
 20
-10.071102
  9
$LIMMAX
 10
218.191142
 20
1153.277525
  9
$ORTHOMODE
 70
     0
  9
$REGENMODE
 70
     1
  9
$FILLMODE
 70
     1
  9
$QTEXTMODE
 70
     0
  9
$MIRRTEXT
 70
     0
  9
$DRAGMODE
 70
     2
  9
$LTSCALE
 40
25.0
  9
$OSMODE
 70
     0
  9
$ATTMODE
 70
     1
  9
$TEXTSIZE
 40
200.0
  9
$TRACEWID
 40
1.0
  9
$TEXTSTYLE
  7
STANDARD
  9
$CLAYER
  8
0
  9
$CELTYPE
  6
BYLAYER
  9
$CECOLOR
 62
   256
  9
$DIMSCALE
 40
0.0
  9
$DIMASZ
 40
20.0
  9
$DIMEXO
 40
10.0
  9
$DIMDLI
 40
1.0
  9
$DIMRND
 40
0.0
  9
$DIMDLE
 40
0.0
  9
$DIMEXE
 40
1.0
  9
$DIMTP
 40
0.0
  9
$DIMTM
 40
0.0
  9
$DIMTXT
 40
35.0
  9
$DIMCEN
 40
1.0
  9
$DIMTSZ
 40
0.0
  9
$DIMTOL
 70
     0
  9
$DIMLIM
 70
     0
  9
$DIMTIH
 70
     0
  9
$DIMTOH
 70
     0
  9
$DIMSE1
 70
     0
  9
$DIMSE2
 70
     0
  9
$DIMTAD
 70
     0
  9
$DIMZIN
 70
     0
  9
$DIMBLK
  1

  9
$DIMASO
 70
     1
  9
$DIMSHO
 70
     0
  9
$DIMPOST
  1

  9
$DIMAPOST
  1

  9
$DIMALT
 70
     0
  9
$DIMALTD
 70
     2
  9
$DIMALTF
 40
25.4
  9
$DIMLFAC
 40
1.0
  9
$DIMTOFL
 70
     0
  9
$DIMTVP
 40
0.0
  9
$DIMTIX
 70
     0
  9
$DIMSOXD
 70
     0
  9
$DIMSAH
 70
     0
  9
$DIMBLK1
  1

  9
$DIMBLK2
  1

  9
$DIMSTYLE
  2
TEAM
  9
$DIMCLRD
 70
     9
  9
$DIMCLRE
 70
     9
  9
$DIMCLRT
 70
    11
  9
$DIMTFAC
 40
1.0
  9
$DIMGAP
 40
15.0
  9
$LUNITS
 70
     2
  9
$LUPREC
 70
     1
  9
$SKETCHINC
 40
1.0
  9
$FILLETRAD
 40
50.0
  9
$AUNITS
 70
     0
  9
$AUPREC
 70
     0
  9
$MENU
  1
ROPLANS
  9
$ELEVATION
 40
0.0
  9
$PELEVATION
 40
0.0
  9
$THICKNESS
 40
0.0
  9
$LIMCHECK
 70
     0
  9
$BLIPMODE
 70
     1
  9
$CHAMFERA
 40
0.0
  9
$CHAMFERB
 40
0.0
  9
$SKPOLY
 70
     0
  9
$TDCREATE
 40
2450392.957851
  9
$TDUPDATE
 40
2455526.943597
  9
$TDINDWG
 40
1.970577
  9
$TDUSRTIMER
 40
1.970577
  9
$USRTIMER
 70
     1
  9
$ANGBASE
 50
0.0
  9
$ANGDIR
 70
     0
  9
$PDMODE
 70
     0
  9
$PDSIZE
 40
0.0
  9
$PLINEWID
 40
0.0
  9
$COORDS
 70
     2
  9
$SPLFRAME
 70
     0
  9
$SPLINETYPE
 70
     6
  9
$SPLINESEGS
 70
     8
  9
$ATTDIA
 70
     0
  9
$ATTREQ
 70
     0
  9
$HANDLING
 70
     1
  9
$HANDSEED
  5
287
  9
$SURFTAB1
 70
    24
  9
$SURFTAB2
 70
    24
  9
$SURFTYPE
 70
     6
  9
$SURFU
 70
     6
  9
$SURFV
 70
     6
  9
$UCSNAME
  2

  9
$UCSORG
 10
0.0
 20
0.0
 30
0.0
  9
$UCSXDIR
 10
1.0
 20
0.0
 30
0.0
  9
$UCSYDIR
 10
0.0
 20
1.0
 30
0.0
  9
$PUCSNAME
  2

  9
$PUCSORG
 10
0.0
 20
0.0
 30
0.0
  9
$PUCSXDIR
 10
1.0
 20
0.0
 30
0.0
  9
$PUCSYDIR
 10
0.0
 20
1.0
 30
0.0
  9
$USERI1
 70
     0
  9
$USERI2
 70
     0
  9
$USERI3
 70
     0
  9
$USERI4
 70
     0
  9
$USERI5
 70
     0
  9
$USERR1
 40
0.0
  9
$USERR2
 40
0.0
  9
$USERR3
 40
0.0
  9
$USERR4
 40
0.0
  9
$USERR5
 40
0.0
  9
$WORLDVIEW
 70
     1
  9
$SHADEDGE
 70
     0
  9
$SHADEDIF
 70
    70
  9
$TILEMODE
 70
     1
  9
$MAXACTVP
 70
    16
  9
$PLIMCHECK
 70
     0
  9
$PEXTMIN
 10
-0.805942
 20
0.005011
 30
0.0
  9
$PEXTMAX
 10
20.392854
 20
13.725274
 30
0.0
  9
$PLIMMIN
 10
0.0
 20
0.0
  9
$PLIMMAX
 10
12.0
 20
9.0
  9
$UNITMODE
 70
     0
  9
$VISRETAIN
 70
     0
  9
$PLINEGEN
 70
     0
  9
$PSLTSCALE
 70
     0
  0
ENDSEC
  0
SECTION
  2
TABLES
  0
TABLE
  2
VPORT
 70
     2
  0
VPORT
  2
*ACTIVE
 70
     0
 10
0.0
 20
0.0
 11
1.0
 21
1.0
 12
-12.865441
 22
571.603212
 13
0.0
 23
0.0
 14
1.0
 24
1.0
 15
50.0
 25
50.0
 16
0.0
 26
0.0
 36
1.0
 17
0.0
 27
0.0
 37
0.0
 40
1170.49304
 41
1.865779
 42
50.0
 43
0.0
 44
0.0
 50
0.0
 51
0.0
 71
     0
 72
   100
 73
     1
 74
     1
 75
     0
 76
     0
 77
     0
 78
     0
  0
ENDTAB
  0
TABLE
  2
LTYPE
 70
     3
  0
LTYPE
  2
CONTINUOUS
 70
     0
  3
Solid Line
 72
    65
 73
     0
 40
0.0
  0
LTYPE
  2
31
 70
     0
  3

 72
    65
 73
     4
 40
2.1
 49
1.5
 49
-0.3
 49
0.0
 49
-0.3
  0
LTYPE
  2
22
 70
     0
  3

 72
    65
 73
     2
 40
1.4
 49
1.2
 49
-0.2
  0
ENDTAB
  0
TABLE
  2
LAYER
 70
     9
  0
LAYER
  2
0
 70
     0
 62
     7
  6
CONTINUOUS
  0
LAYER
  2
DEFPOINTS
 70
     0
 62
     7
  6
CONTINUOUS
  0
LAYER
  2
TEAM-BODY
 70
     0
 62
     2
  6
CONTINUOUS
  0
LAYER
  2
TEAM-AXE
 70
     0
 62
    10
  6
31
  0
LAYER
  2
TEAM-MAS
 70
     0
 62
     9
  6
CONTINUOUS
  0
LAYER
  2
TEAM-TXT
 70
     0
 62
    11
  6
CONTINUOUS
  0
LAYER
  2
TEAM-HIDE
 70
     0
 62
     8
  6
22
  0
LAYER
  2
TEAM-KAN
 70
     0
 62
     6
  6
CONTINUOUS
  0
LAYER
  2
TEAM-INSP
 70
     0
 62
     5
  6
CONTINUOUS
  0
ENDTAB
  0
TABLE
  2
STYLE
 70
     2
  0
STYLE
  2
STANDARD
 70
     0
 40
0.0
 41
1.0
 50
0.0
 71
     0
 42
200.0
  3
txt
  4

  0
STYLE
  2
TEAM
 70
     0
 40
0.0
 41
0.8
 50
15.0
 71
     0
 42
7.0
  3
ROMANS.shx
  4

  0
ENDTAB
  0
TABLE
  2
VIEW
 70
     0
  0
ENDTAB
  0
TABLE
  2
UCS
 70
     0
  0
ENDTAB
  0
TABLE
  2
APPID
 70
     1
  0
APPID
  2
ACAD
 70
     0
  0
ENDTAB
  0
TABLE
  2
DIMSTYLE
 70
     1
  0
DIMSTYLE
  2
TEAM
 70
     0
  3

  4

  5

  6

  7

 40
0.0
 41
20.0
 42
10.0
 43
1.0
 44
1.0
 45
0.0
 46
0.0
 47
0.0
 48
0.0
140
35.0
141
1.0
142
0.0
143
25.4
144
1.0
145
0.0
146
1.0
147
15.0
 71
     0
 72
     0
 73
     0
 74
     0
 75
     0
 76
     0
 77
     0
 78
     0
170
     0
171
     2
172
     0
173
     0
174
     0
175
     0
176
     9
177
     9
178
    11
  0
ENDTAB
  0
ENDSEC
  0
SECTION
  2
BLOCKS
  0
BLOCK
  8
0
  2
$MODEL_SPACE
 70
     0
 10
0.0
 20
0.0
 30
0.0
  3
$MODEL_SPACE
  1

  0
ENDBLK
  5
22D
  8
0
  0
BLOCK
 67
     1
  8
0
  2
$PAPER_SPACE
 70
     0
 10
0.0
 20
0.0
 30
0.0
  3
$PAPER_SPACE
  1

  0
ENDBLK
  5
22B
 67
     1
  8
0
  0
BLOCK
  8
0
  2
*D0
 70
     1
 10
0.0
 20
0.0
 30
0.0
  3
*D0
  1

  0
LINE
  5
6B
  8
0
  6
BYBLOCK
 62
     9
 10
11990.0
 20
328284.000864
 30
0.0
 11
11772.606196
 21
328284.000864
 31
0.0
  0
LINE
  5
6C
  8
0
  6
BYBLOCK
 62
     9
 10
11990.0
 20
329015.995806
 30
0.0
 11
11772.606196
 21
329015.995806
 31
0.0
  0
LINE
  5
6D
  8
0
  6
BYBLOCK
 62
     9
 10
11773.606196
 20
328304.000864
 30
0.0
 11
11773.606196
 21
328588.331669
 31
0.0
  0
LINE
  5
6E
  8
0
  6
BYBLOCK
 62
     9
 10
11773.606196
 20
328995.995806
 30
0.0
 11
11773.606196
 21
328711.665002
 31
0.0
  0
SOLID
  5
6F
  8
0
  6
BYBLOCK
 62
     9
 10
11770.272863
 20
328304.000864
 30
0.0
 11
11776.93953
 21
328304.000864
 31
0.0
 12
11773.606196
 22
328284.000864
 32
0.0
 13
11773.606196
 23
328284.000864
 33
0.0
  0
SOLID
  5
70
  8
0
  6
BYBLOCK
 62
     9
 10
11770.272863
 20
328995.995806
 30
0.0
 11
11776.93953
 21
328995.995806
 31
0.0
 12
11773.606196
 22
329015.995806
 32
0.0
 13
11773.606196
 23
329015.995806
 33
0.0
  0
TEXT
  5
71
  8
0
  6
BYBLOCK
 62
    11
 10
11791.106196
 20
328603.331669
 30
0.0
 40
35.0
  1
732
 50
90.0
  0
POINT
  5
72
  8
DEFPOINTS
  6
BYBLOCK
 62
     0
 10
12000.0
 20
328284.000864
 30
0.0
  0
POINT
  5
73
  8
DEFPOINTS
  6
BYBLOCK
 62
     0
 10
12000.0
 20
329015.995806
 30
0.0
  0
POINT
  5
74
  8
DEFPOINTS
  6
BYBLOCK
 62
     0
 10
11773.606196
 20
329015.995806
 30
0.0
  0
ENDBLK
  5
76
  8
0
  0
BLOCK
  8
0
  2
*D1
 70
     1
 10
0.0
 20
0.0
 30
0.0
  3
*D1
  1

  0
LINE
  5
52
  8
0
  6
BYBLOCK
 62
     9
 10
11910.0
 20
329003.995806
 30
0.0
 11
11910.0
 21
329088.763162
 31
0.0
  0
LINE
  5
53
  8
0
  6
BYBLOCK
 62
     9
 10
12090.0
 20
329003.995806
 30
0.0
 11
12090.0
 21
329088.763162
 31
0.0
  0
LINE
  5
54
  8
0
  6
BYBLOCK
 62
     9
 10
11930.0
 20
329087.763162
 30
0.0
 11
11947.083333
 21
329087.763162
 31
0.0
  0
LINE
  5
55
  8
0
  6
BYBLOCK
 62
     9
 10
12070.0
 20
329087.763162
 30
0.0
 11
12052.916667
 21
329087.763162
 31
0.0
  0
TEXT
  5
56
  8
0
  6
BYBLOCK
 62
    11
 10
11962.083333
 20
329070.263162
 30
0.0
 40
35.0
  1
180
  0
SOLID
  5
57
  8
0
  6
BYBLOCK
 62
     9
 10
11930.0
 20
329091.096495
 30
0.0
 11
11930.0
 21
329084.429828
 31
0.0
 12
11910.0
 22
329087.763162
 32
0.0
 13
11910.0
 23
329087.763162
 33
0.0
  0
SOLID
  5
58
  8
0
  6
BYBLOCK
 62
     9
 10
12070.0
 20
329091.096495
 30
0.0
 11
12070.0
 21
329084.429828
 31
0.0
 12
12090.0
 22
329087.763162
 32
0.0
 13
12090.0
 23
329087.763162
 33
0.0
  0
POINT
  5
59
  8
DEFPOINTS
  6
BYBLOCK
 62
     0
 10
11910.0
 20
328993.995806
 30
0.0
  0
POINT
  5
5A
  8
DEFPOINTS
  6
BYBLOCK
 62
     0
 10
12090.0
 20
328993.995806
 30
0.0
  0
POINT
  5
5B
  8
DEFPOINTS
  6
BYBLOCK
 62
     0
 10
12090.0
 20
329087.763162
 30
0.0
  0
ENDBLK
  5
5D
  8
0
  0
BLOCK
  8
0
  2
*D2
 70
     1
 10
0.0
 20
0.0
 30
0.0
  3
*D2
  1

  0
LINE
  5
44
  8
0
  6
BYBLOCK
 62
     9
 10
11843.5
 20
329025.995806
 30
0.0
 11
11843.5
 21
329138.484146
 31
0.0
  0
LINE
  5
45
  8
0
  6
BYBLOCK
 62
     9
 10
12156.5
 20
329025.995806
 30
0.0
 11
12156.5
 21
329138.484146
 31
0.0
  0
LINE
  5
46
  8
0
  6
BYBLOCK
 62
     9
 10
11863.5
 20
329137.484146
 30
0.0
 11
11944.166667
 21
329137.484146
 31
0.0
  0
LINE
  5
47
  8
0
  6
BYBLOCK
 62
     9
 10
12136.5
 20
329137.484146
 30
0.0
 11
12055.833333
 21
329137.484146
 31
0.0
  0
SOLID
  5
48
  8
0
  6
BYBLOCK
 62
     9
 10
11863.5
 20
329140.817479
 30
0.0
 11
11863.5
 21
329134.150813
 31
0.0
 12
11843.5
 22
329137.484146
 32
0.0
 13
11843.5
 23
329137.484146
 33
0.0
  0
SOLID
  5
49
  8
0
  6
BYBLOCK
 62
     9
 10
12136.5
 20
329140.817479
 30
0.0
 11
12136.5
 21
329134.150813
 31
0.0
 12
12156.5
 22
329137.484146
 32
0.0
 13
12156.5
 23
329137.484146
 33
0.0
  0
TEXT
  5
4A
  8
0
  6
BYBLOCK
 62
    11
 10
11959.166667
 20
329119.984146
 30
0.0
 40
35.0
  1
313
  0
POINT
  5
4B
  8
DEFPOINTS
  6
BYBLOCK
 62
     0
 10
11843.5
 20
329015.995806
 30
0.0
  0
POINT
  5
4C
  8
DEFPOINTS
  6
BYBLOCK
 62
     0
 10
12156.5
 20
329015.995806
 30
0.0
  0
POINT
  5
4D
  8
DEFPOINTS
  6
BYBLOCK
 62
     0
 10
12156.5
 20
329137.484146
 30
0.0
  0
ENDBLK
  5
4F
  8
0
  0
BLOCK
  8
0
  2
*D3
 70
     1
 10
0.0
 20
0.0
 30
0.0
  3
*D3
  1

  0
LINE
  5
34
  8
0
  6
BYBLOCK
 62
     9
 10
12125.0
 20
328979.995806
 30
0.0
 11
12201.890626
 21
328979.995806
 31
0.0
  0
LINE
  5
35
  8
0
  6
BYBLOCK
 62
     9
 10
12010.0
 20
329015.995806
 30
0.0
 11
12201.890626
 21
329015.995806
 31
0.0
  0
LINE
  5
36
  8
0
  6
BYBLOCK
 62
     9
 10
12200.890626
 20
328959.995806
 30
0.0
 11
12200.890626
 21
328939.995806
 31
0.0
  0
LINE
  5
37
  8
0
  6
BYBLOCK
 62
     9
 10
12200.890626
 20
329035.995806
 30
0.0
 11
12200.890626
 21
329055.995806
 31
0.0
  0
TEXT
  5
38
  8
0
  6
BYBLOCK
 62
    11
 10
12218.480425
 20
329051.796989
 30
0.0
 40
35.0
  1
36
 50
90.0
  0
LINE
  5
39
  8
0
  6
BYBLOCK
 62
     9
 10
12200.890626
 20
328979.995806
 30
0.0
 11
12200.890626
 21
329015.995806
 31
0.0
  0
SOLID
  5
3A
  8
0
  6
BYBLOCK
 62
     9
 10
12197.557292
 20
328959.995806
 30
0.0
 11
12204.223959
 21
328959.995806
 31
0.0
 12
12200.890626
 22
328979.995806
 32
0.0
 13
12200.890626
 23
328979.995806
 33
0.0
  0
SOLID
  5
3B
  8
0
  6
BYBLOCK
 62
     9
 10
12197.557292
 20
329035.995806
 30
0.0
 11
12204.223959
 21
329035.995806
 31
0.0
 12
12200.890626
 22
329015.995806
 32
0.0
 13
12200.890626
 23
329015.995806
 33
0.0
  0
POINT
  5
3C
  8
DEFPOINTS
  6
BYBLOCK
 62
     0
 10
12115.0
 20
328979.995806
 30
0.0
  0
POINT
  5
3E
  8
DEFPOINTS
  6
BYBLOCK
 62
     0
 10
12000.0
 20
329015.995806
 30
0.0
  0
POINT
  5
3F
  8
DEFPOINTS
  6
BYBLOCK
 62
     0
 10
12200.890626
 20
329015.995806
 30
0.0
  0
ENDBLK
  5
41
  8
0
  0
ENDSEC
  0
SECTION
  2
ENTITIES
  0
TEXT
  5
1F
  8
TEAM-TXT
 10
-116.481846
 20
782.301227
 30
0.0
 40
30.0
  1
team 347263
 41
0.8
 51
15.0
  7
TEAM
  0
POLYLINE
  5
22
  8
TEAM-BODY
 66
     1
 10
0.0
 20
0.0
 30
0.0
 70
   129
  0
VERTEX
  5
233
  8
TEAM-BODY
 10
-145.397183
 20
800.258679
 30
0.0
  0
VERTEX
  5
234
  8
TEAM-BODY
 10
-143.060379
 20
778.730712
 30
0.0
  0
VERTEX
  5
235
  8
TEAM-BODY
 10
-136.125073
 20
757.89467
 30
0.0
  0
VERTEX
  5
236
  8
TEAM-BODY
 10
-124.814172
 20
738.420243
 30
0.0
  0
VERTEX
  5
237
  8
TEAM-BODY
 10
-109.491217
 20
720.933354
 30
0.0
  0
VERTEX
  5
238
  8
TEAM-BODY
 10
-90.648701
 20
705.996046
 30
0.0
  0
VERTEX
  5
239
  8
TEAM-BODY
 10
-68.892238
 20
694.088417
 30
0.0
  0
VERTEX
  5
23A
  8
TEAM-BODY
 10
-44.921098
 20
685.593188
 30
0.0
  0
VERTEX
  5
23B
  8
TEAM-BODY
 10
-19.505733
 20
680.783401
 30
0.0
  0
VERTEX
  5
23C
  8
TEAM-BODY
 10
6.536985
 20
679.813649
 30
0.0
  0
VERTEX
  5
23D
  8
TEAM-BODY
 10
32.370022
 20
682.715099
 30
0.0
  0
VERTEX
  5
23E
  8
TEAM-BODY
 10
57.163084
 20
689.394496
 30
0.0
  0
VERTEX
  5
23F
  8
TEAM-BODY
 10
80.1193
 20
699.637159
 30
0.0
  0
VERTEX
  5
240
  8
TEAM-BODY
 10
100.50084
 20
713.113881
 30
0.0
  0
VERTEX
  5
241
  8
TEAM-BODY
 10
117.652624
 20
729.391508
 30
0.0
  0
VERTEX
  5
242
  8
TEAM-BODY
 10
131.023378
 20
747.946865
 30
0.0
  0
VERTEX
  5
243
  8
TEAM-BODY
 10
140.183357
 20
768.183566
 30
0.0
  0
VERTEX
  5
244
  8
TEAM-BODY
 10
144.838151
 20
789.451188
 30
0.0
  0
VERTEX
  5
245
  8
TEAM-BODY
 10
144.838151
 20
811.066171
 30
0.0
  0
VERTEX
  5
246
  8
TEAM-BODY
 10
140.183357
 20
832.333793
 30
0.0
  0
VERTEX
  5
247
  8
TEAM-BODY
 10
131.023378
 20
852.570494
 30
0.0
  0
VERTEX
  5
248
  8
TEAM-BODY
 10
117.652624
 20
871.125851
 30
0.0
  0
VERTEX
  5
249
  8
TEAM-BODY
 10
100.50084
 20
887.403478
 30
0.0
  0
VERTEX
  5
24A
  8
TEAM-BODY
 10
80.1193
 20
900.8802
 30
0.0
  0
VERTEX
  5
24B
  8
TEAM-BODY
 10
57.163084
 20
911.122863
 30
0.0
  0
VERTEX
  5
24C
  8
TEAM-BODY
 10
32.370022
 20
917.80226
 30
0.0
  0
VERTEX
  5
24D
  8
TEAM-BODY
 10
6.536985
 20
920.70371
 30
0.0
  0
VERTEX
  5
24E
  8
TEAM-BODY
 10
-19.505733
 20
919.733958
 30
0.0
  0
VERTEX
  5
24F
  8
TEAM-BODY
 10
-44.921098
 20
914.924171
 30
0.0
  0
VERTEX
  5
250
  8
TEAM-BODY
 10
-68.892238
 20
906.428942
 30
0.0
  0
VERTEX
  5
251
  8
TEAM-BODY
 10
-90.648701
 20
894.521313
 30
0.0
  0
VERTEX
  5
252
  8
TEAM-BODY
 10
-109.491217
 20
879.584005
 30
0.0
  0
VERTEX
  5
253
  8
TEAM-BODY
 10
-124.814172
 20
862.097116
 30
0.0
  0
VERTEX
  5
254
  8
TEAM-BODY
 10
-136.125073
 20
842.622689
 30
0.0
  0
VERTEX
  5
255
  8
TEAM-BODY
 10
-143.060379
 20
821.786647
 30
0.0
  0
SEQEND
  5
256
  8
TEAM-BODY
  0
ARC
  5
24
  8
TEAM-BODY
 10
-160898.036815
 20
857.959953
 30
0.0
 40
160741.614503
 50
359.974564
 51
0.056331
  0
ARC
  5
25
  8
TEAM-BODY
 10
280194.951772
 20
857.959954
 30
0.0
 40
280038.496365
 50
179.967666
 51
180.0146
  0
LINE
  5
26
  8
TEAM-BODY
 10
-156.5
 20
1015.995806
 30
0.0
 11
156.5
 21
1015.995806
 31
0.0
  0
LINE
  5
27
  8
TEAM-AXE
 10
90.0
 20
993.995806
 30
0.0
 11
90.0
 21
965.995806
 31
0.0
  0
LINE
  5
2A
  8
TEAM-AXE
 10
65.0
 20
979.995806
 30
0.0
 11
115.0
 21
979.995806
 31
0.0
  0
POLYLINE
  5
2B
  8
TEAM-HIDE
 66
     1
 10
0.0
 20
0.0
 30
0.0
 70
     1
  0
VERTEX
  5
257
  8
TEAM-HIDE
 10
101.0
 20
970.995806
 30
0.0
 42
1.0
  0
VERTEX
  5
258
  8
TEAM-HIDE
 10
101.0
 20
988.995806
 30
0.0
  0
VERTEX
  5
259
  8
TEAM-HIDE
 10
79.0
 20
988.995806
 30
0.0
 42
1.0
  0
VERTEX
  5
25A
  8
TEAM-HIDE
 10
79.0
 20
970.995806
 30
0.0
  0
SEQEND
  5
25B
  8
TEAM-HIDE
  0
LINE
  5
2E
  8
TEAM-AXE
 10
-115.0
 20
979.995806
 30
0.0
 11
-65.0
 21
979.995806
 31
0.0
  0
LINE
  5
2F
  8
TEAM-AXE
 10
-90.0
 20
993.995806
 30
0.0
 11
-90.0
 21
965.995806
 31
0.0
  0
POLYLINE
  5
30
  8
TEAM-HIDE
 66
     1
 10
0.0
 20
0.0
 30
0.0
 70
     1
  0
VERTEX
  5
25C
  8
TEAM-HIDE
 10
-79.0
 20
970.995806
 30
0.0
 42
1.0
  0
VERTEX
  5
25D
  8
TEAM-HIDE
 10
-79.0
 20
988.995806
 30
0.0
  0
VERTEX
  5
25E
  8
TEAM-HIDE
 10
-101.0
 20
988.995806
 30
0.0
 42
1.0
  0
VERTEX
  5
25F
  8
TEAM-HIDE
 10
-101.0
 20
970.995806
 30
0.0
  0
SEQEND
  5
260
  8
TEAM-HIDE
  0
DIMENSION
  5
31
  8
TEAM-MAS
  2
*D3
 10
200.890626
 20
1015.995806
 30
0.0
 11
200.980425
 21
1080.963656
 31
0.0
 12
-12000.0
 22
-328000.0
 32
0.0
 70
   128
 13
115.0
 23
979.995806
 33
0.0
 14
0.0
 24
1015.995806
 34
0.0
 50
90.0
1001
ACAD
1000
DSTYLE
1002
{
1070
    40
1040
1.0
1002
}
  0
DIMENSION
  5
42
  8
TEAM-MAS
  2
*D2
 10
156.5
 20
1137.484146
 30
0.0
 11
0.0
 21
1137.484146
 31
0.0
 12
-12000.0
 22
-328000.0
 32
0.0
 13
-156.5
 23
1015.995806
 33
0.0
 14
156.5
 24
1015.995806
 34
0.0
  0
DIMENSION
  5
50
  8
TEAM-MAS
  2
*D1
 10
90.0
 20
1087.763162
 30
0.0
 11
0.0
 21
1087.763162
 31
0.0
 12
-12000.0
 22
-328000.0
 32
0.0
 70
   128
 13
-90.0
 23
993.995806
 33
0.0
 14
90.0
 24
993.995806
 34
0.0
  0
LINE
  5
5E
  8
TEAM-AXE
 10
0.0
 20
485.996521
 30
0.0
 11
0.0
 21
525.996521
 31
0.0
  0
LINE
  5
5F
  8
TEAM-AXE
 10
-20.0
 20
505.996521
 30
0.0
 11
20.0
 21
505.996521
 31
0.0
  0
CIRCLE
  5
60
  8
TEAM-KAN
 10
0.0
 20
505.996521
 30
0.0
 40
20.0
  0
LINE
  5
62
  8
TEAM-BODY
 10
-50.0
 20
284.000864
 30
0.0
 11
50.0
 21
284.000864
 31
0.0
  0
CIRCLE
  5
63
  8
TEAM-INSP
 10
0.0
 20
0.0
 30
0.0
 40
10.0
  0
LINE
  5
65
  8
TEAM-AXE
 10
0.0
 20
0.0
 30
0.0
 11
0.0
 21
1015.995806
 31
0.0
  0
POLYLINE
  5
66
  8
TEAM-BODY
 66
     1
 10
0.0
 20
0.0
 30
0.0
 70
   129
  0
VERTEX
  5
261
  8
TEAM-BODY
 10
-156.438152
 20
786.600884
 30
0.0
  0
VERTEX
  5
262
  8
TEAM-BODY
 10
-154.061304
 20
762.806443
 30
0.0
  0
VERTEX
  5
263
  8
TEAM-BODY
 10
-147.002982
 20
739.734983
 30
0.0
  0
VERTEX
  5
264
  8
TEAM-BODY
 10
-135.477648
 20
718.087521
 30
0.0
  0
VERTEX
  5
265
  8
TEAM-BODY
 10
-119.835495
 20
698.521802
 30
0.0
  0
VERTEX
  5
266
  8
TEAM-BODY
 10
-100.5518
 20
681.632322
 30
0.0
  0
VERTEX
  5
267
  8
TEAM-BODY
 10
-78.212489
 20
667.932258
 30
0.0
  0
VERTEX
  5
268
  8
TEAM-BODY
 10
-53.496331
 20
657.83788
 30
0.0
  0
VERTEX
  5
269
  8
TEAM-BODY
 10
-27.154314
 20
651.655901
 30
0.0
  0
VERTEX
  5
26A
  8
TEAM-BODY
 10
0.013174
 20
649.574157
 30
0.0
  0
VERTEX
  5
26B
  8
TEAM-BODY
 10
27.180661
 20
651.655901
 30
0.0
  0
VERTEX
  5
26C
  8
TEAM-BODY
 10
53.522678
 20
657.83788
 30
0.0
  0
VERTEX
  5
26D
  8
TEAM-BODY
 10
78.238836
 20
667.932258
 30
0.0
  0
VERTEX
  5
26E
  8
TEAM-BODY
 10
100.578147
 20
681.632322
 30
0.0
  0
VERTEX
  5
26F
  8
TEAM-BODY
 10
119.861842
 20
698.521802
 30
0.0
  0
VERTEX
  5
270
  8
TEAM-BODY
 10
135.503996
 20
718.087521
 30
0.0
  0
VERTEX
  5
271
  8
TEAM-BODY
 10
147.02933
 20
739.734983
 30
0.0
  0
VERTEX
  5
272
  8
TEAM-BODY
 10
154.087652
 20
762.806443
 30
0.0
  0
VERTEX
  5
273
  8
TEAM-BODY
 10
156.464499
 20
786.600884
 30
0.0
  0
VERTEX
  5
274
  8
TEAM-BODY
 10
154.087652
 20
810.395325
 30
0.0
  0
VERTEX
  5
275
  8
TEAM-BODY
 10
147.02933
 20
833.466785
 30
0.0
  0
VERTEX
  5
276
  8
TEAM-BODY
 10
135.503996
 20
855.114247
 30
0.0
  0
VERTEX
  5
277
  8
TEAM-BODY
 10
119.861842
 20
874.679966
 30
0.0
  0
VERTEX
  5
278
  8
TEAM-BODY
 10
100.578147
 20
891.569446
 30
0.0
  0
VERTEX
  5
279
  8
TEAM-BODY
 10
78.238836
 20
905.26951
 30
0.0
  0
VERTEX
  5
27A
  8
TEAM-BODY
 10
53.522678
 20
915.363888
 30
0.0
  0
VERTEX
  5
27B
  8
TEAM-BODY
 10
27.180661
 20
921.545867
 30
0.0
  0
VERTEX
  5
27C
  8
TEAM-BODY
 10
0.013174
 20
923.62761
 30
0.0
  0
VERTEX
  5
27D
  8
TEAM-BODY
 10
-27.154314
 20
921.545867
 30
0.0
  0
VERTEX
  5
27E
  8
TEAM-BODY
 10
-53.496331
 20
915.363888
 30
0.0
  0
VERTEX
  5
27F
  8
TEAM-BODY
 10
-78.212489
 20
905.26951
 30
0.0
  0
VERTEX
  5
280
  8
TEAM-BODY
 10
-100.5518
 20
891.569446
 30
0.0
  0
VERTEX
  5
281
  8
TEAM-BODY
 10
-119.835495
 20
874.679966
 30
0.0
  0
VERTEX
  5
282
  8
TEAM-BODY
 10
-135.477648
 20
855.114247
 30
0.0
  0
VERTEX
  5
283
  8
TEAM-BODY
 10
-147.002982
 20
833.466785
 30
0.0
  0
VERTEX
  5
284
  8
TEAM-BODY
 10
-154.061304
 20
810.395325
 30
0.0
  0
SEQEND
  5
285
  8
TEAM-BODY
  0
LINE
  5
67
  8
TEAM-BODY
 10
50.0
 20
284.000864
 30
0.0
 11
153.968363
 21
762.221341
 31
0.0
  0
LINE
  5
68
  8
TEAM-BODY
 10
-50.0
 20
284.000864
 30
0.0
 11
-153.943251
 21
762.227323
 31
0.0
  0
DIMENSION
  5
69
  8
TEAM-MAS
  2
*D0
 10
-226.393804
 20
1015.995806
 30
0.0
 11
-226.393804
 21
649.998335
 31
0.0
 12
-12000.0
 22
-328000.0
 32
0.0
 13
0.0
 23
284.000864
 33
0.0
 14
0.0
 24
1015.995806
 34
0.0
 50
90.0
1001
ACAD
1000
DSTYLE
1002
{
1070
    40
1040
1.0
1002
}
  0
ENDSEC
  0
EOF
