  0
SECTION
  2
HEADER
  9
$ACADVER
  1
AC1009
  9
$INSBASE
 10
0.0
 20
0.0
 30
0.0
  9
$EXTMIN
 10
-309.122191
 20
-10.069409
 30
0.0
  9
$EXTMAX
 10
637.581214
 20
965.742754
 30
0.000005
  9
$LIMMIN
 10
-309.122191
 20
-10.069409
  9
$LIMMAX
 10
637.581214
 20
965.742754
  9
$ORTHOMODE
 70
     1
  9
$REGENMODE
 70
     1
  9
$FILLMODE
 70
     1
  9
$QTEXTMODE
 70
     0
  9
$MIRRTEXT
 70
     0
  9
$DRAGMODE
 70
     2
  9
$LTSCALE
 40
50.0
  9
$OSMODE
 70
     0
  9
$ATTMODE
 70
     1
  9
$TEXTSIZE
 40
200.0
  9
$TRACEWID
 40
1.0
  9
$TEXTSTYLE
  7
STANDARD
  9
$CLAYER
  8
TEAM-MAS
  9
$CELTYPE
  6
BYLAYER
  9
$CECOLOR
 62
   256
  9
$DIMSCALE
 40
0.0
  9
$DIMASZ
 40
20.0
  9
$DIMEXO
 40
10.0
  9
$DIMDLI
 40
1.0
  9
$DIMRND
 40
0.0
  9
$DIMDLE
 40
0.0
  9
$DIMEXE
 40
1.0
  9
$DIMTP
 40
0.0
  9
$DIMTM
 40
0.0
  9
$DIMTXT
 40
35.0
  9
$DIMCEN
 40
1.0
  9
$DIMTSZ
 40
0.0
  9
$DIMTOL
 70
     0
  9
$DIMLIM
 70
     0
  9
$DIMTIH
 70
     0
  9
$DIMTOH
 70
     0
  9
$DIMSE1
 70
     0
  9
$DIMSE2
 70
     0
  9
$DIMTAD
 70
     0
  9
$DIMZIN
 70
     0
  9
$DIMBLK
  1

  9
$DIMASO
 70
     1
  9
$DIMSHO
 70
     0
  9
$DIMPOST
  1

  9
$DIMAPOST
  1

  9
$DIMALT
 70
     0
  9
$DIMALTD
 70
     2
  9
$DIMALTF
 40
25.4
  9
$DIMLFAC
 40
1.0
  9
$DIMTOFL
 70
     0
  9
$DIMTVP
 40
0.0
  9
$DIMTIX
 70
     0
  9
$DIMSOXD
 70
     0
  9
$DIMSAH
 70
     0
  9
$DIMBLK1
  1

  9
$DIMBLK2
  1

  9
$DIMSTYLE
  2
TEAM
  9
$DIMCLRD
 70
     9
  9
$DIMCLRE
 70
     9
  9
$DIMCLRT
 70
    11
  9
$DIMTFAC
 40
1.0
  9
$DIMGAP
 40
7.0
  9
$LUNITS
 70
     2
  9
$LUPREC
 70
     1
  9
$SKETCHINC
 40
1.0
  9
$FILLETRAD
 40
50.0
  9
$AUNITS
 70
     0
  9
$AUPREC
 70
     0
  9
$MENU
  1
ROPLANS
  9
$ELEVATION
 40
0.0
  9
$PELEVATION
 40
0.0
  9
$THICKNESS
 40
0.0
  9
$LIMCHECK
 70
     0
  9
$BLIPMODE
 70
     1
  9
$CHAMFERA
 40
0.0
  9
$CHAMFERB
 40
0.0
  9
$SKPOLY
 70
     0
  9
$TDCREATE
 40
2450392.957851
  9
$TDUPDATE
 40
2456272.033233
  9
$TDINDWG
 40
2.315654
  9
$TDUSRTIMER
 40
2.315654
  9
$USRTIMER
 70
     1
  9
$ANGBASE
 50
0.0
  9
$ANGDIR
 70
     0
  9
$PDMODE
 70
     0
  9
$PDSIZE
 40
0.0
  9
$PLINEWID
 40
0.0
  9
$COORDS
 70
     2
  9
$SPLFRAME
 70
     0
  9
$SPLINETYPE
 70
     6
  9
$SPLINESEGS
 70
     8
  9
$ATTDIA
 70
     0
  9
$ATTREQ
 70
     0
  9
$HANDLING
 70
     1
  9
$HANDSEED
  5
178
  9
$SURFTAB1
 70
    24
  9
$SURFTAB2
 70
    24
  9
$SURFTYPE
 70
     6
  9
$SURFU
 70
     6
  9
$SURFV
 70
     6
  9
$UCSNAME
  2

  9
$UCSORG
 10
0.0
 20
0.0
 30
0.0
  9
$UCSXDIR
 10
1.0
 20
0.0
 30
0.0
  9
$UCSYDIR
 10
0.0
 20
1.0
 30
0.0
  9
$PUCSNAME
  2

  9
$PUCSORG
 10
0.0
 20
0.0
 30
0.0
  9
$PUCSXDIR
 10
1.0
 20
0.0
 30
0.0
  9
$PUCSYDIR
 10
0.0
 20
1.0
 30
0.0
  9
$USERI1
 70
     0
  9
$USERI2
 70
     0
  9
$USERI3
 70
     0
  9
$USERI4
 70
     0
  9
$USERI5
 70
     0
  9
$USERR1
 40
0.0
  9
$USERR2
 40
0.0
  9
$USERR3
 40
0.0
  9
$USERR4
 40
0.0
  9
$USERR5
 40
0.0
  9
$WORLDVIEW
 70
     1
  9
$SHADEDGE
 70
     0
  9
$SHADEDIF
 70
    70
  9
$TILEMODE
 70
     1
  9
$MAXACTVP
 70
    16
  9
$PLIMCHECK
 70
     0
  9
$PEXTMIN
 10
-0.805942
 20
0.005011
 30
0.0
  9
$PEXTMAX
 10
20.250094
 20
11.356329
 30
0.0
  9
$PLIMMIN
 10
0.0
 20
0.0
  9
$PLIMMAX
 10
12.0
 20
9.0
  9
$UNITMODE
 70
     0
  9
$VISRETAIN
 70
     0
  9
$PLINEGEN
 70
     0
  9
$PSLTSCALE
 70
     0
  0
ENDSEC
  0
SECTION
  2
TABLES
  0
TABLE
  2
VPORT
 70
     2
  0
VPORT
  2
*ACTIVE
 70
     0
 10
0.0
 20
0.0
 11
1.0
 21
1.0
 12
164.229511
 22
477.836673
 13
0.0
 23
0.0
 14
1.0
 24
1.0
 15
50.0
 25
50.0
 16
0.0
 26
0.0
 36
1.0
 17
0.0
 27
0.0
 37
0.0
 40
981.955786
 41
1.911765
 42
50.0
 43
0.0
 44
0.0
 50
0.0
 51
0.0
 71
     0
 72
   100
 73
     1
 74
     1
 75
     0
 76
     0
 77
     0
 78
     0
  0
ENDTAB
  0
TABLE
  2
LTYPE
 70
     3
  0
LTYPE
  2
CONTINUOUS
 70
     0
  3
Solid Line
 72
    65
 73
     0
 40
0.0
  0
LTYPE
  2
31
 70
     0
  3

 72
    65
 73
     4
 40
2.1
 49
1.5
 49
-0.3
 49
0.0
 49
-0.3
  0
LTYPE
  2
22
 70
     0
  3

 72
    65
 73
     2
 40
1.4
 49
1.2
 49
-0.2
  0
ENDTAB
  0
TABLE
  2
LAYER
 70
    13
  0
LAYER
  2
0
 70
     0
 62
     7
  6
CONTINUOUS
  0
LAYER
  2
DEFPOINTS
 70
     0
 62
     7
  6
CONTINUOUS
  0
LAYER
  2
TEAM-BODY
 70
     0
 62
     2
  6
CONTINUOUS
  0
LAYER
  2
TEAM-AXE
 70
     0
 62
    10
  6
31
  0
LAYER
  2
TEAM-MAS
 70
     0
 62
     9
  6
CONTINUOUS
  0
LAYER
  2
TEAM-TXT
 70
     0
 62
    11
  6
CONTINUOUS
  0
LAYER
  2
TEAM-DET1
 70
     0
 62
     4
  6
CONTINUOUS
  0
LAYER
  2
TEAM-DET2
 70
     0
 62
     5
  6
CONTINUOUS
  0
LAYER
  2
TEAM-COLD
 70
     0
 62
     3
  6
CONTINUOUS
  0
LAYER
  2
TEAM-HIDE
 70
     0
 62
     8
  6
22
  0
LAYER
  2
TEAM-KAN
 70
     0
 62
     6
  6
CONTINUOUS
  0
LAYER
  2
TEAM-WARM
 70
     0
 62
     1
  6
CONTINUOUS
  0
LAYER
  2
TEAM-INSP
 70
     0
 62
     5
  6
CONTINUOUS
  0
ENDTAB
  0
TABLE
  2
STYLE
 70
     2
  0
STYLE
  2
STANDARD
 70
     0
 40
0.0
 41
1.0
 50
0.0
 71
     0
 42
200.0
  3
txt
  4

  0
STYLE
  2
TEAM
 70
     0
 40
0.0
 41
0.8
 50
15.0
 71
     0
 42
7.0
  3
ROMANS.shx
  4

  0
ENDTAB
  0
TABLE
  2
VIEW
 70
     0
  0
ENDTAB
  0
TABLE
  2
UCS
 70
     0
  0
ENDTAB
  0
TABLE
  2
APPID
 70
     1
  0
APPID
  2
ACAD
 70
     0
  0
ENDTAB
  0
TABLE
  2
DIMSTYLE
 70
     1
  0
DIMSTYLE
  2
TEAM
 70
     0
  3

  4

  5

  6

  7

 40
0.0
 41
20.0
 42
10.0
 43
1.0
 44
1.0
 45
0.0
 46
0.0
 47
0.0
 48
0.0
140
35.0
141
1.0
142
0.0
143
25.4
144
1.0
145
0.0
146
1.0
147
7.0
 71
     0
 72
     0
 73
     0
 74
     0
 75
     0
 76
     0
 77
     0
 78
     0
170
     0
171
     2
172
     0
173
     0
174
     0
175
     0
176
     9
177
     9
178
    11
  0
ENDTAB
  0
ENDSEC
  0
SECTION
  2
BLOCKS
  0
BLOCK
  8
0
  2
$MODEL_SPACE
 70
     0
 10
0.0
 20
0.0
 30
0.0
  3
$MODEL_SPACE
  1

  0
ENDBLK
  5
171
  8
0
  0
BLOCK
 67
     1
  8
0
  2
$PAPER_SPACE
 70
     0
 10
0.0
 20
0.0
 30
0.0
  3
$PAPER_SPACE
  1

  0
ENDBLK
  5
16F
 67
     1
  8
0
  0
BLOCK
  8
0
  2
*D0
 70
     1
 10
0.0
 20
0.0
 30
0.0
  3
*D0
  1

  0
LINE
  5
76
  8
0
  6
BYBLOCK
 62
     9
 10
12010.0
 20
8000.0
 30
0.0
 11
12311.623843
 21
8000.0
 31
0.0
  0
LINE
  5
77
  8
0
  6
BYBLOCK
 62
     9
 10
12090.0
 20
8400.0
 30
0.0
 11
12311.623843
 21
8400.0
 31
0.0
  0
LINE
  5
78
  8
0
  6
BYBLOCK
 62
     9
 10
12310.623843
 20
8020.0
 30
0.0
 11
12310.623843
 21
8152.166667
 31
0.0
  0
LINE
  5
79
  8
0
  6
BYBLOCK
 62
     9
 10
12310.623843
 20
8380.0
 30
0.0
 11
12310.623843
 21
8247.833333
 31
0.0
  0
SOLID
  5
7A
  8
0
  6
BYBLOCK
 62
     9
 10
12307.29051
 20
8020.0
 30
0.0
 11
12313.957176
 21
8020.0
 31
0.0
 12
12310.623843
 22
8000.0
 32
0.0
 13
12310.623843
 23
8000.0
 33
0.0
  0
SOLID
  5
7B
  8
0
  6
BYBLOCK
 62
     9
 10
12307.29051
 20
8380.0
 30
0.0
 11
12313.957176
 21
8380.0
 31
0.0
 12
12310.623843
 22
8400.0
 32
0.0
 13
12310.623843
 23
8400.0
 33
0.0
  0
TEXT
  5
7C
  8
0
  6
BYBLOCK
 62
    11
 10
12328.123843
 20
8159.166667
 30
0.0
 40
35.0
  1
400
 50
90.0
  0
POINT
  5
7D
  8
DEFPOINTS
  6
BYBLOCK
 62
     0
 10
12000.0
 20
8000.0
 30
0.0
  0
POINT
  5
7E
  8
DEFPOINTS
  6
BYBLOCK
 62
     0
 10
12080.0
 20
8400.0
 30
0.0
  0
POINT
  5
7F
  8
DEFPOINTS
  6
BYBLOCK
 62
     0
 10
12310.623843
 20
8400.0
 30
0.0
  0
ENDBLK
  5
81
  8
0
  0
BLOCK
  8
0
  2
*D1
 70
     1
 10
0.0
 20
0.0
 30
0.0
  3
*D1
  1

  0
LINE
  5
84
  8
0
  6
BYBLOCK
 62
     9
 10
12010.0
 20
8000.0
 30
0.0
 11
12371.623843
 21
8000.0
 31
0.0
  0
LINE
  5
85
  8
0
  6
BYBLOCK
 62
     9
 10
12090.0
 20
8400.0
 30
0.0
 11
12371.623843
 21
8400.0
 31
0.0
  0
LINE
  5
86
  8
0
  6
BYBLOCK
 62
     9
 10
12370.623843
 20
8020.0
 30
0.0
 11
12370.623843
 21
8085.083333
 31
0.0
  0
LINE
  5
87
  8
0
  6
BYBLOCK
 62
     9
 10
12370.623843
 20
8380.0
 30
0.0
 11
12370.623843
 21
8314.916667
 31
0.0
  0
SOLID
  5
88
  8
0
  6
BYBLOCK
 62
     9
 10
12367.29051
 20
8020.0
 30
0.0
 11
12373.957176
 21
8020.0
 31
0.0
 12
12370.623843
 22
8000.0
 32
0.0
 13
12370.623843
 23
8000.0
 33
0.0
  0
SOLID
  5
89
  8
0
  6
BYBLOCK
 62
     9
 10
12367.29051
 20
8380.0
 30
0.0
 11
12373.957176
 21
8380.0
 31
0.0
 12
12370.623843
 22
8400.0
 32
0.0
 13
12370.623843
 23
8400.0
 33
0.0
  0
TEXT
  5
8A
  8
0
  6
BYBLOCK
 62
    11
 10
12388.123843
 20
8092.083333
 30
0.0
 40
35.0
  1
300-450
 50
90.0
  0
POINT
  5
8B
  8
DEFPOINTS
  6
BYBLOCK
 62
     0
 10
12000.0
 20
8000.0
 30
0.0
  0
POINT
  5
8C
  8
DEFPOINTS
  6
BYBLOCK
 62
     0
 10
12080.0
 20
8400.0
 30
0.0
  0
POINT
  5
8D
  8
DEFPOINTS
  6
BYBLOCK
 62
     0
 10
12370.623843
 20
8400.0
 30
0.0
  0
ENDBLK
  5
8F
  8
0
  0
BLOCK
  8
0
  2
*D2
 70
     1
 10
0.0
 20
0.0
 30
0.0
  3
*D2
  1

  0
LINE
  5
22
  8
0
  6
BYBLOCK
 62
     9
 10
12010.0
 20
8000.0
 30
0.0
 11
12431.623843
 21
8000.0
 31
0.0
  0
LINE
  5
23
  8
0
  6
BYBLOCK
 62
     9
 10
12260.0
 20
8700.0
 30
0.0
 11
12431.623843
 21
8700.0
 31
0.0
  0
LINE
  5
24
  8
0
  6
BYBLOCK
 62
     9
 10
12430.623843
 20
8020.0
 30
0.0
 11
12430.623843
 21
8302.166667
 31
0.0
  0
LINE
  5
25
  8
0
  6
BYBLOCK
 62
     9
 10
12430.623843
 20
8680.0
 30
0.0
 11
12430.623843
 21
8397.833333
 31
0.0
  0
SOLID
  5
26
  8
0
  6
BYBLOCK
 62
     9
 10
12427.29051
 20
8020.0
 30
0.0
 11
12433.957176
 21
8020.0
 31
0.0
 12
12430.623843
 22
8000.0
 32
0.0
 13
12430.623843
 23
8000.0
 33
0.0
  0
SOLID
  5
27
  8
0
  6
BYBLOCK
 62
     9
 10
12427.29051
 20
8680.0
 30
0.0
 11
12433.957176
 21
8680.0
 31
0.0
 12
12430.623843
 22
8700.0
 32
0.0
 13
12430.623843
 23
8700.0
 33
0.0
  0
TEXT
  5
28
  8
0
  6
BYBLOCK
 62
    11
 10
12448.123843
 20
8309.166667
 30
0.0
 40
35.0
  1
700
 50
90.0
  0
POINT
  5
29
  8
DEFPOINTS
  6
BYBLOCK
 62
     0
 10
12000.0
 20
8000.0
 30
0.0
  0
POINT
  5
2B
  8
DEFPOINTS
  6
BYBLOCK
 62
     0
 10
12250.0
 20
8700.0
 30
0.0
  0
POINT
  5
2C
  8
DEFPOINTS
  6
BYBLOCK
 62
     0
 10
12430.623843
 20
8700.0
 30
0.0
  0
ENDBLK
  5
2E
  8
0
  0
BLOCK
  8
0
  2
*D3
 70
     1
 10
0.0
 20
0.0
 30
0.0
  3
*D3
  1

  0
LINE
  5
31
  8
0
  6
BYBLOCK
 62
     9
 10
12010.0
 20
8000.0
 30
0.0
 11
12478.976934
 21
8000.0
 31
0.0
  0
LINE
  5
32
  8
0
  6
BYBLOCK
 62
     9
 10
12260.0
 20
8700.0
 30
0.0
 11
12478.976934
 21
8700.0
 31
0.0
  0
LINE
  5
33
  8
0
  6
BYBLOCK
 62
     9
 10
12477.976934
 20
8020.0
 30
0.0
 11
12477.976934
 21
8235.083333
 31
0.0
  0
LINE
  5
34
  8
0
  6
BYBLOCK
 62
     9
 10
12477.976934
 20
8680.0
 30
0.0
 11
12477.976934
 21
8464.916667
 31
0.0
  0
SOLID
  5
35
  8
0
  6
BYBLOCK
 62
     9
 10
12474.643601
 20
8020.0
 30
0.0
 11
12481.310268
 21
8020.0
 31
0.0
 12
12477.976934
 22
8000.0
 32
0.0
 13
12477.976934
 23
8000.0
 33
0.0
  0
SOLID
  5
36
  8
0
  6
BYBLOCK
 62
     9
 10
12474.643601
 20
8680.0
 30
0.0
 11
12481.310268
 21
8680.0
 31
0.0
 12
12477.976934
 22
8700.0
 32
0.0
 13
12477.976934
 23
8700.0
 33
0.0
  0
TEXT
  5
37
  8
0
  6
BYBLOCK
 62
    11
 10
12495.476934
 20
8242.083333
 30
0.0
 40
35.0
  1
650-800
 50
90.0
  0
POINT
  5
38
  8
DEFPOINTS
  6
BYBLOCK
 62
     0
 10
12000.0
 20
8000.0
 30
0.0
  0
POINT
  5
39
  8
DEFPOINTS
  6
BYBLOCK
 62
     0
 10
12250.0
 20
8700.0
 30
0.0
  0
POINT
  5
3A
  8
DEFPOINTS
  6
BYBLOCK
 62
     0
 10
12477.976934
 20
8700.0
 30
0.0
  0
ENDBLK
  5
3C
  8
0
  0
BLOCK
  8
0
  2
*D4
 70
     1
 10
0.0
 20
0.0
 30
0.0
  3
*D4
  1

  0
LINE
  5
92
  8
0
  6
BYBLOCK
 62
     9
 10
11810.0
 20
8745.0
 30
0.0
 11
11810.0
 21
8949.185569
 31
0.0
  0
LINE
  5
93
  8
0
  6
BYBLOCK
 62
     9
 10
12190.0
 20
8745.0
 30
0.0
 11
12190.0
 21
8949.185569
 31
0.0
  0
LINE
  5
94
  8
0
  6
BYBLOCK
 62
     9
 10
11830.0
 20
8948.185569
 30
0.0
 11
11949.25
 21
8948.185569
 31
0.0
  0
LINE
  5
95
  8
0
  6
BYBLOCK
 62
     9
 10
12170.0
 20
8948.185569
 30
0.0
 11
12050.75
 21
8948.185569
 31
0.0
  0
SOLID
  5
96
  8
0
  6
BYBLOCK
 62
     9
 10
11830.0
 20
8951.518902
 30
0.0
 11
11830.0
 21
8944.852235
 31
0.0
 12
11810.0
 22
8948.185569
 32
0.0
 13
11810.0
 23
8948.185569
 33
0.0
  0
SOLID
  5
97
  8
0
  6
BYBLOCK
 62
     9
 10
12170.0
 20
8951.518902
 30
0.0
 11
12170.0
 21
8944.852235
 31
0.0
 12
12190.0
 22
8948.185569
 32
0.0
 13
12190.0
 23
8948.185569
 33
0.0
  0
TEXT
  5
98
  8
0
  6
BYBLOCK
 62
    11
 10
11956.25
 20
8930.685569
 30
0.0
 40
35.0
  1
380
  0
POINT
  5
99
  8
DEFPOINTS
  6
BYBLOCK
 62
     0
 10
11810.0
 20
8735.0
 30
0.0
  0
POINT
  5
9A
  8
DEFPOINTS
  6
BYBLOCK
 62
     0
 10
12190.0
 20
8735.0
 30
0.0
  0
POINT
  5
9B
  8
DEFPOINTS
  6
BYBLOCK
 62
     0
 10
12190.0
 20
8948.185569
 30
0.0
  0
ENDBLK
  5
9D
  8
0
  0
BLOCK
  8
0
  2
*D5
 70
     1
 10
0.0
 20
0.0
 30
0.0
  3
*D5
  1

  0
LINE
  5
A0
  8
0
  6
BYBLOCK
 62
     9
 10
12041.0
 20
8532.0
 30
0.0
 11
12370.475996
 21
8532.0
 31
0.0
  0
LINE
  5
A1
  8
0
  6
BYBLOCK
 62
     9
 10
12260.0
 20
8700.0
 30
0.0
 11
12370.475996
 21
8700.0
 31
0.0
  0
LINE
  5
A2
  8
0
  6
BYBLOCK
 62
     9
 10
12369.475996
 20
8552.0
 30
0.0
 11
12369.475996
 21
8568.166667
 31
0.0
  0
LINE
  5
A3
  8
0
  6
BYBLOCK
 62
     9
 10
12369.475996
 20
8680.0
 30
0.0
 11
12369.475996
 21
8663.833333
 31
0.0
  0
SOLID
  5
A4
  8
0
  6
BYBLOCK
 62
     9
 10
12366.142662
 20
8552.0
 30
0.0
 11
12372.809329
 21
8552.0
 31
0.0
 12
12369.475996
 22
8532.0
 32
0.0
 13
12369.475996
 23
8532.0
 33
0.0
  0
SOLID
  5
A5
  8
0
  6
BYBLOCK
 62
     9
 10
12366.142662
 20
8680.0
 30
0.0
 11
12372.809329
 21
8680.0
 31
0.0
 12
12369.475996
 22
8700.0
 32
0.0
 13
12369.475996
 23
8700.0
 33
0.0
  0
TEXT
  5
A6
  8
0
  6
BYBLOCK
 62
    11
 10
12386.975996
 20
8575.166667
 30
0.0
 40
35.0
  1
168
 50
90.0
  0
POINT
  5
A7
  8
DEFPOINTS
  6
BYBLOCK
 62
     0
 10
12031.0
 20
8532.0
 30
0.0
  0
POINT
  5
A8
  8
DEFPOINTS
  6
BYBLOCK
 62
     0
 10
12250.0
 20
8700.0
 30
0.0
  0
POINT
  5
A9
  8
DEFPOINTS
  6
BYBLOCK
 62
     0
 10
12369.475996
 20
8700.0
 30
0.0
  0
ENDBLK
  5
AB
  8
0
  0
BLOCK
  8
0
  2
*D6
 70
     1
 10
0.0
 20
0.0
 30
0.0
  3
*D6
  1

  0
LINE
  5
3F
  8
0
  6
BYBLOCK
 62
     9
 10
12010.0
 20
8000.0
 30
0.0
 11
12524.523928
 21
8000.0
 31
0.0
  0
LINE
  5
40
  8
0
  6
BYBLOCK
 62
     9
 10
12260.0
 20
8760.0
 30
0.0
 11
12524.523928
 21
8760.0
 31
0.0
  0
LINE
  5
41
  8
0
  6
BYBLOCK
 62
     9
 10
12523.523928
 20
8020.0
 30
0.0
 11
12523.523928
 21
8329.25
 31
0.0
  0
LINE
  5
42
  8
0
  6
BYBLOCK
 62
     9
 10
12523.523928
 20
8740.0
 30
0.0
 11
12523.523928
 21
8430.75
 31
0.0
  0
SOLID
  5
43
  8
0
  6
BYBLOCK
 62
     9
 10
12520.190595
 20
8020.0
 30
0.0
 11
12526.857261
 21
8020.0
 31
0.0
 12
12523.523928
 22
8000.0
 32
0.0
 13
12523.523928
 23
8000.0
 33
0.0
  0
SOLID
  5
44
  8
0
  6
BYBLOCK
 62
     9
 10
12520.190595
 20
8740.0
 30
0.0
 11
12526.857261
 21
8740.0
 31
0.0
 12
12523.523928
 22
8760.0
 32
0.0
 13
12523.523928
 23
8760.0
 33
0.0
  0
TEXT
  5
45
  8
0
  6
BYBLOCK
 62
    11
 10
12541.023928
 20
8336.25
 30
0.0
 40
35.0
  1
760
 50
90.0
  0
POINT
  5
46
  8
DEFPOINTS
  6
BYBLOCK
 62
     0
 10
12000.0
 20
8000.0
 30
0.0
  0
POINT
  5
47
  8
DEFPOINTS
  6
BYBLOCK
 62
     0
 10
12250.0
 20
8760.0
 30
0.0
  0
POINT
  5
48
  8
DEFPOINTS
  6
BYBLOCK
 62
     0
 10
12523.523928
 20
8760.0
 30
0.0
  0
ENDBLK
  5
4A
  8
0
  0
BLOCK
  8
0
  2
*D7
 70
     1
 10
0.0
 20
0.0
 30
0.0
  3
*D7
  1

  0
LINE
  5
4D
  8
0
  6
BYBLOCK
 62
     9
 10
12010.0
 20
8000.0
 30
0.0
 11
12571.877019
 21
8000.0
 31
0.0
  0
LINE
  5
4E
  8
0
  6
BYBLOCK
 62
     9
 10
12086.5
 20
8900.0
 30
0.0
 11
12571.877019
 21
8900.0
 31
0.0
  0
LINE
  5
4F
  8
0
  6
BYBLOCK
 62
     9
 10
12570.877019
 20
8020.0
 30
0.0
 11
12570.877019
 21
8402.166667
 31
0.0
  0
LINE
  5
50
  8
0
  6
BYBLOCK
 62
     9
 10
12570.877019
 20
8880.0
 30
0.0
 11
12570.877019
 21
8497.833333
 31
0.0
  0
SOLID
  5
51
  8
0
  6
BYBLOCK
 62
     9
 10
12567.543686
 20
8020.0
 30
0.0
 11
12574.210353
 21
8020.0
 31
0.0
 12
12570.877019
 22
8000.0
 32
0.0
 13
12570.877019
 23
8000.0
 33
0.0
  0
SOLID
  5
52
  8
0
  6
BYBLOCK
 62
     9
 10
12567.543686
 20
8880.0
 30
0.0
 11
12574.210353
 21
8880.0
 31
0.0
 12
12570.877019
 22
8900.0
 32
0.0
 13
12570.877019
 23
8900.0
 33
0.0
  0
TEXT
  5
53
  8
0
  6
BYBLOCK
 62
    11
 10
12588.377019
 20
8409.166667
 30
0.0
 40
35.0
  1
900
 50
90.0
  0
POINT
  5
54
  8
DEFPOINTS
  6
BYBLOCK
 62
     0
 10
12000.0
 20
8000.0
 30
0.0
  0
POINT
  5
55
  8
DEFPOINTS
  6
BYBLOCK
 62
     0
 10
12076.5
 20
8900.0
 30
0.0
  0
POINT
  5
56
  8
DEFPOINTS
  6
BYBLOCK
 62
     0
 10
12570.877019
 20
8900.0
 30
0.0
  0
ENDBLK
  5
58
  8
0
  0
BLOCK
  8
0
  2
*D8
 70
     1
 10
0.0
 20
0.0
 30
0.0
  3
*D8
  1

  0
LINE
  5
5B
  8
0
  6
BYBLOCK
 62
     9
 10
12010.0
 20
8000.0
 30
0.0
 11
12621.037617
 21
8000.0
 31
0.0
  0
LINE
  5
5C
  8
0
  6
BYBLOCK
 62
     9
 10
12086.5
 20
8900.0
 30
0.0
 11
12621.037617
 21
8900.0
 31
0.0
  0
LINE
  5
5D
  8
0
  6
BYBLOCK
 62
     9
 10
12620.037617
 20
8020.0
 30
0.0
 11
12620.037617
 21
8326.333333
 31
0.0
  0
LINE
  5
5E
  8
0
  6
BYBLOCK
 62
     9
 10
12620.037617
 20
8880.0
 30
0.0
 11
12620.037617
 21
8573.666667
 31
0.0
  0
SOLID
  5
5F
  8
0
  6
BYBLOCK
 62
     9
 10
12616.704283
 20
8020.0
 30
0.0
 11
12623.37095
 21
8020.0
 31
0.0
 12
12620.037617
 22
8000.0
 32
0.0
 13
12620.037617
 23
8000.0
 33
0.0
  0
SOLID
  5
60
  8
0
  6
BYBLOCK
 62
     9
 10
12616.704283
 20
8880.0
 30
0.0
 11
12623.37095
 21
8880.0
 31
0.0
 12
12620.037617
 22
8900.0
 32
0.0
 13
12620.037617
 23
8900.0
 33
0.0
  0
TEXT
  5
61
  8
0
  6
BYBLOCK
 62
    11
 10
12637.537617
 20
8333.333333
 30
0.0
 40
35.0
  1
850-1000
 50
90.0
  0
POINT
  5
62
  8
DEFPOINTS
  6
BYBLOCK
 62
     0
 10
12000.0
 20
8000.0
 30
0.0
  0
POINT
  5
63
  8
DEFPOINTS
  6
BYBLOCK
 62
     0
 10
12076.5
 20
8900.0
 30
0.0
  0
POINT
  5
64
  8
DEFPOINTS
  6
BYBLOCK
 62
     0
 10
12620.037617
 20
8900.0
 30
0.0
  0
ENDBLK
  5
66
  8
0
  0
BLOCK
  8
0
  2
*D9
 70
     1
 10
0.0
 20
0.0
 30
0.0
  3
*D9
  1

  0
LINE
  5
AE
  8
0
  6
BYBLOCK
 62
     9
 10
11790.0
 20
8555.0
 30
0.0
 11
11707.409992
 21
8555.0
 31
0.0
  0
LINE
  5
AF
  8
0
  6
BYBLOCK
 62
     9
 10
11740.0
 20
8760.0
 30
0.0
 11
11707.409992
 21
8760.0
 31
0.0
  0
LINE
  5
B0
  8
0
  6
BYBLOCK
 62
     9
 10
11708.409992
 20
8575.0
 30
0.0
 11
11708.409992
 21
8606.75
 31
0.0
  0
LINE
  5
B1
  8
0
  6
BYBLOCK
 62
     9
 10
11708.409992
 20
8740.0
 30
0.0
 11
11708.409992
 21
8708.25
 31
0.0
  0
SOLID
  5
B2
  8
0
  6
BYBLOCK
 62
     9
 10
11705.076658
 20
8575.0
 30
0.0
 11
11711.743325
 21
8575.0
 31
0.0
 12
11708.409992
 22
8555.0
 32
0.0
 13
11708.409992
 23
8555.0
 33
0.0
  0
SOLID
  5
B3
  8
0
  6
BYBLOCK
 62
     9
 10
11705.076658
 20
8740.0
 30
0.0
 11
11711.743325
 21
8740.0
 31
0.0
 12
11708.409992
 22
8760.0
 32
0.0
 13
11708.409992
 23
8760.0
 33
0.0
  0
TEXT
  5
B4
  8
0
  6
BYBLOCK
 62
    11
 10
11725.909992
 20
8613.75
 30
0.0
 40
35.0
  1
205
 50
90.0
  0
POINT
  5
B5
  8
DEFPOINTS
  6
BYBLOCK
 62
     0
 10
11800.0
 20
8555.0
 30
0.0
  0
POINT
  5
B6
  8
DEFPOINTS
  6
BYBLOCK
 62
     0
 10
11750.0
 20
8760.0
 30
0.0
  0
POINT
  5
B7
  8
DEFPOINTS
  6
BYBLOCK
 62
     0
 10
11708.409992
 20
8760.0
 30
0.0
  0
ENDBLK
  5
B9
  8
0
  0
BLOCK
  8
0
  2
*D10
 70
     1
 10
0.0
 20
0.0
 30
0.0
  3
*D10
  1

  0
LINE
  5
BC
  8
0
  6
BYBLOCK
 62
     9
 10
11923.5
 20
8890.0
 30
0.0
 11
11923.5
 21
8838.431446
 31
0.0
  0
LINE
  5
BD
  8
0
  6
BYBLOCK
 62
     9
 10
12076.5
 20
8890.0
 30
0.0
 11
12076.5
 21
8838.431446
 31
0.0
  0
LINE
  5
BE
  8
0
  6
BYBLOCK
 62
     9
 10
11943.5
 20
8839.431446
 30
0.0
 11
11952.166667
 21
8839.431446
 31
0.0
  0
LINE
  5
BF
  8
0
  6
BYBLOCK
 62
     9
 10
12056.5
 20
8839.431446
 30
0.0
 11
12047.833333
 21
8839.431446
 31
0.0
  0
TEXT
  5
C0
  8
0
  6
BYBLOCK
 62
    11
 10
11959.166667
 20
8821.931446
 30
0.0
 40
35.0
  1
153
  0
SOLID
  5
C1
  8
0
  6
BYBLOCK
 62
     9
 10
11943.5
 20
8842.764779
 30
0.0
 11
11943.5
 21
8836.098113
 31
0.0
 12
11923.5
 22
8839.431446
 32
0.0
 13
11923.5
 23
8839.431446
 33
0.0
  0
SOLID
  5
C2
  8
0
  6
BYBLOCK
 62
     9
 10
12056.5
 20
8842.764779
 30
0.0
 11
12056.5
 21
8836.098113
 31
0.0
 12
12076.5
 22
8839.431446
 32
0.0
 13
12076.5
 23
8839.431446
 33
0.0
  0
POINT
  5
C3
  8
DEFPOINTS
  6
BYBLOCK
 62
     0
 10
11923.5
 20
8900.0
 30
0.0
  0
POINT
  5
C4
  8
DEFPOINTS
  6
BYBLOCK
 62
     0
 10
12076.5
 20
8900.0
 30
0.0
  0
POINT
  5
C5
  8
DEFPOINTS
  6
BYBLOCK
 62
     0
 10
12076.5
 20
8839.431446
 30
0.0
  0
ENDBLK
  5
C7
  8
0
  0
BLOCK
  8
0
  2
*D11
 70
     1
 10
0.0
 20
0.0
 30
0.0
  3
*D11
  1

  0
LINE
  5
CA
  8
0
  6
BYBLOCK
 62
     9
 10
11969.0
 20
8505.0
 30
0.0
 11
11707.409992
 21
8505.0
 31
0.0
  0
LINE
  5
CB
  8
0
  6
BYBLOCK
 62
     9
 10
11790.0
 20
8555.0
 30
0.0
 11
11707.409992
 21
8555.0
 31
0.0
  0
LINE
  5
CC
  8
0
  6
BYBLOCK
 62
     9
 10
11708.409992
 20
8485.0
 30
0.0
 11
11708.409992
 21
8465.0
 31
0.0
  0
LINE
  5
CD
  8
0
  6
BYBLOCK
 62
     9
 10
11708.409992
 20
8575.0
 30
0.0
 11
11708.409992
 21
8595.0
 31
0.0
  0
TEXT
  5
CE
  8
0
  6
BYBLOCK
 62
    11
 10
11726.224299
 20
8401.782675
 30
0.0
 40
35.0
  1
50
 50
90.0
  0
LINE
  5
CF
  8
0
  6
BYBLOCK
 62
     9
 10
11708.409992
 20
8505.0
 30
0.0
 11
11708.409992
 21
8555.0
 31
0.0
  0
SOLID
  5
D0
  8
0
  6
BYBLOCK
 62
     9
 10
11705.076658
 20
8485.0
 30
0.0
 11
11711.743325
 21
8485.0
 31
0.0
 12
11708.409992
 22
8505.0
 32
0.0
 13
11708.409992
 23
8505.0
 33
0.0
  0
SOLID
  5
D1
  8
0
  6
BYBLOCK
 62
     9
 10
11705.076658
 20
8575.0
 30
0.0
 11
11711.743325
 21
8575.0
 31
0.0
 12
11708.409992
 22
8555.0
 32
0.0
 13
11708.409992
 23
8555.0
 33
0.0
  0
POINT
  5
D2
  8
DEFPOINTS
  6
BYBLOCK
 62
     0
 10
11979.0
 20
8505.0
 30
0.0
  0
POINT
  5
D3
  8
DEFPOINTS
  6
BYBLOCK
 62
     0
 10
11800.0
 20
8555.0
 30
0.0
  0
POINT
  5
D4
  8
DEFPOINTS
  6
BYBLOCK
 62
     0
 10
11708.409992
 20
8555.0
 30
0.0
  0
ENDBLK
  5
D6
  8
0
  0
BLOCK
  8
0
  2
*D12
 70
     1
 10
0.0
 20
0.0
 30
0.0
  3
*D12
  1

  0
LINE
  5
D9
  8
0
  6
BYBLOCK
 62
     9
 10
12260.0
 20
8700.0
 30
0.0
 11
12370.475996
 21
8700.0
 31
0.0
  0
LINE
  5
DA
  8
0
  6
BYBLOCK
 62
     9
 10
12200.0
 20
8735.0
 30
0.0
 11
12370.475996
 21
8735.0
 31
0.0
  0
LINE
  5
DB
  8
0
  6
BYBLOCK
 62
     9
 10
12369.475996
 20
8680.0
 30
0.0
 11
12369.475996
 21
8660.0
 31
0.0
  0
LINE
  5
DC
  8
0
  6
BYBLOCK
 62
     9
 10
12369.475996
 20
8755.0
 30
0.0
 11
12369.475996
 21
8775.0
 31
0.0
  0
TEXT
  5
DD
  8
0
  6
BYBLOCK
 62
    11
 10
12388.813801
 20
8775.1
 30
0.0
 40
35.0
  1
35
 50
90.0
  0
LINE
  5
DE
  8
0
  6
BYBLOCK
 62
     9
 10
12369.475996
 20
8700.0
 30
0.0
 11
12369.475996
 21
8735.0
 31
0.0
  0
SOLID
  5
DF
  8
0
  6
BYBLOCK
 62
     9
 10
12366.142662
 20
8680.0
 30
0.0
 11
12372.809329
 21
8680.0
 31
0.0
 12
12369.475996
 22
8700.0
 32
0.0
 13
12369.475996
 23
8700.0
 33
0.0
  0
SOLID
  5
E0
  8
0
  6
BYBLOCK
 62
     9
 10
12366.142662
 20
8755.0
 30
0.0
 11
12372.809329
 21
8755.0
 31
0.0
 12
12369.475996
 22
8735.0
 32
0.0
 13
12369.475996
 23
8735.0
 33
0.0
  0
POINT
  5
E1
  8
DEFPOINTS
  6
BYBLOCK
 62
     0
 10
12250.0
 20
8700.0
 30
0.0
  0
POINT
  5
E2
  8
DEFPOINTS
  6
BYBLOCK
 62
     0
 10
12190.0
 20
8735.0
 30
0.0
  0
POINT
  5
E3
  8
DEFPOINTS
  6
BYBLOCK
 62
     0
 10
12369.475996
 20
8735.0
 30
0.0
  0
ENDBLK
  5
E5
  8
0
  0
BLOCK
  8
0
  2
*D13
 70
     1
 10
0.0
 20
0.0
 30
0.0
  3
*D13
  1

  0
LINE
  5
E8
  8
0
  6
BYBLOCK
 62
     9
 10
12210.0
 20
8555.0
 30
0.0
 11
12304.318498
 21
8555.0
 31
0.0
  0
LINE
  5
E9
  8
0
  6
BYBLOCK
 62
     9
 10
12260.0
 20
8700.0
 30
0.0
 11
12304.318498
 21
8700.0
 31
0.0
  0
LINE
  5
EA
  8
0
  6
BYBLOCK
 62
     9
 10
12303.318498
 20
8575.0
 30
0.0
 11
12303.318498
 21
8582.0
 31
0.0
  0
LINE
  5
EB
  8
0
  6
BYBLOCK
 62
     9
 10
12303.318498
 20
8680.0
 30
0.0
 11
12303.318498
 21
8673.0
 31
0.0
  0
TEXT
  5
EC
  8
0
  6
BYBLOCK
 62
    11
 10
12320.818498
 20
8586.666667
 30
0.0
 40
35.0
  1
145
 50
90.0
  0
SOLID
  5
ED
  8
0
  6
BYBLOCK
 62
     9
 10
12299.985165
 20
8575.0
 30
0.0
 11
12306.651832
 21
8575.0
 31
0.0
 12
12303.318498
 22
8555.0
 32
0.0
 13
12303.318498
 23
8555.0
 33
0.0
  0
SOLID
  5
EE
  8
0
  6
BYBLOCK
 62
     9
 10
12299.985165
 20
8680.0
 30
0.0
 11
12306.651832
 21
8680.0
 31
0.0
 12
12303.318498
 22
8700.0
 32
0.0
 13
12303.318498
 23
8700.0
 33
0.0
  0
POINT
  5
EF
  8
DEFPOINTS
  6
BYBLOCK
 62
     0
 10
12200.0
 20
8555.0
 30
0.0
  0
POINT
  5
F0
  8
DEFPOINTS
  6
BYBLOCK
 62
     0
 10
12250.0
 20
8700.0
 30
0.0
  0
POINT
  5
F1
  8
DEFPOINTS
  6
BYBLOCK
 62
     0
 10
12303.318498
 20
8700.0
 30
0.0
  0
ENDBLK
  5
F3
  8
0
  0
BLOCK
  8
0
  2
*D14
 70
     1
 10
0.0
 20
0.0
 30
0.0
  3
*D14
  1

  0
LINE
  5
69
  8
0
  6
BYBLOCK
 62
     9
 10
12260.0
 20
8700.0
 30
0.0
 11
12478.976934
 21
8700.0
 31
0.0
  0
LINE
  5
6A
  8
0
  6
BYBLOCK
 62
     9
 10
12260.0
 20
8760.0
 30
0.0
 11
12478.976934
 21
8760.0
 31
0.0
  0
LINE
  5
6B
  8
0
  6
BYBLOCK
 62
     9
 10
12477.976934
 20
8720.0
 30
0.0
 11
12477.976934
 21
8740.0
 31
0.0
  0
TEXT
  5
6C
  8
0
  6
BYBLOCK
 62
    11
 10
12524.476934
 20
8703.75
 30
0.0
 40
35.0
  1
60
 50
90.0
  0
SOLID
  5
6D
  8
0
  6
BYBLOCK
 62
     9
 10
12474.643601
 20
8720.0
 30
0.0
 11
12481.310268
 21
8720.0
 31
0.0
 12
12477.976934
 22
8700.0
 32
0.0
 13
12477.976934
 23
8700.0
 33
0.0
  0
SOLID
  5
6E
  8
0
  6
BYBLOCK
 62
     9
 10
12474.643601
 20
8740.0
 30
0.0
 11
12481.310268
 21
8740.0
 31
0.0
 12
12477.976934
 22
8760.0
 32
0.0
 13
12477.976934
 23
8760.0
 33
0.0
  0
POINT
  5
6F
  8
DEFPOINTS
  6
BYBLOCK
 62
     0
 10
12250.0
 20
8700.0
 30
0.0
  0
POINT
  5
70
  8
DEFPOINTS
  6
BYBLOCK
 62
     0
 10
12250.0
 20
8760.0
 30
0.0
  0
POINT
  5
71
  8
DEFPOINTS
  6
BYBLOCK
 62
     0
 10
12477.976934
 20
8760.0
 30
0.0
  0
ENDBLK
  5
73
  8
0
  0
ENDSEC
  0
SECTION
  2
ENTITIES
  0
DIMENSION
  5
20
  8
TEAM-MAS
  2
*D2
 10
430.623843
 20
700.0
 30
0.0
 11
430.623843
 21
350.0
 31
0.0
 12
-12000.0
 22
-8000.0
 32
0.0
 13
0.0
 23
0.0
 33
0.0
 14
250.0
 24
700.0
 34
0.0
 50
90.0
  0
DIMENSION
  5
2F
  8
TEAM-MAS
  2
*D3
 10
477.976934
 20
700.0
 30
0.0
 11
477.976934
 21
350.0
 31
0.0
 12
-12000.0
 22
-8000.0
 32
0.0
  1
650-800
 13
0.0
 23
0.0
 33
0.0
 14
250.0
 24
700.0
 34
0.0
 50
90.0
  0
DIMENSION
  5
3D
  8
TEAM-MAS
  2
*D6
 10
523.523928
 20
760.0
 30
0.0
 11
523.523928
 21
380.0
 31
0.0
 12
-12000.0
 22
-8000.0
 32
0.0
 13
0.0
 23
0.0
 33
0.0
 14
250.0
 24
760.0
 34
0.0
 50
90.0
  0
DIMENSION
  5
4B
  8
TEAM-MAS
  2
*D7
 10
570.877019
 20
900.0
 30
0.0
 11
570.877019
 21
450.0
 31
0.0
 12
-12000.0
 22
-8000.0
 32
0.0
 13
0.0
 23
0.0
 33
0.0
 14
76.5
 24
900.0
 34
0.0
 50
90.0
  0
DIMENSION
  5
59
  8
TEAM-MAS
  2
*D8
 10
620.037617
 20
900.0
 30
0.0
 11
620.037617
 21
450.0
 31
0.0
 12
-12000.0
 22
-8000.0
 32
0.0
  1
850-1000
 13
0.0
 23
0.0
 33
0.0
 14
76.5
 24
900.0
 34
0.0
 50
90.0
  0
DIMENSION
  5
67
  8
TEAM-MAS
  2
*D14
 10
477.976934
 20
760.0
 30
0.0
 11
506.976934
 21
730.0
 31
0.0
 12
-12000.0
 22
-8000.0
 32
0.0
 13
250.0
 23
700.0
 33
0.0
 14
250.0
 24
760.0
 34
0.0
 50
90.0
  0
DIMENSION
  5
74
  8
TEAM-MAS
  2
*D0
 10
310.623843
 20
400.0
 30
0.0
 11
310.623843
 21
200.0
 31
0.0
 12
-12000.0
 22
-8000.0
 32
0.0
 13
0.0
 23
0.0
 33
0.0
 14
80.0
 24
400.0
 34
0.0
 50
90.0
  0
DIMENSION
  5
82
  8
TEAM-MAS
  2
*D1
 10
370.623843
 20
400.0
 30
0.0
 11
370.623843
 21
200.0
 31
0.0
 12
-12000.0
 22
-8000.0
 32
0.0
  1
300-450
 13
0.0
 23
0.0
 33
0.0
 14
80.0
 24
400.0
 34
0.0
 50
90.0
  0
DIMENSION
  5
90
  8
TEAM-MAS
  2
*D4
 10
190.0
 20
948.185569
 30
0.0
 11
0.0
 21
948.185569
 31
0.0
 12
-12000.0
 22
-8000.0
 32
0.0
 13
-190.0
 23
735.0
 33
0.0
 14
190.0
 24
735.0
 34
0.0
  0
DIMENSION
  5
9E
  8
TEAM-MAS
  2
*D5
 10
369.475996
 20
700.0
 30
0.0
 11
369.475996
 21
616.0
 31
0.0
 12
-12000.0
 22
-8000.0
 32
0.0
 13
31.0
 23
532.0
 33
0.0
 14
250.0
 24
700.0
 34
0.0
 50
90.0
1001
ACAD
1000
DSTYLE
1002
{
1070
    40
1040
1.0
1002
}
  0
DIMENSION
  5
AC
  8
TEAM-MAS
  2
*D9
 10
-291.590008
 20
760.0
 30
0.0
 11
-291.590008
 21
657.5
 31
0.0
 12
-12000.0
 22
-8000.0
 32
0.0
 13
-200.0
 23
555.0
 33
0.0
 14
-250.0
 24
760.0
 34
0.0
 50
90.0
1001
ACAD
1000
DSTYLE
1002
{
1070
    78
1070
     0
1070
    40
1040
1.0
1002
}
  0
DIMENSION
  5
BA
  8
TEAM-MAS
  2
*D10
 10
76.5
 20
839.431446
 30
0.0
 11
0.0
 21
839.431446
 31
0.0
 12
-12000.0
 22
-8000.0
 32
0.0
 70
   128
 13
-76.5
 23
900.0
 33
0.0
 14
76.5
 24
900.0
 34
0.0
  0
DIMENSION
  5
C8
  8
TEAM-MAS
  2
*D11
 10
-291.590008
 20
555.0
 30
0.0
 11
-291.275701
 21
428.032675
 31
0.0
 12
-12000.0
 22
-8000.0
 32
0.0
 70
   128
 13
-21.0
 23
505.0
 33
0.0
 14
-200.0
 24
555.0
 34
0.0
 50
90.0
1001
ACAD
1000
DSTYLE
1002
{
1070
    40
1040
1.0
1002
}
  0
DIMENSION
  5
D7
  8
TEAM-MAS
  2
*D12
 10
369.475996
 20
735.0
 30
0.0
 11
371.313801
 21
804.266667
 31
0.0
 12
-12000.0
 22
-8000.0
 32
0.0
 70
   128
 13
250.0
 23
700.0
 33
0.0
 14
190.0
 24
735.0
 34
0.0
 50
90.0
  0
DIMENSION
  5
E6
  8
TEAM-MAS
  2
*D13
 10
303.318498
 20
700.0
 30
0.0
 11
303.318498
 21
627.5
 31
0.0
 12
-12000.0
 22
-8000.0
 32
0.0
 70
   128
 13
200.0
 23
555.0
 33
0.0
 14
250.0
 24
700.0
 34
0.0
 50
90.0
1001
ACAD
1000
DSTYLE
1002
{
1070
    40
1040
1.0
1002
}
  0
CIRCLE
  5
F4
  8
TEAM-INSP
 10
0.0
 20
0.0
 30
0.0
 40
10.0
  0
TEXT
  5
F6
  8
TEAM-TXT
 10
-113.427831
 20
718.963552
 30
0.0
 40
30.0
  1
team 411005
 41
0.8
 51
15.0
  7
TEAM
  0
LINE
  5
F9
  8
TEAM-BODY
 10
250.0
 20
760.0
 30
0.0
 11
-250.0
 21
760.0
 31
0.0
  0
LINE
  5
FB
  8
TEAM-BODY
 10
250.0
 20
700.0
 30
0.0
 11
-250.0
 21
700.0
 31
0.0
  0
LINE
  5
FC
  8
TEAM-BODY
 10
250.0
 20
670.0
 30
0.0
 11
-250.0
 21
670.0
 31
0.0
  0
LINE
  5
FD
  8
TEAM-BODY
 10
-200.0
 20
555.0
 30
0.0
 11
200.0
 21
555.0
 31
0.0
  0
CIRCLE
  5
FE
  8
TEAM-COLD
 10
76.5
 20
900.0
 30
0.0
 40
15.0
  0
LINE
  5
100
  8
TEAM-AXE
 10
56.5
 20
900.0
 30
0.0
 11
96.5
 21
900.0
 31
0.0
  0
LINE
  5
103
  8
TEAM-AXE
 10
76.5
 20
880.0
 30
0.0
 11
76.5
 21
920.0
 31
0.0
  0
CIRCLE
  5
104
  8
TEAM-WARM
 10
-76.5
 20
900.0
 30
0.0
 40
15.0
  0
LINE
  5
106
  8
TEAM-AXE
 10
-96.5
 20
900.0
 30
0.0
 11
-56.5
 21
900.0
 31
0.0
  0
LINE
  5
107
  8
TEAM-AXE
 10
-76.5
 20
880.0
 30
0.0
 11
-76.5
 21
920.0
 31
0.0
  0
LINE
  5
108
  8
TEAM-AXE
 10
-180.0
 20
735.0
 30
0.0
 11
-200.0
 21
735.0
 31
0.0
  0
CIRCLE
  5
109
  8
TEAM-HIDE
 10
-190.0
 20
735.0
 30
0.0
 40
5.0
  0
LINE
  5
10C
  8
TEAM-AXE
 10
-190.0
 20
745.0
 30
0.0
 11
-190.0
 21
725.0
 31
0.0
  0
CIRCLE
  5
10D
  8
TEAM-KAN
 10
80.0
 20
400.0
 30
0.0
 40
20.0
  0
LINE
  5
10F
  8
TEAM-AXE
 10
50.0
 20
400.0
 30
0.0
 11
110.0
 21
400.0
 31
0.0
  0
LINE
  5
110
  8
TEAM-DET2
 10
-41.0
 20
532.0
 30
0.0
 11
41.0
 21
532.0
 31
0.0
  0
LINE
  5
112
  8
TEAM-DET2
 10
-41.0
 20
532.0
 30
0.0
 11
-41.0
 21
555.0
 31
0.0
  0
LINE
  5
113
  8
TEAM-DET2
 10
41.0
 20
532.0
 30
0.0
 11
41.0
 21
555.0
 31
0.0
  0
LINE
  5
114
  8
TEAM-HIDE
 10
-21.0
 20
555.0
 30
0.0
 11
-21.0
 21
505.0
 31
0.0
  0
LINE
  5
115
  8
TEAM-HIDE
 10
-21.0
 20
505.0
 30
0.0
 11
21.0
 21
505.0
 31
0.0
  0
LINE
  5
116
  8
TEAM-HIDE
 10
21.0
 20
555.0
 30
0.0
 11
21.0
 21
505.0
 31
0.0
  0
LINE
  5
117
  8
TEAM-BODY
 10
-220.0
 20
670.0
 30
0.0
 11
-220.0
 21
575.0
 31
0.0
  0
ARC
  5
118
  8
TEAM-BODY
 10
-200.0
 20
575.0
 30
0.0
 40
20.0
 50
180.0
 51
270.0
  0
LINE
  5
119
  8
TEAM-DET1
 10
25.0
 20
555.0
 30
0.0
 11
25.0
 21
501.0
 31
0.0
  0
LINE
  5
11B
  8
TEAM-DET1
 10
-25.0
 20
555.0
 30
0.0
 11
-25.0
 21
501.0
 31
0.0
  0
LINE
  5
11C
  8
TEAM-DET1
 10
-25.0
 20
501.0
 30
0.0
 11
25.0
 21
501.0
 31
0.0
  0
LINE
  5
11D
  8
TEAM-AXE
 10
80.0
 20
370.0
 30
0.0
 11
80.0
 21
430.0
 31
0.0
  0
ARC
  5
11E
  8
TEAM-KAN
 10
40.0
 20
365.980383
 30
0.0
 40
40.0
 50
180.0
 51
0.0
  0
LINE
  5
11F
  8
TEAM-KAN
 10
80.0
 20
370.0
 30
0.0
 11
80.0
 21
365.980383
 31
0.0
  0
LINE
  5
120
  8
TEAM-AXE
 10
-110.0
 20
400.0
 30
0.0
 11
-50.0
 21
400.0
 31
0.0
  0
CIRCLE
  5
121
  8
TEAM-HIDE
 10
-80.0
 20
400.0
 30
0.0
 40
20.0
  0
LINE
  5
122
  8
TEAM-AXE
 10
-80.0
 20
370.0
 30
0.0
 11
-80.0
 21
430.0
 31
0.0
  0
LINE
  5
123
  8
TEAM-HIDE
 10
-80.0
 20
370.0
 30
0.0
 11
-80.0
 21
365.980383
 31
0.0
  0
ARC
  5
124
  8
TEAM-HIDE
 10
-40.0
 20
365.980383
 30
0.0
 40
40.0
 50
180.0
 51
0.0
  0
LINE
  5
125
  8
TEAM-KAN
 10
0.0
 20
505.0
 30
0.0
 11
0.0
 21
365.980383
 31
0.0
  0
LINE
  5
126
  8
TEAM-AXE
 10
0.0
 20
750.0
 30
0.0
 11
0.0
 21
505.0
 31
0.0
  0
LINE
  5
127
  8
TEAM-BODY
 10
-250.0
 20
760.0
 30
0.0
 11
-250.0
 21
670.0
 31
0.0
  0
CIRCLE
  5
128
  8
TEAM-HIDE
 10
190.0
 20
735.0
 30
0.0
 40
5.0
  0
LINE
  5
129
  8
TEAM-AXE
 10
200.0
 20
735.0
 30
0.0
 11
180.0
 21
735.0
 31
0.0
  0
LINE
  5
12A
  8
TEAM-AXE
 10
190.0
 20
745.0
 30
0.0
 11
190.0
 21
725.0
 31
0.0
  0
ARC
  5
12B
  8
TEAM-BODY
 10
200.0
 20
575.0
 30
0.0
 40
20.0
 50
270.0
 51
0.0
  0
LINE
  5
12C
  8
TEAM-BODY
 10
220.0
 20
575.0
 30
0.0
 11
220.0
 21
670.0
 31
0.0
  0
LINE
  5
12D
  8
TEAM-BODY
 10
250.0
 20
670.0
 30
0.0
 11
250.0
 21
760.0
 31
0.0
  0
ENDSEC
  0
EOF
