  0
SECTION
  2
HEADER
  9
$ACADVER
  1
AC1009
  9
$INSBASE
 10
0.0
 20
0.0
 30
0.0
  9
$EXTMIN
 10
-275.019093
 20
-450.017269
 30
-0.001526
  9
$EXTMAX
 10
352.137762
 20
115.920126
 30
0.0
  9
$LIMMIN
 10
-275.019093
 20
-450.017269
  9
$LIMMAX
 10
352.137762
 20
115.920126
  9
$ORTHOMODE
 70
     1
  9
$REGENMODE
 70
     1
  9
$FILLMODE
 70
     1
  9
$QTEXTMODE
 70
     0
  9
$MIRRTEXT
 70
     0
  9
$DRAGMODE
 70
     2
  9
$LTSCALE
 40
50.0
  9
$OSMODE
 70
     0
  9
$ATTMODE
 70
     1
  9
$TEXTSIZE
 40
200.0
  9
$TRACEWID
 40
1.0
  9
$TEXTSTYLE
  7
STANDARD
  9
$CLAYER
  8
TEAM-MAS
  9
$CELTYPE
  6
BYLAYER
  9
$CECOLOR
 62
   256
  9
$DIMSCALE
 40
1.0
  9
$DIMASZ
 40
20.0
  9
$DIMEXO
 40
10.0
  9
$DIMDLI
 40
1.0
  9
$DIMRND
 40
0.0
  9
$DIMDLE
 40
0.0
  9
$DIMEXE
 40
1.0
  9
$DIMTP
 40
0.0
  9
$DIMTM
 40
0.0
  9
$DIMTXT
 40
35.0
  9
$DIMCEN
 40
1.0
  9
$DIMTSZ
 40
0.0
  9
$DIMTOL
 70
     0
  9
$DIMLIM
 70
     0
  9
$DIMTIH
 70
     0
  9
$DIMTOH
 70
     0
  9
$DIMSE1
 70
     0
  9
$DIMSE2
 70
     0
  9
$DIMTAD
 70
     0
  9
$DIMZIN
 70
     0
  9
$DIMBLK
  1

  9
$DIMASO
 70
     1
  9
$DIMSHO
 70
     0
  9
$DIMPOST
  1

  9
$DIMAPOST
  1

  9
$DIMALT
 70
     0
  9
$DIMALTD
 70
     2
  9
$DIMALTF
 40
25.4
  9
$DIMLFAC
 40
1.0
  9
$DIMTOFL
 70
     0
  9
$DIMTVP
 40
0.0
  9
$DIMTIX
 70
     0
  9
$DIMSOXD
 70
     0
  9
$DIMSAH
 70
     0
  9
$DIMBLK1
  1

  9
$DIMBLK2
  1

  9
$DIMSTYLE
  2
TEAM
  9
$DIMCLRD
 70
     9
  9
$DIMCLRE
 70
     9
  9
$DIMCLRT
 70
    11
  9
$DIMTFAC
 40
1.0
  9
$DIMGAP
 40
15.0
  9
$LUNITS
 70
     2
  9
$LUPREC
 70
     1
  9
$SKETCHINC
 40
1.0
  9
$FILLETRAD
 40
30.0
  9
$AUNITS
 70
     0
  9
$AUPREC
 70
     0
  9
$MENU
  1
ROPLANS
  9
$ELEVATION
 40
0.0
  9
$PELEVATION
 40
0.0
  9
$THICKNESS
 40
0.0
  9
$LIMCHECK
 70
     0
  9
$BLIPMODE
 70
     1
  9
$CHAMFERA
 40
0.0
  9
$CHAMFERB
 40
0.0
  9
$SKPOLY
 70
     0
  9
$TDCREATE
 40
2450392.957851
  9
$TDUPDATE
 40
2455716.010657
  9
$TDINDWG
 40
2.41886
  9
$TDUSRTIMER
 40
2.41886
  9
$USRTIMER
 70
     1
  9
$ANGBASE
 50
0.0
  9
$ANGDIR
 70
     0
  9
$PDMODE
 70
     0
  9
$PDSIZE
 40
0.0
  9
$PLINEWID
 40
0.0
  9
$COORDS
 70
     2
  9
$SPLFRAME
 70
     0
  9
$SPLINETYPE
 70
     6
  9
$SPLINESEGS
 70
     8
  9
$ATTDIA
 70
     0
  9
$ATTREQ
 70
     0
  9
$HANDLING
 70
     1
  9
$HANDSEED
  5
189
  9
$SURFTAB1
 70
    36
  9
$SURFTAB2
 70
    36
  9
$SURFTYPE
 70
     6
  9
$SURFU
 70
     6
  9
$SURFV
 70
     6
  9
$UCSNAME
  2

  9
$UCSORG
 10
0.0
 20
0.0
 30
0.0
  9
$UCSXDIR
 10
1.0
 20
0.0
 30
0.0
  9
$UCSYDIR
 10
0.0
 20
1.0
 30
0.0
  9
$PUCSNAME
  2

  9
$PUCSORG
 10
0.0
 20
0.0
 30
0.0
  9
$PUCSXDIR
 10
1.0
 20
0.0
 30
0.0
  9
$PUCSYDIR
 10
0.0
 20
1.0
 30
0.0
  9
$USERI1
 70
     0
  9
$USERI2
 70
     0
  9
$USERI3
 70
     0
  9
$USERI4
 70
     0
  9
$USERI5
 70
     0
  9
$USERR1
 40
0.0
  9
$USERR2
 40
0.0
  9
$USERR3
 40
0.0
  9
$USERR4
 40
0.0
  9
$USERR5
 40
0.0
  9
$WORLDVIEW
 70
     1
  9
$SHADEDGE
 70
     0
  9
$SHADEDIF
 70
    70
  9
$TILEMODE
 70
     1
  9
$MAXACTVP
 70
    16
  9
$PLIMCHECK
 70
     0
  9
$PEXTMIN
 10
-0.805942
 20
0.005011
 30
0.0
  9
$PEXTMAX
 10
20.250094
 20
11.356329
 30
0.0
  9
$PLIMMIN
 10
0.0
 20
0.0
  9
$PLIMMAX
 10
12.0
 20
9.0
  9
$UNITMODE
 70
     0
  9
$VISRETAIN
 70
     0
  9
$PLINEGEN
 70
     0
  9
$PSLTSCALE
 70
     0
  0
ENDSEC
  0
SECTION
  2
TABLES
  0
TABLE
  2
VPORT
 70
     2
  0
VPORT
  2
*ACTIVE
 70
     0
 10
0.0
 20
0.0
 11
1.0
 21
1.0
 12
38.559335
 22
-167.048571
 13
0.0
 23
0.0
 14
1.0
 24
1.0
 15
50.0
 25
50.0
 16
0.0
 26
0.0
 36
1.0
 17
0.0
 27
0.0
 37
0.0
 40
569.412957
 41
1.865779
 42
50.0
 43
0.0
 44
0.0
 50
0.0
 51
0.0
 71
     0
 72
   100
 73
     1
 74
     1
 75
     0
 76
     0
 77
     0
 78
     0
  0
ENDTAB
  0
TABLE
  2
LTYPE
 70
     2
  0
LTYPE
  2
CONTINUOUS
 70
     0
  3
Solid Line
 72
    65
 73
     0
 40
0.0
  0
LTYPE
  2
31
 70
     0
  3

 72
    65
 73
     4
 40
2.1
 49
1.5
 49
-0.3
 49
0.0
 49
-0.3
  0
ENDTAB
  0
TABLE
  2
LAYER
 70
     8
  0
LAYER
  2
0
 70
     0
 62
     7
  6
CONTINUOUS
  0
LAYER
  2
DEFPOINTS
 70
     0
 62
     7
  6
CONTINUOUS
  0
LAYER
  2
TEAM-BODY
 70
     0
 62
     2
  6
CONTINUOUS
  0
LAYER
  2
TEAM-AXE
 70
     0
 62
    10
  6
31
  0
LAYER
  2
TEAM-MAS
 70
     0
 62
     9
  6
CONTINUOUS
  0
LAYER
  2
TEAM-TXT
 70
     0
 62
    11
  6
CONTINUOUS
  0
LAYER
  2
TEAM-DET1
 70
     0
 62
     4
  6
CONTINUOUS
  0
LAYER
  2
TEAM-INSP
 70
     0
 62
     5
  6
CONTINUOUS
  0
ENDTAB
  0
TABLE
  2
STYLE
 70
     2
  0
STYLE
  2
STANDARD
 70
     0
 40
0.0
 41
1.0
 50
0.0
 71
     0
 42
200.0
  3
txt
  4

  0
STYLE
  2
TEAM
 70
     0
 40
0.0
 41
0.8
 50
15.0
 71
     0
 42
7.0
  3
ROMANS.shx
  4

  0
ENDTAB
  0
TABLE
  2
VIEW
 70
     0
  0
ENDTAB
  0
TABLE
  2
UCS
 70
     0
  0
ENDTAB
  0
TABLE
  2
APPID
 70
     1
  0
APPID
  2
ACAD
 70
     0
  0
ENDTAB
  0
TABLE
  2
DIMSTYLE
 70
     1
  0
DIMSTYLE
  2
TEAM
 70
     0
  3

  4

  5

  6

  7

 40
1.0
 41
20.0
 42
10.0
 43
1.0
 44
1.0
 45
0.0
 46
0.0
 47
0.0
 48
0.0
140
35.0
141
1.0
142
0.0
143
25.4
144
1.0
145
0.0
146
1.0
147
15.0
 71
     0
 72
     0
 73
     0
 74
     0
 75
     0
 76
     0
 77
     0
 78
     0
170
     0
171
     2
172
     0
173
     0
174
     0
175
     0
176
     9
177
     9
178
    11
  0
ENDTAB
  0
ENDSEC
  0
SECTION
  2
BLOCKS
  0
BLOCK
  8
0
  2
$MODEL_SPACE
 70
     0
 10
0.0
 20
0.0
 30
0.0
  3
$MODEL_SPACE
  1

  0
ENDBLK
  5
118
  8
0
  0
BLOCK
 67
     1
  8
0
  2
$PAPER_SPACE
 70
     0
 10
0.0
 20
0.0
 30
0.0
  3
$PAPER_SPACE
  1

  0
ENDBLK
  5
116
 67
     1
  8
0
  0
BLOCK
  8
0
  2
*D0
 70
     1
 10
0.0
 20
0.0
 30
0.0
  3
*D0
  1

  0
LINE
  5
3F
  8
0
  6
BYBLOCK
 62
     9
 10
4248.0
 20
8000.0
 30
0.0
 11
4335.922804
 21
8000.0
 31
0.0
  0
LINE
  5
40
  8
0
  6
BYBLOCK
 62
     9
 10
4010.0
 20
7550.0
 30
0.0
 11
4335.922804
 21
7550.0
 31
0.0
  0
LINE
  5
41
  8
0
  6
BYBLOCK
 62
     9
 10
4334.922804
 20
7980.0
 30
0.0
 11
4334.922804
 21
7823.26378
 31
0.0
  0
LINE
  5
42
  8
0
  6
BYBLOCK
 62
     9
 10
4334.922804
 20
7570.0
 30
0.0
 11
4334.922804
 21
7726.73622
 31
0.0
  0
SOLID
  5
43
  8
0
  6
BYBLOCK
 62
     9
 10
4331.58947
 20
7980.0
 30
0.0
 11
4338.256137
 21
7980.0
 31
0.0
 12
4334.922804
 22
8000.0
 32
0.0
 13
4334.922804
 23
8000.0
 33
0.0
  0
SOLID
  5
44
  8
0
  6
BYBLOCK
 62
     9
 10
4331.58947
 20
7570.0
 30
0.0
 11
4338.256137
 21
7570.0
 31
0.0
 12
4334.922804
 22
7550.0
 32
0.0
 13
4334.922804
 23
7550.0
 33
0.0
  0
TEXT
  5
45
  8
0
  6
BYBLOCK
 62
    11
 10
4352.422804
 20
7736.48622
 30
0.0
 40
35.0
  1
450
 50
90.0
  0
POINT
  5
46
  8
DEFPOINTS
  6
BYBLOCK
 62
     0
 10
4238.0
 20
8000.0
 30
0.0
  0
POINT
  5
47
  8
DEFPOINTS
  6
BYBLOCK
 62
     0
 10
4000.0
 20
7550.0
 30
0.0
  0
POINT
  5
48
  8
DEFPOINTS
  6
BYBLOCK
 62
     0
 10
4334.922804
 20
7550.0
 30
0.0
  0
ENDBLK
  5
4A
  8
0
  0
BLOCK
  8
0
  2
*D1
 70
     1
 10
0.0
 20
0.0
 30
0.0
  3
*D1
  1

  0
LINE
  5
31
  8
0
  6
BYBLOCK
 62
     9
 10
3725.0
 20
7765.328133
 30
0.0
 11
3725.0
 21
8101.139075
 31
0.0
  0
LINE
  5
32
  8
0
  6
BYBLOCK
 62
     9
 10
4275.0
 20
7770.656266
 30
0.0
 11
4275.0
 21
8101.139075
 31
0.0
  0
LINE
  5
33
  8
0
  6
BYBLOCK
 62
     9
 10
3745.0
 20
8100.139075
 30
0.0
 11
3953.48622
 21
8100.139075
 31
0.0
  0
LINE
  5
34
  8
0
  6
BYBLOCK
 62
     9
 10
4255.0
 20
8100.139075
 30
0.0
 11
4046.51378
 21
8100.139075
 31
0.0
  0
SOLID
  5
35
  8
0
  6
BYBLOCK
 62
     9
 10
3745.0
 20
8103.472409
 30
0.0
 11
3745.0
 21
8096.805742
 31
0.0
 12
3725.0
 22
8100.139075
 32
0.0
 13
3725.0
 23
8100.139075
 33
0.0
  0
SOLID
  5
36
  8
0
  6
BYBLOCK
 62
     9
 10
4255.0
 20
8103.472409
 30
0.0
 11
4255.0
 21
8096.805742
 31
0.0
 12
4275.0
 22
8100.139075
 32
0.0
 13
4275.0
 23
8100.139075
 33
0.0
  0
TEXT
  5
37
  8
0
  6
BYBLOCK
 62
    11
 10
3963.23622
 20
8082.639075
 30
0.0
 40
35.0
  1
550
  0
POINT
  5
38
  8
DEFPOINTS
  6
BYBLOCK
 62
     0
 10
3725.0
 20
7755.328133
 30
0.0
  0
POINT
  5
39
  8
DEFPOINTS
  6
BYBLOCK
 62
     0
 10
4275.0
 20
7760.656266
 30
0.0
  0
POINT
  5
3A
  8
DEFPOINTS
  6
BYBLOCK
 62
     0
 10
4275.0
 20
8100.139075
 30
0.0
  0
ENDBLK
  5
3C
  8
0
  0
BLOCK
  8
0
  2
*D2
 70
     1
 10
0.0
 20
0.0
 30
0.0
  3
*D2
  1

  0
LINE
  5
22
  8
0
  6
BYBLOCK
 62
     9
 10
3787.0
 20
8030.0
 30
0.0
 11
3787.0
 21
8059.220633
 31
0.0
  0
LINE
  5
23
  8
0
  6
BYBLOCK
 62
     9
 10
4213.0
 20
8030.0
 30
0.0
 11
4213.0
 21
8059.220633
 31
0.0
  0
LINE
  5
24
  8
0
  6
BYBLOCK
 62
     9
 10
3807.0
 20
8058.220633
 30
0.0
 11
3950.88189
 21
8058.220633
 31
0.0
  0
LINE
  5
25
  8
0
  6
BYBLOCK
 62
     9
 10
4193.0
 20
8058.220633
 30
0.0
 11
4049.11811
 21
8058.220633
 31
0.0
  0
SOLID
  5
26
  8
0
  6
BYBLOCK
 62
     9
 10
3807.0
 20
8061.553966
 30
0.0
 11
3807.0
 21
8054.887299
 31
0.0
 12
3787.0
 22
8058.220633
 32
0.0
 13
3787.0
 23
8058.220633
 33
0.0
  0
SOLID
  5
27
  8
0
  6
BYBLOCK
 62
     9
 10
4193.0
 20
8061.553966
 30
0.0
 11
4193.0
 21
8054.887299
 31
0.0
 12
4213.0
 22
8058.220633
 32
0.0
 13
4213.0
 23
8058.220633
 33
0.0
  0
TEXT
  5
28
  8
0
  6
BYBLOCK
 62
    11
 10
3960.63189
 20
8040.720633
 30
0.0
 40
35.0
  1
426
  0
POINT
  5
29
  8
DEFPOINTS
  6
BYBLOCK
 62
     0
 10
3787.0
 20
8020.0
 30
0.0
  0
POINT
  5
2B
  8
DEFPOINTS
  6
BYBLOCK
 62
     0
 10
4213.0
 20
8020.0
 30
0.0
  0
POINT
  5
2C
  8
DEFPOINTS
  6
BYBLOCK
 62
     0
 10
4213.0
 20
8058.220633
 30
0.0
  0
ENDBLK
  5
2E
  8
0
  0
ENDSEC
  0
SECTION
  2
ENTITIES
  0
DIMENSION
  5
20
  8
TEAM-MAS
  2
*D2
 10
213.0
 20
58.220633
 30
0.0
 11
0.0
 21
58.220633
 31
0.0
 12
-4000.0
 22
-8000.0
 32
0.0
 13
-213.0
 23
20.0
 33
0.0
 14
213.0
 24
20.0
 34
0.0
1001
ACAD
1000
DSTYLE
1002
{
1070
    40
1040
1.0
1002
}
  0
DIMENSION
  5
2F
  8
TEAM-MAS
  2
*D1
 10
275.0
 20
100.139075
 30
0.0
 11
0.0
 21
100.139075
 31
0.0
 12
-4000.0
 22
-8000.0
 32
0.0
 13
-275.0
 23
-244.671867
 33
0.0
 14
275.0
 24
-239.343734
 34
0.0
  0
DIMENSION
  5
3D
  8
TEAM-MAS
  2
*D0
 10
334.922804
 20
-450.0
 30
0.0
 11
334.922804
 21
-225.0
 31
0.0
 12
-4000.0
 22
-8000.0
 32
0.0
 13
238.0
 23
0.0
 33
0.0
 14
0.0
 24
-450.0
 34
0.0
 50
90.0
  0
LINE
  5
4B
  8
TEAM-AXE
 10
213.0
 20
-20.0
 30
0.0
 11
213.0
 21
20.0
 31
0.0
  0
LINE
  5
4E
  8
TEAM-AXE
 10
-213.0
 20
-20.0
 30
0.0
 11
-213.0
 21
20.0
 31
0.0
  0
ARC
  5
4F
  8
TEAM-BODY
 10
83.293246
 20
-249.089543
 30
0.0
 40
159.362308
 50
8.634774
 51
86.647247
  0
LINE
  5
51
  8
TEAM-BODY
 10
245.0
 20
-250.0
 30
0.0
 11
213.948018
 21
-55.275699
 31
0.0
  0
LINE
  5
52
  8
TEAM-BODY
 10
26.742104
 20
-86.40849
 30
0.0
 11
35.458618
 21
-52.525713
 31
0.0
  0
CIRCLE
  5
53
  8
TEAM-DET1
 10
0.0
 20
-190.0
 30
0.0
 40
21.0
  0
LINE
  5
55
  8
TEAM-AXE
 10
0.0
 20
-221.0
 30
0.0
 11
0.0
 21
-159.0
 31
0.0
  0
CIRCLE
  5
56
  8
TEAM-BODY
 10
0.0
 20
-190.0
 30
0.0
 40
26.0
  0
LINE
  5
57
  8
TEAM-AXE
 10
31.0
 20
-190.0
 30
0.0
 11
-31.0
 21
-190.0
 31
0.0
  0
LINE
  5
58
  8
TEAM-BODY
 10
-26.742104
 20
-86.40849
 30
0.0
 11
-35.458618
 21
-52.525713
 31
0.0
  0
LINE
  5
59
  8
TEAM-BODY
 10
184.322337
 20
-30.0
 30
0.0
 11
64.51262
 21
-30.0
 31
0.0
  0
LINE
  5
5A
  8
TEAM-BODY
 10
275.0
 20
-250.0
 30
0.0
 11
275.0
 21
-239.343734
 31
0.0
  0
LINE
  5
5B
  8
TEAM-BODY
 10
245.0
 20
-250.0
 30
0.0
 11
240.849253
 21
-225.163618
 31
0.0
  0
LINE
  5
5C
  8
TEAM-BODY
 10
275.0
 20
-239.343734
 30
0.0
 11
238.0
 21
0.0
 31
0.0
  0
CIRCLE
  5
5D
  8
TEAM-INSP
 10
0.0
 20
0.0
 30
0.0
 40
10.0
  0
LINE
  5
5F
  8
TEAM-BODY
 10
-275.0
 20
-239.343734
 30
0.0
 11
-275.0
 21
-250.0
 31
0.0
  0
LINE
  5
60
  8
TEAM-BODY
 10
-245.0
 20
-250.0
 30
0.0
 11
-240.849253
 21
-225.163618
 31
0.0
  0
LINE
  5
61
  8
TEAM-BODY
 10
-275.0
 20
-239.343734
 30
0.0
 11
-238.0
 21
0.0
 31
0.0
  0
LINE
  5
62
  8
TEAM-BODY
 10
-245.0
 20
-250.0
 30
0.0
 11
-213.948018
 21
-55.275699
 31
0.0
  0
LINE
  5
63
  8
TEAM-BODY
 10
238.0
 20
0.0
 30
0.0
 11
-238.0
 21
0.0
 31
0.0
  0
ARC
  5
64
  8
TEAM-BODY
 10
-83.293246
 20
-249.089543
 30
0.0
 40
159.362308
 50
93.352753
 51
171.365226
  0
LINE
  5
65
  8
TEAM-BODY
 10
-64.51262
 20
-30.0
 30
0.0
 11
-184.322337
 21
-30.0
 31
0.0
  0
TEXT
  5
66
  8
TEAM-TXT
 10
-132.613709
 20
-255.665202
 30
0.0
 40
30.0
  1
team 412101
 41
0.8
 51
15.0
  7
TEAM
  0
ARC
  5
69
  8
TEAM-BODY
 10
0.0
 20
-1182.74051
 30
0.0
 40
1096.658123
 50
85.155576
 51
94.844424
  0
POLYLINE
  5
6A
  8
TEAM-BODY
 66
     1
 10
0.0
 20
0.0
 30
0.0
 70
   128
  0
VERTEX
  5
11E
  8
TEAM-BODY
 10
-275.0
 20
-250.0
 30
0.0
  0
VERTEX
  5
11F
  8
TEAM-BODY
 10
-273.892931
 20
-267.927862
 30
0.0
  0
VERTEX
  5
120
  8
TEAM-BODY
 10
-270.580637
 20
-285.711379
 30
0.0
  0
VERTEX
  5
121
  8
TEAM-BODY
 10
-265.089787
 20
-303.207369
 30
0.0
  0
VERTEX
  5
122
  8
TEAM-BODY
 10
-257.464589
 20
-320.274965
 30
0.0
  0
VERTEX
  5
123
  8
TEAM-BODY
 10
-247.766439
 20
-336.776748
 30
0.0
  0
VERTEX
  5
124
  8
TEAM-BODY
 10
-236.073418
 20
-352.579855
 30
0.0
  0
VERTEX
  5
125
  8
TEAM-BODY
 10
-222.479673
 20
-367.55705
 30
0.0
  0
VERTEX
  5
126
  8
TEAM-BODY
 10
-207.094653
 20
-381.587745
 30
0.0
  0
VERTEX
  5
127
  8
TEAM-BODY
 10
-190.042228
 20
-394.558973
 30
0.0
  0
VERTEX
  5
128
  8
TEAM-BODY
 10
-171.459696
 20
-406.366296
 30
0.0
  0
VERTEX
  5
129
  8
TEAM-BODY
 10
-151.49667
 20
-416.914651
 30
0.0
  0
VERTEX
  5
12A
  8
TEAM-BODY
 10
-130.313882
 20
-426.119106
 30
0.0
  0
VERTEX
  5
12B
  8
TEAM-BODY
 10
-108.081884
 20
-433.905555
 30
0.0
  0
VERTEX
  5
12C
  8
TEAM-BODY
 10
-84.979673
 20
-440.211303
 30
0.0
  0
VERTEX
  5
12D
  8
TEAM-BODY
 10
-61.193257
 20
-444.985582
 30
0.0
  0
VERTEX
  5
12E
  8
TEAM-BODY
 10
-36.914148
 20
-448.189952
 30
0.0
  0
VERTEX
  5
12F
  8
TEAM-BODY
 10
-12.337828
 20
-449.798613
 30
0.0
  0
VERTEX
  5
130
  8
TEAM-BODY
 10
12.337828
 20
-449.798613
 30
0.0
  0
VERTEX
  5
131
  8
TEAM-BODY
 10
36.914148
 20
-448.189952
 30
0.0
  0
VERTEX
  5
132
  8
TEAM-BODY
 10
61.193257
 20
-444.985582
 30
0.0
  0
VERTEX
  5
133
  8
TEAM-BODY
 10
84.979673
 20
-440.211303
 30
0.0
  0
VERTEX
  5
134
  8
TEAM-BODY
 10
108.081884
 20
-433.905555
 30
0.0
  0
VERTEX
  5
135
  8
TEAM-BODY
 10
130.313882
 20
-426.119106
 30
0.0
  0
VERTEX
  5
136
  8
TEAM-BODY
 10
151.49667
 20
-416.914651
 30
0.0
  0
VERTEX
  5
137
  8
TEAM-BODY
 10
171.459696
 20
-406.366296
 30
0.0
  0
VERTEX
  5
138
  8
TEAM-BODY
 10
190.042228
 20
-394.558973
 30
0.0
  0
VERTEX
  5
139
  8
TEAM-BODY
 10
207.094653
 20
-381.587745
 30
0.0
  0
VERTEX
  5
13A
  8
TEAM-BODY
 10
222.479673
 20
-367.55705
 30
0.0
  0
VERTEX
  5
13B
  8
TEAM-BODY
 10
236.073418
 20
-352.579855
 30
0.0
  0
VERTEX
  5
13C
  8
TEAM-BODY
 10
247.766439
 20
-336.776748
 30
0.0
  0
VERTEX
  5
13D
  8
TEAM-BODY
 10
257.464589
 20
-320.274965
 30
0.0
  0
VERTEX
  5
13E
  8
TEAM-BODY
 10
265.089787
 20
-303.207369
 30
0.0
  0
VERTEX
  5
13F
  8
TEAM-BODY
 10
270.580637
 20
-285.711379
 30
0.0
  0
VERTEX
  5
140
  8
TEAM-BODY
 10
273.892931
 20
-267.927862
 30
0.0
  0
VERTEX
  5
141
  8
TEAM-BODY
 10
275.0
 20
-250.0
 30
0.0
  0
SEQEND
  5
142
  8
TEAM-BODY
  0
ARC
  5
6B
  8
TEAM-BODY
 10
184.322337
 20
-60.0
 30
0.0
 40
30.0
 50
9.060464
 51
90.0
  0
ARC
  5
6C
  8
TEAM-BODY
 10
64.51262
 20
-60.0
 30
0.0
 40
30.0
 50
90.0
 51
165.573201
  0
ARC
  5
6D
  8
TEAM-BODY
 10
-64.51262
 20
-60.0
 30
0.0
 40
30.0
 50
14.426799
 51
90.0
  0
ARC
  5
6E
  8
TEAM-BODY
 10
-184.322337
 20
-60.0
 30
0.0
 40
30.0
 50
90.0
 51
170.939536
  0
POLYLINE
  5
6F
  8
TEAM-BODY
 66
     1
 10
0.0
 20
0.0
 30
0.0
 70
   128
  0
VERTEX
  5
143
  8
TEAM-BODY
 10
-245.0
 20
-250.0
 30
0.0
  0
VERTEX
  5
144
  8
TEAM-BODY
 10
-243.890621
 20
-266.634808
 30
0.0
  0
VERTEX
  5
145
  8
TEAM-BODY
 10
-240.572531
 20
-283.118968
 30
0.0
  0
VERTEX
  5
146
  8
TEAM-BODY
 10
-235.075779
 20
-299.303197
 30
0.0
  0
VERTEX
  5
147
  8
TEAM-BODY
 10
-227.450144
 20
-315.04093
 30
0.0
  0
VERTEX
  5
148
  8
TEAM-BODY
 10
-217.764685
 20
-330.189641
 30
0.0
  0
VERTEX
  5
149
  8
TEAM-BODY
 10
-206.107116
 20
-344.612143
 30
0.0
  0
VERTEX
  5
14A
  8
TEAM-BODY
 10
-192.583008
 20
-358.177823
 30
0.0
  0
VERTEX
  5
14B
  8
TEAM-BODY
 10
-177.314839
 20
-370.763827
 30
0.0
  0
VERTEX
  5
14C
  8
TEAM-BODY
 10
-160.44088
 20
-382.256176
 30
0.0
  0
VERTEX
  5
14D
  8
TEAM-BODY
 10
-142.113943
 20
-392.550792
 30
0.0
  0
VERTEX
  5
14E
  8
TEAM-BODY
 10
-122.5
 20
-401.554446
 30
0.0
  0
VERTEX
  5
14F
  8
TEAM-BODY
 10
-101.776678
 20
-409.185599
 30
0.0
  0
VERTEX
  5
150
  8
TEAM-BODY
 10
-80.131651
 20
-415.375143
 30
0.0
  0
VERTEX
  5
151
  8
TEAM-BODY
 10
-57.760939
 20
-420.067024
 30
0.0
  0
VERTEX
  5
152
  8
TEAM-BODY
 10
-34.867135
 20
-423.218752
 30
0.0
  0
VERTEX
  5
153
  8
TEAM-BODY
 10
-11.657569
 20
-424.801784
 30
0.0
  0
VERTEX
  5
154
  8
TEAM-BODY
 10
11.657569
 20
-424.801784
 30
0.0
  0
VERTEX
  5
155
  8
TEAM-BODY
 10
34.867135
 20
-423.218752
 30
0.0
  0
VERTEX
  5
156
  8
TEAM-BODY
 10
57.760939
 20
-420.067024
 30
0.0
  0
VERTEX
  5
157
  8
TEAM-BODY
 10
80.131651
 20
-415.375143
 30
0.0
  0
VERTEX
  5
158
  8
TEAM-BODY
 10
101.776678
 20
-409.185599
 30
0.0
  0
VERTEX
  5
159
  8
TEAM-BODY
 10
122.5
 20
-401.554446
 30
0.0
  0
VERTEX
  5
15A
  8
TEAM-BODY
 10
142.113943
 20
-392.550792
 30
0.0
  0
VERTEX
  5
15B
  8
TEAM-BODY
 10
160.44088
 20
-382.256176
 30
0.0
  0
VERTEX
  5
15C
  8
TEAM-BODY
 10
177.314839
 20
-370.763827
 30
0.0
  0
VERTEX
  5
15D
  8
TEAM-BODY
 10
192.583008
 20
-358.177823
 30
0.0
  0
VERTEX
  5
15E
  8
TEAM-BODY
 10
206.107116
 20
-344.612143
 30
0.0
  0
VERTEX
  5
15F
  8
TEAM-BODY
 10
217.764685
 20
-330.189641
 30
0.0
  0
VERTEX
  5
160
  8
TEAM-BODY
 10
227.450144
 20
-315.04093
 30
0.0
  0
VERTEX
  5
161
  8
TEAM-BODY
 10
235.075779
 20
-299.303197
 30
0.0
  0
VERTEX
  5
162
  8
TEAM-BODY
 10
240.572531
 20
-283.118968
 30
0.0
  0
VERTEX
  5
163
  8
TEAM-BODY
 10
243.890621
 20
-266.634808
 30
0.0
  0
VERTEX
  5
164
  8
TEAM-BODY
 10
245.0
 20
-250.0
 30
0.0
  0
SEQEND
  5
165
  8
TEAM-BODY
  0
LINE
  5
70
  8
TEAM-DET1
 10
22.888298
 20
-81.320179
 30
0.0
 11
30.616284
 21
-51.279999
 31
0.0
  0
LINE
  5
71
  8
TEAM-DET1
 10
-22.888298
 20
-81.320179
 30
0.0
 11
-30.616284
 21
-51.279999
 31
0.0
  0
ARC
  5
72
  8
TEAM-DET1
 10
-64.51262
 20
-60.0
 30
0.0
 40
35.0
 50
14.426799
 51
90.0
  0
ARC
  5
73
  8
TEAM-DET1
 10
64.51262
 20
-60.0
 30
0.0
 40
35.0
 50
90.0
 51
165.573201
  0
LINE
  5
74
  8
TEAM-DET1
 10
209.935173
 20
-25.0
 30
0.0
 11
64.51262
 21
-25.0
 31
0.0
  0
LINE
  5
75
  8
TEAM-DET1
 10
-64.51262
 20
-25.0
 30
0.0
 11
-209.935173
 21
-25.0
 31
0.0
  0
ARC
  5
76
  8
TEAM-DET1
 10
-210.280946
 20
-63.228447
 30
0.0
 40
38.230011
 50
89.481777
 51
156.960157
  0
ARC
  5
77
  8
TEAM-DET1
 10
210.280946
 20
-63.228447
 30
0.0
 40
38.230011
 50
23.039843
 51
90.518223
  0
ARC
  5
78
  8
TEAM-DET1
 10
0.0
 20
-1182.74051
 30
0.0
 40
1101.658123
 50
88.809524
 51
91.190476
  0
POLYLINE
  5
79
  8
TEAM-DET1
 66
     1
 10
0.0
 20
0.0
 30
0.0
 70
   128
  0
VERTEX
  5
166
  8
TEAM-DET1
 10
-195.0
 20
-250.0
 30
0.0
  0
VERTEX
  5
167
  8
TEAM-DET1
 10
-194.289102
 20
-260.32332
 30
0.0
  0
VERTEX
  5
168
  8
TEAM-DET1
 10
-192.125364
 20
-270.727769
 30
0.0
  0
VERTEX
  5
169
  8
TEAM-DET1
 10
-188.428534
 20
-281.255435
 30
0.0
  0
VERTEX
  5
16A
  8
TEAM-DET1
 10
-183.096971
 20
-291.887029
 30
0.0
  0
VERTEX
  5
16B
  8
TEAM-DET1
 10
-176.03833
 20
-302.537636
 30
0.0
  0
VERTEX
  5
16C
  8
TEAM-DET1
 10
-167.195597
 20
-313.067682
 30
0.0
  0
VERTEX
  5
16D
  8
TEAM-DET1
 10
-156.561233
 20
-323.303372
 30
0.0
  0
VERTEX
  5
16E
  8
TEAM-DET1
 10
-144.179097
 20
-333.056955
 30
0.0
  0
VERTEX
  5
16F
  8
TEAM-DET1
 10
-130.140625
 20
-342.141782
 30
0.0
  0
VERTEX
  5
170
  8
TEAM-DET1
 10
-114.578239
 20
-350.383035
 30
0.0
  0
VERTEX
  5
171
  8
TEAM-DET1
 10
-97.65799
 20
-357.624766
 30
0.0
  0
VERTEX
  5
172
  8
TEAM-DET1
 10
-79.571868
 20
-363.733256
 30
0.0
  0
VERTEX
  5
173
  8
TEAM-DET1
 10
-60.531616
 20
-368.598449
 30
0.0
  0
VERTEX
  5
174
  8
TEAM-DET1
 10
-40.763749
 20
-372.134571
 30
0.0
  0
VERTEX
  5
175
  8
TEAM-DET1
 10
-20.505304
 20
-374.280491
 30
0.0
  0
VERTEX
  5
176
  8
TEAM-DET1
 10
0.0
 20
-374.99983
 30
0.0
  0
VERTEX
  5
177
  8
TEAM-DET1
 10
20.505303
 20
-374.280488
 30
0.0
  0
VERTEX
  5
178
  8
TEAM-DET1
 10
40.763748
 20
-372.134569
 30
0.0
  0
VERTEX
  5
179
  8
TEAM-DET1
 10
60.531617
 20
-368.598452
 30
0.0
  0
VERTEX
  5
17A
  8
TEAM-DET1
 10
79.571869
 20
-363.733258
 30
0.0
  0
VERTEX
  5
17B
  8
TEAM-DET1
 10
97.657989
 20
-357.624764
 30
0.0
  0
VERTEX
  5
17C
  8
TEAM-DET1
 10
114.578236
 20
-350.383033
 30
0.0
  0
VERTEX
  5
17D
  8
TEAM-DET1
 10
130.140627
 20
-342.141783
 30
0.0
  0
VERTEX
  5
17E
  8
TEAM-DET1
 10
144.179103
 20
-333.056957
 30
0.0
  0
VERTEX
  5
17F
  8
TEAM-DET1
 10
156.561235
 20
-323.303371
 30
0.0
  0
VERTEX
  5
180
  8
TEAM-DET1
 10
167.195592
 20
-313.067683
 30
0.0
  0
VERTEX
  5
181
  8
TEAM-DET1
 10
176.038325
 20
-302.53764
 30
0.0
  0
VERTEX
  5
182
  8
TEAM-DET1
 10
183.096976
 20
-291.887024
 30
0.0
  0
VERTEX
  5
183
  8
TEAM-DET1
 10
188.428534
 20
-281.255428
 30
0.0
  0
VERTEX
  5
184
  8
TEAM-DET1
 10
192.125364
 20
-270.727773
 30
0.0
  0
VERTEX
  5
185
  8
TEAM-DET1
 10
194.289109
 20
-260.323325
 30
0.0
  0
VERTEX
  5
186
  8
TEAM-DET1
 10
195.0
 20
-250.0
 30
0.0
  0
SEQEND
  5
187
  8
TEAM-DET1
  0
ARC
  5
7A
  8
TEAM-DET1
 10
80.302637
 20
-237.888592
 30
0.0
 40
115.335039
 50
353.972219
 51
85.331859
  0
ARC
  5
7B
  8
TEAM-DET1
 10
-80.302637
 20
-237.888592
 30
0.0
 40
115.335039
 50
94.668141
 51
186.027781
  0
ARC
  5
7C
  8
TEAM-DET1
 10
0.0
 20
-853.767187
 30
0.0
 40
736.313893
 50
83.003527
 51
96.996473
  0
ENDSEC
  0
EOF
