  0
SECTION
  2
HEADER
  9
$ACADVER
  1
AC1009
  9
$INSBASE
 10
0.0
 20
0.0
 30
0.0
  9
$EXTMIN
 10
-275.02628
 20
-450.02955
 30
0.0
  9
$EXTMAX
 10
352.467188
 20
104.663823
 30
0.000005
  9
$LIMMIN
 10
-275.02628
 20
-450.02955
  9
$LIMMAX
 10
352.467188
 20
104.663823
  9
$ORTHOMODE
 70
     1
  9
$REGENMODE
 70
     1
  9
$FILLMODE
 70
     1
  9
$QTEXTMODE
 70
     0
  9
$MIRRTEXT
 70
     0
  9
$DRAGMODE
 70
     2
  9
$LTSCALE
 40
50.0
  9
$OSMODE
 70
     0
  9
$ATTMODE
 70
     1
  9
$TEXTSIZE
 40
200.0
  9
$TRACEWID
 40
1.0
  9
$TEXTSTYLE
  7
STANDARD
  9
$CLAYER
  8
TEAM-MAS
  9
$CELTYPE
  6
BYLAYER
  9
$CECOLOR
 62
   256
  9
$DIMSCALE
 40
0.0
  9
$DIMASZ
 40
20.0
  9
$DIMEXO
 40
10.0
  9
$DIMDLI
 40
1.0
  9
$DIMRND
 40
0.0
  9
$DIMDLE
 40
0.0
  9
$DIMEXE
 40
1.0
  9
$DIMTP
 40
0.0
  9
$DIMTM
 40
0.0
  9
$DIMTXT
 40
35.0
  9
$DIMCEN
 40
1.0
  9
$DIMTSZ
 40
0.0
  9
$DIMTOL
 70
     0
  9
$DIMLIM
 70
     0
  9
$DIMTIH
 70
     0
  9
$DIMTOH
 70
     0
  9
$DIMSE1
 70
     0
  9
$DIMSE2
 70
     0
  9
$DIMTAD
 70
     0
  9
$DIMZIN
 70
     0
  9
$DIMBLK
  1

  9
$DIMASO
 70
     1
  9
$DIMSHO
 70
     0
  9
$DIMPOST
  1

  9
$DIMAPOST
  1

  9
$DIMALT
 70
     0
  9
$DIMALTD
 70
     2
  9
$DIMALTF
 40
25.4
  9
$DIMLFAC
 40
1.0
  9
$DIMTOFL
 70
     0
  9
$DIMTVP
 40
0.0
  9
$DIMTIX
 70
     0
  9
$DIMSOXD
 70
     0
  9
$DIMSAH
 70
     0
  9
$DIMBLK1
  1

  9
$DIMBLK2
  1

  9
$DIMSTYLE
  2
TEAM
  9
$DIMCLRD
 70
     9
  9
$DIMCLRE
 70
     9
  9
$DIMCLRT
 70
    11
  9
$DIMTFAC
 40
1.0
  9
$DIMGAP
 40
7.0
  9
$LUNITS
 70
     2
  9
$LUPREC
 70
     1
  9
$SKETCHINC
 40
1.0
  9
$FILLETRAD
 40
50.0
  9
$AUNITS
 70
     0
  9
$AUPREC
 70
     0
  9
$MENU
  1
ROPLANS
  9
$ELEVATION
 40
0.0
  9
$PELEVATION
 40
0.0
  9
$THICKNESS
 40
0.0
  9
$LIMCHECK
 70
     0
  9
$BLIPMODE
 70
     1
  9
$CHAMFERA
 40
0.0
  9
$CHAMFERB
 40
0.0
  9
$SKPOLY
 70
     0
  9
$TDCREATE
 40
2450392.957851
  9
$TDUPDATE
 40
2456272.033233
  9
$TDINDWG
 40
2.315654
  9
$TDUSRTIMER
 40
2.315654
  9
$USRTIMER
 70
     1
  9
$ANGBASE
 50
0.0
  9
$ANGDIR
 70
     0
  9
$PDMODE
 70
     0
  9
$PDSIZE
 40
0.0
  9
$PLINEWID
 40
0.0
  9
$COORDS
 70
     2
  9
$SPLFRAME
 70
     0
  9
$SPLINETYPE
 70
     6
  9
$SPLINESEGS
 70
     8
  9
$ATTDIA
 70
     0
  9
$ATTREQ
 70
     0
  9
$HANDLING
 70
     1
  9
$HANDSEED
  5
1F3
  9
$SURFTAB1
 70
    24
  9
$SURFTAB2
 70
    24
  9
$SURFTYPE
 70
     6
  9
$SURFU
 70
     6
  9
$SURFV
 70
     6
  9
$UCSNAME
  2

  9
$UCSORG
 10
0.0
 20
0.0
 30
0.0
  9
$UCSXDIR
 10
1.0
 20
0.0
 30
0.0
  9
$UCSYDIR
 10
0.0
 20
1.0
 30
0.0
  9
$PUCSNAME
  2

  9
$PUCSORG
 10
0.0
 20
0.0
 30
0.0
  9
$PUCSXDIR
 10
1.0
 20
0.0
 30
0.0
  9
$PUCSYDIR
 10
0.0
 20
1.0
 30
0.0
  9
$USERI1
 70
     0
  9
$USERI2
 70
     0
  9
$USERI3
 70
     0
  9
$USERI4
 70
     0
  9
$USERI5
 70
     0
  9
$USERR1
 40
0.0
  9
$USERR2
 40
0.0
  9
$USERR3
 40
0.0
  9
$USERR4
 40
0.0
  9
$USERR5
 40
0.0
  9
$WORLDVIEW
 70
     1
  9
$SHADEDGE
 70
     0
  9
$SHADEDIF
 70
    70
  9
$TILEMODE
 70
     1
  9
$MAXACTVP
 70
    16
  9
$PLIMCHECK
 70
     0
  9
$PEXTMIN
 10
-0.805942
 20
0.005011
 30
0.0
  9
$PEXTMAX
 10
20.250094
 20
11.356329
 30
0.0
  9
$PLIMMIN
 10
0.0
 20
0.0
  9
$PLIMMAX
 10
12.0
 20
9.0
  9
$UNITMODE
 70
     0
  9
$VISRETAIN
 70
     0
  9
$PLINEGEN
 70
     0
  9
$PSLTSCALE
 70
     0
  0
ENDSEC
  0
SECTION
  2
TABLES
  0
TABLE
  2
VPORT
 70
     2
  0
VPORT
  2
*ACTIVE
 70
     0
 10
0.0
 20
0.0
 11
1.0
 21
1.0
 12
38.720454
 22
-172.682863
 13
0.0
 23
0.0
 14
1.0
 24
1.0
 15
50.0
 25
50.0
 16
0.0
 26
0.0
 36
1.0
 17
0.0
 27
0.0
 37
0.0
 40
558.185671
 41
1.911765
 42
50.0
 43
0.0
 44
0.0
 50
0.0
 51
0.0
 71
     0
 72
   100
 73
     1
 74
     1
 75
     0
 76
     0
 77
     0
 78
     0
  0
ENDTAB
  0
TABLE
  2
LTYPE
 70
     2
  0
LTYPE
  2
CONTINUOUS
 70
     0
  3
Solid Line
 72
    65
 73
     0
 40
0.0
  0
LTYPE
  2
31
 70
     0
  3

 72
    65
 73
     4
 40
2.1
 49
1.5
 49
-0.3
 49
0.0
 49
-0.3
  0
ENDTAB
  0
TABLE
  2
LAYER
 70
     8
  0
LAYER
  2
0
 70
     0
 62
     7
  6
CONTINUOUS
  0
LAYER
  2
DEFPOINTS
 70
     0
 62
     7
  6
CONTINUOUS
  0
LAYER
  2
TEAM-BODY
 70
     0
 62
     2
  6
CONTINUOUS
  0
LAYER
  2
TEAM-AXE
 70
     0
 62
    10
  6
31
  0
LAYER
  2
TEAM-MAS
 70
     0
 62
     9
  6
CONTINUOUS
  0
LAYER
  2
TEAM-TXT
 70
     0
 62
    11
  6
CONTINUOUS
  0
LAYER
  2
TEAM-DET1
 70
     0
 62
     4
  6
CONTINUOUS
  0
LAYER
  2
TEAM-INSP
 70
     0
 62
     5
  6
CONTINUOUS
  0
ENDTAB
  0
TABLE
  2
STYLE
 70
     2
  0
STYLE
  2
STANDARD
 70
     0
 40
0.0
 41
1.0
 50
0.0
 71
     0
 42
200.0
  3
txt
  4

  0
STYLE
  2
TEAM
 70
     0
 40
0.0
 41
0.8
 50
15.0
 71
     0
 42
7.0
  3
ROMANS.shx
  4

  0
ENDTAB
  0
TABLE
  2
VIEW
 70
     0
  0
ENDTAB
  0
TABLE
  2
UCS
 70
     0
  0
ENDTAB
  0
TABLE
  2
APPID
 70
     1
  0
APPID
  2
ACAD
 70
     0
  0
ENDTAB
  0
TABLE
  2
DIMSTYLE
 70
     1
  0
DIMSTYLE
  2
TEAM
 70
     0
  3

  4

  5

  6

  7

 40
0.0
 41
20.0
 42
10.0
 43
1.0
 44
1.0
 45
0.0
 46
0.0
 47
0.0
 48
0.0
140
35.0
141
1.0
142
0.0
143
25.4
144
1.0
145
0.0
146
1.0
147
7.0
 71
     0
 72
     0
 73
     0
 74
     0
 75
     0
 76
     0
 77
     0
 78
     0
170
     0
171
     2
172
     0
173
     0
174
     0
175
     0
176
     9
177
     9
178
    11
  0
ENDTAB
  0
ENDSEC
  0
SECTION
  2
BLOCKS
  0
BLOCK
  8
0
  2
$MODEL_SPACE
 70
     0
 10
0.0
 20
0.0
 30
0.0
  3
$MODEL_SPACE
  1

  0
ENDBLK
  5
182
  8
0
  0
BLOCK
 67
     1
  8
0
  2
$PAPER_SPACE
 70
     0
 10
0.0
 20
0.0
 30
0.0
  3
$PAPER_SPACE
  1

  0
ENDBLK
  5
180
 67
     1
  8
0
  0
BLOCK
  8
0
  2
*D0
 70
     1
 10
0.0
 20
0.0
 30
0.0
  3
*D0
  1

  0
LINE
  5
22
  8
0
  6
BYBLOCK
 62
     9
 10
3787.0
 20
20030.0
 30
0.0
 11
3787.0
 21
20046.219309
 31
0.0
  0
LINE
  5
23
  8
0
  6
BYBLOCK
 62
     9
 10
4213.0
 20
20030.0
 30
0.0
 11
4213.0
 21
20046.219309
 31
0.0
  0
LINE
  5
24
  8
0
  6
BYBLOCK
 62
     9
 10
3807.0
 20
20045.219309
 30
0.0
 11
3946.333333
 21
20045.219309
 31
0.0
  0
LINE
  5
25
  8
0
  6
BYBLOCK
 62
     9
 10
4193.0
 20
20045.219309
 30
0.0
 11
4053.666667
 21
20045.219309
 31
0.0
  0
SOLID
  5
26
  8
0
  6
BYBLOCK
 62
     9
 10
3807.0
 20
20048.552643
 30
0.0
 11
3807.0
 21
20041.885976
 31
0.0
 12
3787.0
 22
20045.219309
 32
0.0
 13
3787.0
 23
20045.219309
 33
0.0
  0
SOLID
  5
27
  8
0
  6
BYBLOCK
 62
     9
 10
4193.0
 20
20048.552643
 30
0.0
 11
4193.0
 21
20041.885976
 31
0.0
 12
4213.0
 22
20045.219309
 32
0.0
 13
4213.0
 23
20045.219309
 33
0.0
  0
TEXT
  5
28
  8
0
  6
BYBLOCK
 62
    11
 10
3953.333333
 20
20027.719309
 30
0.0
 40
35.0
  1
426
  0
POINT
  5
29
  8
DEFPOINTS
  6
BYBLOCK
 62
     0
 10
3787.0
 20
20020.0
 30
0.0
  0
POINT
  5
2B
  8
DEFPOINTS
  6
BYBLOCK
 62
     0
 10
4213.0
 20
20020.0
 30
0.0
  0
POINT
  5
2C
  8
DEFPOINTS
  6
BYBLOCK
 62
     0
 10
4213.0
 20
20045.219309
 30
0.0
  0
ENDBLK
  5
2E
  8
0
  0
BLOCK
  8
0
  2
*D1
 70
     1
 10
0.0
 20
0.0
 30
0.0
  3
*D1
  1

  0
LINE
  5
31
  8
0
  6
BYBLOCK
 62
     9
 10
3725.0
 20
19765.328133
 30
0.0
 11
3725.0
 21
20088.137752
 31
0.0
  0
LINE
  5
32
  8
0
  6
BYBLOCK
 62
     9
 10
4275.0
 20
19770.656266
 30
0.0
 11
4275.0
 21
20088.137752
 31
0.0
  0
LINE
  5
33
  8
0
  6
BYBLOCK
 62
     9
 10
3745.0
 20
20087.137752
 30
0.0
 11
3949.25
 21
20087.137752
 31
0.0
  0
LINE
  5
34
  8
0
  6
BYBLOCK
 62
     9
 10
4255.0
 20
20087.137752
 30
0.0
 11
4050.75
 21
20087.137752
 31
0.0
  0
SOLID
  5
35
  8
0
  6
BYBLOCK
 62
     9
 10
3745.0
 20
20090.471085
 30
0.0
 11
3745.0
 21
20083.804418
 31
0.0
 12
3725.0
 22
20087.137752
 32
0.0
 13
3725.0
 23
20087.137752
 33
0.0
  0
SOLID
  5
36
  8
0
  6
BYBLOCK
 62
     9
 10
4255.0
 20
20090.471085
 30
0.0
 11
4255.0
 21
20083.804418
 31
0.0
 12
4275.0
 22
20087.137752
 32
0.0
 13
4275.0
 23
20087.137752
 33
0.0
  0
TEXT
  5
37
  8
0
  6
BYBLOCK
 62
    11
 10
3956.25
 20
20069.637752
 30
0.0
 40
35.0
  1
550
  0
POINT
  5
38
  8
DEFPOINTS
  6
BYBLOCK
 62
     0
 10
3725.0
 20
19755.328133
 30
0.0
  0
POINT
  5
39
  8
DEFPOINTS
  6
BYBLOCK
 62
     0
 10
4275.0
 20
19760.656266
 30
0.0
  0
POINT
  5
3A
  8
DEFPOINTS
  6
BYBLOCK
 62
     0
 10
4275.0
 20
20087.137752
 30
0.0
  0
ENDBLK
  5
3C
  8
0
  0
BLOCK
  8
0
  2
*D2
 70
     1
 10
0.0
 20
0.0
 30
0.0
  3
*D2
  1

  0
LINE
  5
57
  8
0
  6
BYBLOCK
 62
     9
 10
4248.0
 20
20000.0
 30
0.0
 11
4335.922804
 21
20000.0
 31
0.0
  0
LINE
  5
58
  8
0
  6
BYBLOCK
 62
     9
 10
4010.0
 20
19550.0
 30
0.0
 11
4335.922804
 21
19550.0
 31
0.0
  0
LINE
  5
59
  8
0
  6
BYBLOCK
 62
     9
 10
4334.922804
 20
19980.0
 30
0.0
 11
4334.922804
 21
19825.75
 31
0.0
  0
LINE
  5
5A
  8
0
  6
BYBLOCK
 62
     9
 10
4334.922804
 20
19570.0
 30
0.0
 11
4334.922804
 21
19724.25
 31
0.0
  0
SOLID
  5
5B
  8
0
  6
BYBLOCK
 62
     9
 10
4331.58947
 20
19980.0
 30
0.0
 11
4338.256137
 21
19980.0
 31
0.0
 12
4334.922804
 22
20000.0
 32
0.0
 13
4334.922804
 23
20000.0
 33
0.0
  0
SOLID
  5
5C
  8
0
  6
BYBLOCK
 62
     9
 10
4331.58947
 20
19570.0
 30
0.0
 11
4338.256137
 21
19570.0
 31
0.0
 12
4334.922804
 22
19550.0
 32
0.0
 13
4334.922804
 23
19550.0
 33
0.0
  0
TEXT
  5
5D
  8
0
  6
BYBLOCK
 62
    11
 10
4352.422804
 20
19731.25
 30
0.0
 40
35.0
  1
450
 50
90.0
  0
POINT
  5
5E
  8
DEFPOINTS
  6
BYBLOCK
 62
     0
 10
4238.0
 20
20000.0
 30
0.0
  0
POINT
  5
5F
  8
DEFPOINTS
  6
BYBLOCK
 62
     0
 10
4000.0
 20
19550.0
 30
0.0
  0
POINT
  5
60
  8
DEFPOINTS
  6
BYBLOCK
 62
     0
 10
4334.922804
 20
19550.0
 30
0.0
  0
ENDBLK
  5
62
  8
0
  0
ENDSEC
  0
SECTION
  2
ENTITIES
  0
DIMENSION
  5
20
  8
TEAM-MAS
  2
*D0
 10
213.0
 20
45.219309
 30
0.0
 11
0.0
 21
45.219309
 31
0.0
 12
-4000.0
 22
-20000.0
 32
0.0
 13
-213.0
 23
20.0
 33
0.0
 14
213.0
 24
20.0
 34
0.0
1001
ACAD
1000
DSTYLE
1002
{
1070
    40
1040
1.0
1002
}
  0
DIMENSION
  5
2F
  8
TEAM-MAS
  2
*D1
 10
275.0
 20
87.137752
 30
0.0
 11
0.0
 21
87.137752
 31
0.0
 12
-4000.0
 22
-20000.0
 32
0.0
 13
-275.0
 23
-244.671867
 33
0.0
 14
275.0
 24
-239.343734
 34
0.0
  0
TEXT
  5
3D
  8
TEAM-TXT
 10
-132.613709
 20
-255.665202
 30
0.0
 40
30.0
  1
team 412102
 41
0.8
 51
15.0
  7
TEAM
  0
LINE
  5
40
  8
TEAM-BODY
 10
238.0
 20
0.0
 30
0.0
 11
-238.0
 21
0.0
 31
0.0
  0
LINE
  5
42
  8
TEAM-BODY
 10
-64.51262
 20
-30.0
 30
0.0
 11
-184.322337
 21
-30.0
 31
0.0
  0
ARC
  5
43
  8
TEAM-BODY
 10
0.0
 20
-1182.74051
 30
0.0
 40
1096.658123
 50
85.155576
 51
94.844424
  0
LINE
  5
44
  8
TEAM-DET1
 10
-64.51262
 20
-25.0
 30
0.0
 11
-209.935173
 21
-25.0
 31
0.0
  0
ARC
  5
46
  8
TEAM-DET1
 10
0.0
 20
-853.767187
 30
0.0
 40
736.313893
 50
83.003527
 51
96.996473
  0
POLYLINE
  5
47
  8
TEAM-BODY
 66
     1
 10
0.0
 20
0.0
 30
0.0
 70
   128
  0
VERTEX
  5
188
  8
TEAM-BODY
 10
-275.0
 20
-250.0
 30
0.0
  0
VERTEX
  5
189
  8
TEAM-BODY
 10
-273.892931
 20
-267.927862
 30
0.0
  0
VERTEX
  5
18A
  8
TEAM-BODY
 10
-270.580637
 20
-285.711379
 30
0.0
  0
VERTEX
  5
18B
  8
TEAM-BODY
 10
-265.089787
 20
-303.207369
 30
0.0
  0
VERTEX
  5
18C
  8
TEAM-BODY
 10
-257.464589
 20
-320.274965
 30
0.0
  0
VERTEX
  5
18D
  8
TEAM-BODY
 10
-247.766439
 20
-336.776748
 30
0.0
  0
VERTEX
  5
18E
  8
TEAM-BODY
 10
-236.073418
 20
-352.579855
 30
0.0
  0
VERTEX
  5
18F
  8
TEAM-BODY
 10
-222.479673
 20
-367.55705
 30
0.0
  0
VERTEX
  5
190
  8
TEAM-BODY
 10
-207.094653
 20
-381.587745
 30
0.0
  0
VERTEX
  5
191
  8
TEAM-BODY
 10
-190.042228
 20
-394.558973
 30
0.0
  0
VERTEX
  5
192
  8
TEAM-BODY
 10
-171.459696
 20
-406.366296
 30
0.0
  0
VERTEX
  5
193
  8
TEAM-BODY
 10
-151.49667
 20
-416.914651
 30
0.0
  0
VERTEX
  5
194
  8
TEAM-BODY
 10
-130.313882
 20
-426.119106
 30
0.0
  0
VERTEX
  5
195
  8
TEAM-BODY
 10
-108.081884
 20
-433.905555
 30
0.0
  0
VERTEX
  5
196
  8
TEAM-BODY
 10
-84.979673
 20
-440.211303
 30
0.0
  0
VERTEX
  5
197
  8
TEAM-BODY
 10
-61.193257
 20
-444.985582
 30
0.0
  0
VERTEX
  5
198
  8
TEAM-BODY
 10
-36.914148
 20
-448.189952
 30
0.0
  0
VERTEX
  5
199
  8
TEAM-BODY
 10
-12.337828
 20
-449.798613
 30
0.0
  0
VERTEX
  5
19A
  8
TEAM-BODY
 10
12.337828
 20
-449.798613
 30
0.0
  0
VERTEX
  5
19B
  8
TEAM-BODY
 10
36.914148
 20
-448.189952
 30
0.0
  0
VERTEX
  5
19C
  8
TEAM-BODY
 10
61.193257
 20
-444.985582
 30
0.0
  0
VERTEX
  5
19D
  8
TEAM-BODY
 10
84.979673
 20
-440.211303
 30
0.0
  0
VERTEX
  5
19E
  8
TEAM-BODY
 10
108.081884
 20
-433.905555
 30
0.0
  0
VERTEX
  5
19F
  8
TEAM-BODY
 10
130.313882
 20
-426.119106
 30
0.0
  0
VERTEX
  5
1A0
  8
TEAM-BODY
 10
151.49667
 20
-416.914651
 30
0.0
  0
VERTEX
  5
1A1
  8
TEAM-BODY
 10
171.459696
 20
-406.366296
 30
0.0
  0
VERTEX
  5
1A2
  8
TEAM-BODY
 10
190.042228
 20
-394.558973
 30
0.0
  0
VERTEX
  5
1A3
  8
TEAM-BODY
 10
207.094653
 20
-381.587745
 30
0.0
  0
VERTEX
  5
1A4
  8
TEAM-BODY
 10
222.479673
 20
-367.55705
 30
0.0
  0
VERTEX
  5
1A5
  8
TEAM-BODY
 10
236.073418
 20
-352.579855
 30
0.0
  0
VERTEX
  5
1A6
  8
TEAM-BODY
 10
247.766439
 20
-336.776748
 30
0.0
  0
VERTEX
  5
1A7
  8
TEAM-BODY
 10
257.464589
 20
-320.274965
 30
0.0
  0
VERTEX
  5
1A8
  8
TEAM-BODY
 10
265.089787
 20
-303.207369
 30
0.0
  0
VERTEX
  5
1A9
  8
TEAM-BODY
 10
270.580637
 20
-285.711379
 30
0.0
  0
VERTEX
  5
1AA
  8
TEAM-BODY
 10
273.892931
 20
-267.927862
 30
0.0
  0
VERTEX
  5
1AB
  8
TEAM-BODY
 10
275.0
 20
-250.0
 30
0.0
  0
SEQEND
  5
1AC
  8
TEAM-BODY
  0
POLYLINE
  5
48
  8
TEAM-BODY
 66
     1
 10
0.0
 20
0.0
 30
0.0
 70
   128
  0
VERTEX
  5
1AD
  8
TEAM-BODY
 10
-245.0
 20
-250.0
 30
0.0
  0
VERTEX
  5
1AE
  8
TEAM-BODY
 10
-243.890621
 20
-266.634808
 30
0.0
  0
VERTEX
  5
1AF
  8
TEAM-BODY
 10
-240.572531
 20
-283.118968
 30
0.0
  0
VERTEX
  5
1B0
  8
TEAM-BODY
 10
-235.075779
 20
-299.303197
 30
0.0
  0
VERTEX
  5
1B1
  8
TEAM-BODY
 10
-227.450144
 20
-315.04093
 30
0.0
  0
VERTEX
  5
1B2
  8
TEAM-BODY
 10
-217.764685
 20
-330.189641
 30
0.0
  0
VERTEX
  5
1B3
  8
TEAM-BODY
 10
-206.107116
 20
-344.612143
 30
0.0
  0
VERTEX
  5
1B4
  8
TEAM-BODY
 10
-192.583008
 20
-358.177823
 30
0.0
  0
VERTEX
  5
1B5
  8
TEAM-BODY
 10
-177.314839
 20
-370.763827
 30
0.0
  0
VERTEX
  5
1B6
  8
TEAM-BODY
 10
-160.44088
 20
-382.256176
 30
0.0
  0
VERTEX
  5
1B7
  8
TEAM-BODY
 10
-142.113943
 20
-392.550792
 30
0.0
  0
VERTEX
  5
1B8
  8
TEAM-BODY
 10
-122.5
 20
-401.554446
 30
0.0
  0
VERTEX
  5
1B9
  8
TEAM-BODY
 10
-101.776678
 20
-409.185599
 30
0.0
  0
VERTEX
  5
1BA
  8
TEAM-BODY
 10
-80.131651
 20
-415.375143
 30
0.0
  0
VERTEX
  5
1BB
  8
TEAM-BODY
 10
-57.760939
 20
-420.067024
 30
0.0
  0
VERTEX
  5
1BC
  8
TEAM-BODY
 10
-34.867135
 20
-423.218752
 30
0.0
  0
VERTEX
  5
1BD
  8
TEAM-BODY
 10
-11.657569
 20
-424.801784
 30
0.0
  0
VERTEX
  5
1BE
  8
TEAM-BODY
 10
11.657569
 20
-424.801784
 30
0.0
  0
VERTEX
  5
1BF
  8
TEAM-BODY
 10
34.867135
 20
-423.218752
 30
0.0
  0
VERTEX
  5
1C0
  8
TEAM-BODY
 10
57.760939
 20
-420.067024
 30
0.0
  0
VERTEX
  5
1C1
  8
TEAM-BODY
 10
80.131651
 20
-415.375143
 30
0.0
  0
VERTEX
  5
1C2
  8
TEAM-BODY
 10
101.776678
 20
-409.185599
 30
0.0
  0
VERTEX
  5
1C3
  8
TEAM-BODY
 10
122.5
 20
-401.554446
 30
0.0
  0
VERTEX
  5
1C4
  8
TEAM-BODY
 10
142.113943
 20
-392.550792
 30
0.0
  0
VERTEX
  5
1C5
  8
TEAM-BODY
 10
160.44088
 20
-382.256176
 30
0.0
  0
VERTEX
  5
1C6
  8
TEAM-BODY
 10
177.314839
 20
-370.763827
 30
0.0
  0
VERTEX
  5
1C7
  8
TEAM-BODY
 10
192.583008
 20
-358.177823
 30
0.0
  0
VERTEX
  5
1C8
  8
TEAM-BODY
 10
206.107116
 20
-344.612143
 30
0.0
  0
VERTEX
  5
1C9
  8
TEAM-BODY
 10
217.764685
 20
-330.189641
 30
0.0
  0
VERTEX
  5
1CA
  8
TEAM-BODY
 10
227.450144
 20
-315.04093
 30
0.0
  0
VERTEX
  5
1CB
  8
TEAM-BODY
 10
235.075779
 20
-299.303197
 30
0.0
  0
VERTEX
  5
1CC
  8
TEAM-BODY
 10
240.572531
 20
-283.118968
 30
0.0
  0
VERTEX
  5
1CD
  8
TEAM-BODY
 10
243.890621
 20
-266.634808
 30
0.0
  0
VERTEX
  5
1CE
  8
TEAM-BODY
 10
245.0
 20
-250.0
 30
0.0
  0
SEQEND
  5
1CF
  8
TEAM-BODY
  0
POLYLINE
  5
49
  8
TEAM-DET1
 66
     1
 10
0.0
 20
0.0
 30
0.0
 70
   128
  0
VERTEX
  5
1D0
  8
TEAM-DET1
 10
-195.0
 20
-250.0
 30
0.0
  0
VERTEX
  5
1D1
  8
TEAM-DET1
 10
-194.289102
 20
-260.32332
 30
0.0
  0
VERTEX
  5
1D2
  8
TEAM-DET1
 10
-192.125364
 20
-270.727769
 30
0.0
  0
VERTEX
  5
1D3
  8
TEAM-DET1
 10
-188.428534
 20
-281.255435
 30
0.0
  0
VERTEX
  5
1D4
  8
TEAM-DET1
 10
-183.096971
 20
-291.887029
 30
0.0
  0
VERTEX
  5
1D5
  8
TEAM-DET1
 10
-176.03833
 20
-302.537636
 30
0.0
  0
VERTEX
  5
1D6
  8
TEAM-DET1
 10
-167.195597
 20
-313.067682
 30
0.0
  0
VERTEX
  5
1D7
  8
TEAM-DET1
 10
-156.561233
 20
-323.303372
 30
0.0
  0
VERTEX
  5
1D8
  8
TEAM-DET1
 10
-144.179097
 20
-333.056955
 30
0.0
  0
VERTEX
  5
1D9
  8
TEAM-DET1
 10
-130.140625
 20
-342.141782
 30
0.0
  0
VERTEX
  5
1DA
  8
TEAM-DET1
 10
-114.578239
 20
-350.383035
 30
0.0
  0
VERTEX
  5
1DB
  8
TEAM-DET1
 10
-97.65799
 20
-357.624766
 30
0.0
  0
VERTEX
  5
1DC
  8
TEAM-DET1
 10
-79.571868
 20
-363.733256
 30
0.0
  0
VERTEX
  5
1DD
  8
TEAM-DET1
 10
-60.531616
 20
-368.598449
 30
0.0
  0
VERTEX
  5
1DE
  8
TEAM-DET1
 10
-40.763749
 20
-372.134571
 30
0.0
  0
VERTEX
  5
1DF
  8
TEAM-DET1
 10
-20.505304
 20
-374.280491
 30
0.0
  0
VERTEX
  5
1E0
  8
TEAM-DET1
 10
0.0
 20
-374.99983
 30
0.0
  0
VERTEX
  5
1E1
  8
TEAM-DET1
 10
20.505303
 20
-374.280488
 30
0.0
  0
VERTEX
  5
1E2
  8
TEAM-DET1
 10
40.763748
 20
-372.134569
 30
0.0
  0
VERTEX
  5
1E3
  8
TEAM-DET1
 10
60.531617
 20
-368.598452
 30
0.0
  0
VERTEX
  5
1E4
  8
TEAM-DET1
 10
79.571869
 20
-363.733258
 30
0.0
  0
VERTEX
  5
1E5
  8
TEAM-DET1
 10
97.657989
 20
-357.624764
 30
0.0
  0
VERTEX
  5
1E6
  8
TEAM-DET1
 10
114.578236
 20
-350.383033
 30
0.0
  0
VERTEX
  5
1E7
  8
TEAM-DET1
 10
130.140627
 20
-342.141783
 30
0.0
  0
VERTEX
  5
1E8
  8
TEAM-DET1
 10
144.179103
 20
-333.056957
 30
0.0
  0
VERTEX
  5
1E9
  8
TEAM-DET1
 10
156.561235
 20
-323.303371
 30
0.0
  0
VERTEX
  5
1EA
  8
TEAM-DET1
 10
167.195592
 20
-313.067683
 30
0.0
  0
VERTEX
  5
1EB
  8
TEAM-DET1
 10
176.038325
 20
-302.53764
 30
0.0
  0
VERTEX
  5
1EC
  8
TEAM-DET1
 10
183.096976
 20
-291.887024
 30
0.0
  0
VERTEX
  5
1ED
  8
TEAM-DET1
 10
188.428534
 20
-281.255428
 30
0.0
  0
VERTEX
  5
1EE
  8
TEAM-DET1
 10
192.125364
 20
-270.727773
 30
0.0
  0
VERTEX
  5
1EF
  8
TEAM-DET1
 10
194.289109
 20
-260.323325
 30
0.0
  0
VERTEX
  5
1F0
  8
TEAM-DET1
 10
195.0
 20
-250.0
 30
0.0
  0
SEQEND
  5
1F1
  8
TEAM-DET1
  0
LINE
  5
4A
  8
TEAM-AXE
 10
-213.0
 20
-20.0
 30
0.0
 11
-213.0
 21
20.0
 31
0.0
  0
LINE
  5
4D
  8
TEAM-BODY
 10
-275.0
 20
-239.343734
 30
0.0
 11
-275.0
 21
-250.0
 31
0.0
  0
LINE
  5
4E
  8
TEAM-BODY
 10
-245.0
 20
-250.0
 30
0.0
 11
-240.849253
 21
-225.163618
 31
0.0
  0
LINE
  5
4F
  8
TEAM-BODY
 10
-275.0
 20
-239.343734
 30
0.0
 11
-238.0
 21
0.0
 31
0.0
  0
LINE
  5
50
  8
TEAM-BODY
 10
-245.0
 20
-250.0
 30
0.0
 11
-213.948018
 21
-55.275699
 31
0.0
  0
ARC
  5
51
  8
TEAM-BODY
 10
-83.293246
 20
-249.089543
 30
0.0
 40
159.362308
 50
93.352753
 51
171.365226
  0
ARC
  5
52
  8
TEAM-BODY
 10
-184.322337
 20
-60.0
 30
0.0
 40
30.0
 50
90.0
 51
170.939536
  0
ARC
  5
53
  8
TEAM-DET1
 10
-210.280946
 20
-63.228447
 30
0.0
 40
38.230011
 50
89.481777
 51
156.960157
  0
ARC
  5
54
  8
TEAM-DET1
 10
-80.302637
 20
-237.888592
 30
0.0
 40
115.335039
 50
94.668141
 51
186.027781
  0
DIMENSION
  5
55
  8
TEAM-MAS
  2
*D2
 10
334.922804
 20
-450.0
 30
0.0
 11
334.922804
 21
-225.0
 31
0.0
 12
-4000.0
 22
-20000.0
 32
0.0
 13
238.0
 23
0.0
 33
0.0
 14
0.0
 24
-450.0
 34
0.0
 50
90.0
  0
CIRCLE
  5
63
  8
TEAM-DET1
 10
0.0
 20
-190.0
 30
0.0
 40
21.0
  0
LINE
  5
64
  8
TEAM-AXE
 10
213.0
 20
-20.0
 30
0.0
 11
213.0
 21
20.0
 31
0.0
  0
ARC
  5
65
  8
TEAM-BODY
 10
83.293246
 20
-249.089543
 30
0.0
 40
159.362308
 50
8.634774
 51
86.647247
  0
LINE
  5
66
  8
TEAM-BODY
 10
245.0
 20
-250.0
 30
0.0
 11
213.948018
 21
-55.275699
 31
0.0
  0
LINE
  5
67
  8
TEAM-BODY
 10
26.742104
 20
-86.40849
 30
0.0
 11
35.458618
 21
-52.525713
 31
0.0
  0
LINE
  5
68
  8
TEAM-AXE
 10
0.0
 20
-221.0
 30
0.0
 11
0.0
 21
-159.0
 31
0.0
  0
CIRCLE
  5
69
  8
TEAM-BODY
 10
0.0
 20
-190.0
 30
0.0
 40
26.0
  0
LINE
  5
6A
  8
TEAM-AXE
 10
31.0
 20
-190.0
 30
0.0
 11
-31.0
 21
-190.0
 31
0.0
  0
LINE
  5
6B
  8
TEAM-BODY
 10
-26.742104
 20
-86.40849
 30
0.0
 11
-35.458618
 21
-52.525713
 31
0.0
  0
LINE
  5
6C
  8
TEAM-BODY
 10
184.322337
 20
-30.0
 30
0.0
 11
64.51262
 21
-30.0
 31
0.0
  0
LINE
  5
6D
  8
TEAM-BODY
 10
275.0
 20
-250.0
 30
0.0
 11
275.0
 21
-239.343734
 31
0.0
  0
LINE
  5
6E
  8
TEAM-BODY
 10
245.0
 20
-250.0
 30
0.0
 11
240.849253
 21
-225.163618
 31
0.0
  0
LINE
  5
6F
  8
TEAM-BODY
 10
275.0
 20
-239.343734
 30
0.0
 11
238.0
 21
0.0
 31
0.0
  0
CIRCLE
  5
70
  8
TEAM-INSP
 10
0.0
 20
0.0
 30
0.0
 40
10.0
  0
ARC
  5
72
  8
TEAM-BODY
 10
184.322337
 20
-60.0
 30
0.0
 40
30.0
 50
9.060464
 51
90.0
  0
ARC
  5
73
  8
TEAM-BODY
 10
64.51262
 20
-60.0
 30
0.0
 40
30.0
 50
90.0
 51
165.573201
  0
ARC
  5
74
  8
TEAM-BODY
 10
-64.51262
 20
-60.0
 30
0.0
 40
30.0
 50
14.426799
 51
90.0
  0
LINE
  5
75
  8
TEAM-DET1
 10
22.888298
 20
-81.320179
 30
0.0
 11
30.616284
 21
-51.279999
 31
0.0
  0
LINE
  5
76
  8
TEAM-DET1
 10
-22.888298
 20
-81.320179
 30
0.0
 11
-30.616284
 21
-51.279999
 31
0.0
  0
ARC
  5
77
  8
TEAM-DET1
 10
-64.51262
 20
-60.0
 30
0.0
 40
35.0
 50
14.426799
 51
90.0
  0
ARC
  5
78
  8
TEAM-DET1
 10
64.51262
 20
-60.0
 30
0.0
 40
35.0
 50
90.0
 51
165.573201
  0
LINE
  5
79
  8
TEAM-DET1
 10
209.935173
 20
-25.0
 30
0.0
 11
64.51262
 21
-25.0
 31
0.0
  0
ARC
  5
7A
  8
TEAM-DET1
 10
210.280946
 20
-63.228447
 30
0.0
 40
38.230011
 50
23.039843
 51
90.518223
  0
ARC
  5
7B
  8
TEAM-DET1
 10
0.0
 20
-1182.74051
 30
0.0
 40
1101.658123
 50
88.809524
 51
91.190476
  0
ARC
  5
7C
  8
TEAM-DET1
 10
80.302637
 20
-237.888592
 30
0.0
 40
115.335039
 50
353.972219
 51
85.331859
  0
ENDSEC
  0
EOF
