  0
SECTION
  2
HEADER
  9
$ACADVER
  1
AC1009
  9
$INSBASE
 10
0.0
 20
0.0
 30
0.0
  9
$EXTMIN
 10
-262.880137
 20
-10.020304
 30
0.0
  9
$EXTMAX
 10
450.055523
 20
754.548413
 30
0.000005
  9
$LIMMIN
 10
-262.880137
 20
-10.020304
  9
$LIMMAX
 10
450.055523
 20
754.548413
  9
$ORTHOMODE
 70
     1
  9
$REGENMODE
 70
     1
  9
$FILLMODE
 70
     1
  9
$QTEXTMODE
 70
     0
  9
$MIRRTEXT
 70
     0
  9
$DRAGMODE
 70
     2
  9
$LTSCALE
 40
50.0
  9
$OSMODE
 70
     0
  9
$ATTMODE
 70
     1
  9
$TEXTSIZE
 40
200.0
  9
$TRACEWID
 40
1.0
  9
$TEXTSTYLE
  7
STANDARD
  9
$CLAYER
  8
TEAM-MAS
  9
$CELTYPE
  6
BYLAYER
  9
$CECOLOR
 62
   256
  9
$DIMSCALE
 40
0.0
  9
$DIMASZ
 40
20.0
  9
$DIMEXO
 40
10.0
  9
$DIMDLI
 40
1.0
  9
$DIMRND
 40
0.0
  9
$DIMDLE
 40
0.0
  9
$DIMEXE
 40
1.0
  9
$DIMTP
 40
0.0
  9
$DIMTM
 40
0.0
  9
$DIMTXT
 40
35.0
  9
$DIMCEN
 40
1.0
  9
$DIMTSZ
 40
0.0
  9
$DIMTOL
 70
     0
  9
$DIMLIM
 70
     0
  9
$DIMTIH
 70
     0
  9
$DIMTOH
 70
     0
  9
$DIMSE1
 70
     0
  9
$DIMSE2
 70
     0
  9
$DIMTAD
 70
     0
  9
$DIMZIN
 70
     0
  9
$DIMBLK
  1

  9
$DIMASO
 70
     1
  9
$DIMSHO
 70
     0
  9
$DIMPOST
  1

  9
$DIMAPOST
  1

  9
$DIMALT
 70
     0
  9
$DIMALTD
 70
     2
  9
$DIMALTF
 40
25.4
  9
$DIMLFAC
 40
1.0
  9
$DIMTOFL
 70
     0
  9
$DIMTVP
 40
0.0
  9
$DIMTIX
 70
     0
  9
$DIMSOXD
 70
     0
  9
$DIMSAH
 70
     0
  9
$DIMBLK1
  1

  9
$DIMBLK2
  1

  9
$DIMSTYLE
  2
TEAM
  9
$DIMCLRD
 70
     9
  9
$DIMCLRE
 70
     9
  9
$DIMCLRT
 70
    11
  9
$DIMTFAC
 40
1.0
  9
$DIMGAP
 40
7.0
  9
$LUNITS
 70
     2
  9
$LUPREC
 70
     1
  9
$SKETCHINC
 40
1.0
  9
$FILLETRAD
 40
50.0
  9
$AUNITS
 70
     0
  9
$AUPREC
 70
     0
  9
$MENU
  1
ROPLANS
  9
$ELEVATION
 40
0.0
  9
$PELEVATION
 40
0.0
  9
$THICKNESS
 40
0.0
  9
$LIMCHECK
 70
     0
  9
$BLIPMODE
 70
     1
  9
$CHAMFERA
 40
0.0
  9
$CHAMFERB
 40
0.0
  9
$SKPOLY
 70
     0
  9
$TDCREATE
 40
2450392.957851
  9
$TDUPDATE
 40
2456272.033233
  9
$TDINDWG
 40
2.315654
  9
$TDUSRTIMER
 40
2.315654
  9
$USRTIMER
 70
     1
  9
$ANGBASE
 50
0.0
  9
$ANGDIR
 70
     0
  9
$PDMODE
 70
     0
  9
$PDSIZE
 40
0.0
  9
$PLINEWID
 40
0.0
  9
$COORDS
 70
     2
  9
$SPLFRAME
 70
     0
  9
$SPLINETYPE
 70
     6
  9
$SPLINESEGS
 70
     8
  9
$ATTDIA
 70
     0
  9
$ATTREQ
 70
     0
  9
$HANDLING
 70
     1
  9
$HANDSEED
  5
1DC
  9
$SURFTAB1
 70
    24
  9
$SURFTAB2
 70
    24
  9
$SURFTYPE
 70
     6
  9
$SURFU
 70
     6
  9
$SURFV
 70
     6
  9
$UCSNAME
  2

  9
$UCSORG
 10
0.0
 20
0.0
 30
0.0
  9
$UCSXDIR
 10
1.0
 20
0.0
 30
0.0
  9
$UCSYDIR
 10
0.0
 20
1.0
 30
0.0
  9
$PUCSNAME
  2

  9
$PUCSORG
 10
0.0
 20
0.0
 30
0.0
  9
$PUCSXDIR
 10
1.0
 20
0.0
 30
0.0
  9
$PUCSYDIR
 10
0.0
 20
1.0
 30
0.0
  9
$USERI1
 70
     0
  9
$USERI2
 70
     0
  9
$USERI3
 70
     0
  9
$USERI4
 70
     0
  9
$USERI5
 70
     0
  9
$USERR1
 40
0.0
  9
$USERR2
 40
0.0
  9
$USERR3
 40
0.0
  9
$USERR4
 40
0.0
  9
$USERR5
 40
0.0
  9
$WORLDVIEW
 70
     1
  9
$SHADEDGE
 70
     0
  9
$SHADEDIF
 70
    70
  9
$TILEMODE
 70
     1
  9
$MAXACTVP
 70
    16
  9
$PLIMCHECK
 70
     0
  9
$PEXTMIN
 10
-0.805942
 20
0.005011
 30
0.0
  9
$PEXTMAX
 10
20.250094
 20
11.356329
 30
0.0
  9
$PLIMMIN
 10
0.0
 20
0.0
  9
$PLIMMAX
 10
12.0
 20
9.0
  9
$UNITMODE
 70
     0
  9
$VISRETAIN
 70
     0
  9
$PLINEGEN
 70
     0
  9
$PSLTSCALE
 70
     0
  0
ENDSEC
  0
SECTION
  2
TABLES
  0
TABLE
  2
VPORT
 70
     2
  0
VPORT
  2
*ACTIVE
 70
     0
 10
0.0
 20
0.0
 11
1.0
 21
1.0
 12
93.587693
 22
372.264054
 13
0.0
 23
0.0
 14
1.0
 24
1.0
 15
50.0
 25
50.0
 16
0.0
 26
0.0
 36
1.0
 17
0.0
 27
0.0
 37
0.0
 40
769.382372
 41
1.911765
 42
50.0
 43
0.0
 44
0.0
 50
0.0
 51
0.0
 71
     0
 72
   100
 73
     1
 74
     1
 75
     0
 76
     0
 77
     0
 78
     0
  0
ENDTAB
  0
TABLE
  2
LTYPE
 70
     3
  0
LTYPE
  2
CONTINUOUS
 70
     0
  3
Solid Line
 72
    65
 73
     0
 40
0.0
  0
LTYPE
  2
31
 70
     0
  3

 72
    65
 73
     4
 40
2.1
 49
1.5
 49
-0.3
 49
0.0
 49
-0.3
  0
LTYPE
  2
22
 70
     0
  3

 72
    65
 73
     2
 40
1.4
 49
1.2
 49
-0.2
  0
ENDTAB
  0
TABLE
  2
LAYER
 70
    10
  0
LAYER
  2
0
 70
     0
 62
     7
  6
CONTINUOUS
  0
LAYER
  2
DEFPOINTS
 70
     0
 62
     7
  6
CONTINUOUS
  0
LAYER
  2
TEAM-BODY
 70
     0
 62
     2
  6
CONTINUOUS
  0
LAYER
  2
TEAM-AXE
 70
     0
 62
    10
  6
31
  0
LAYER
  2
TEAM-MAS
 70
     0
 62
     9
  6
CONTINUOUS
  0
LAYER
  2
TEAM-TXT
 70
     0
 62
    11
  6
CONTINUOUS
  0
LAYER
  2
TEAM-HIDE
 70
     0
 62
     8
  6
22
  0
LAYER
  2
TEAM-KAN
 70
     0
 62
     6
  6
CONTINUOUS
  0
LAYER
  2
TEAM-DET3
 70
     0
 62
    14
  6
CONTINUOUS
  0
LAYER
  2
TEAM-INSP
 70
     0
 62
     5
  6
CONTINUOUS
  0
ENDTAB
  0
TABLE
  2
STYLE
 70
     2
  0
STYLE
  2
STANDARD
 70
     0
 40
0.0
 41
1.0
 50
0.0
 71
     0
 42
200.0
  3
txt
  4

  0
STYLE
  2
TEAM
 70
     0
 40
0.0
 41
0.8
 50
15.0
 71
     0
 42
7.0
  3
ROMANS.shx
  4

  0
ENDTAB
  0
TABLE
  2
VIEW
 70
     0
  0
ENDTAB
  0
TABLE
  2
UCS
 70
     0
  0
ENDTAB
  0
TABLE
  2
APPID
 70
     1
  0
APPID
  2
ACAD
 70
     0
  0
ENDTAB
  0
TABLE
  2
DIMSTYLE
 70
     1
  0
DIMSTYLE
  2
TEAM
 70
     0
  3

  4

  5

  6

  7

 40
0.0
 41
20.0
 42
10.0
 43
1.0
 44
1.0
 45
0.0
 46
0.0
 47
0.0
 48
0.0
140
35.0
141
1.0
142
0.0
143
25.4
144
1.0
145
0.0
146
1.0
147
7.0
 71
     0
 72
     0
 73
     0
 74
     0
 75
     0
 76
     0
 77
     0
 78
     0
170
     0
171
     2
172
     0
173
     0
174
     0
175
     0
176
     9
177
     9
178
    11
  0
ENDTAB
  0
ENDSEC
  0
SECTION
  2
BLOCKS
  0
BLOCK
  8
0
  2
$MODEL_SPACE
 70
     0
 10
0.0
 20
0.0
 30
0.0
  3
$MODEL_SPACE
  1

  0
ENDBLK
  5
181
  8
0
  0
BLOCK
 67
     1
  8
0
  2
$PAPER_SPACE
 70
     0
 10
0.0
 20
0.0
 30
0.0
  3
$PAPER_SPACE
  1

  0
ENDBLK
  5
17F
 67
     1
  8
0
  0
BLOCK
  8
0
  2
*D0
 70
     1
 10
0.0
 20
0.0
 30
0.0
  3
*D0
  1

  0
LINE
  5
22
  8
0
  6
BYBLOCK
 62
     9
 10
7990.0
 20
20700.0
 30
0.0
 11
7899.827745
 21
20700.0
 31
0.0
  0
LINE
  5
23
  8
0
  6
BYBLOCK
 62
     9
 10
7975.652822
 20
20625.0
 30
0.0
 11
7899.827745
 21
20625.0
 31
0.0
  0
LINE
  5
24
  8
0
  6
BYBLOCK
 62
     9
 10
7900.827745
 20
20680.0
 30
0.0
 11
7900.827745
 21
20645.0
 31
0.0
  0
TEXT
  5
25
  8
0
  6
BYBLOCK
 62
    11
 10
7918.246437
 20
20564.115914
 30
0.0
 40
35.0
  1
75
 50
90.0
  0
SOLID
  5
26
  8
0
  6
BYBLOCK
 62
     9
 10
7897.494412
 20
20680.0
 30
0.0
 11
7904.161079
 21
20680.0
 31
0.0
 12
7900.827745
 22
20700.0
 32
0.0
 13
7900.827745
 23
20700.0
 33
0.0
  0
SOLID
  5
27
  8
0
  6
BYBLOCK
 62
     9
 10
7897.494412
 20
20645.0
 30
0.0
 11
7904.161079
 21
20645.0
 31
0.0
 12
7900.827745
 22
20625.0
 32
0.0
 13
7900.827745
 23
20625.0
 33
0.0
  0
POINT
  5
28
  8
DEFPOINTS
  6
BYBLOCK
 62
     0
 10
8000.0
 20
20700.0
 30
0.0
  0
POINT
  5
2A
  8
DEFPOINTS
  6
BYBLOCK
 62
     0
 10
7985.652822
 20
20625.0
 30
0.0
  0
POINT
  5
2B
  8
DEFPOINTS
  6
BYBLOCK
 62
     0
 10
7900.827745
 20
20625.0
 30
0.0
  0
ENDBLK
  5
2D
  8
0
  0
BLOCK
  8
0
  2
*D1
 70
     1
 10
0.0
 20
0.0
 30
0.0
  3
*D1
  1

  0
LINE
  5
30
  8
0
  6
BYBLOCK
 62
     9
 10
7990.0
 20
20000.0
 30
0.0
 11
7753.644072
 21
20000.0
 31
0.0
  0
LINE
  5
31
  8
0
  6
BYBLOCK
 62
     9
 10
7990.0
 20
20700.0
 30
0.0
 11
7753.644072
 21
20700.0
 31
0.0
  0
LINE
  5
32
  8
0
  6
BYBLOCK
 62
     9
 10
7754.644072
 20
20020.0
 30
0.0
 11
7754.644072
 21
20235.083333
 31
0.0
  0
LINE
  5
33
  8
0
  6
BYBLOCK
 62
     9
 10
7754.644072
 20
20680.0
 30
0.0
 11
7754.644072
 21
20464.916667
 31
0.0
  0
SOLID
  5
34
  8
0
  6
BYBLOCK
 62
     9
 10
7751.310739
 20
20020.0
 30
0.0
 11
7757.977406
 21
20020.0
 31
0.0
 12
7754.644072
 22
20000.0
 32
0.0
 13
7754.644072
 23
20000.0
 33
0.0
  0
SOLID
  5
35
  8
0
  6
BYBLOCK
 62
     9
 10
7751.310739
 20
20680.0
 30
0.0
 11
7757.977406
 21
20680.0
 31
0.0
 12
7754.644072
 22
20700.0
 32
0.0
 13
7754.644072
 23
20700.0
 33
0.0
  0
TEXT
  5
36
  8
0
  6
BYBLOCK
 62
    11
 10
7772.144072
 20
20242.083333
 30
0.0
 40
35.0
  1
650-800
 50
90.0
  0
POINT
  5
37
  8
DEFPOINTS
  6
BYBLOCK
 62
     0
 10
8000.0
 20
20000.0
 30
0.0
  0
POINT
  5
38
  8
DEFPOINTS
  6
BYBLOCK
 62
     0
 10
8000.0
 20
20700.0
 30
0.0
  0
POINT
  5
39
  8
DEFPOINTS
  6
BYBLOCK
 62
     0
 10
7754.644072
 20
20700.0
 30
0.0
  0
ENDBLK
  5
3B
  8
0
  0
BLOCK
  8
0
  2
*D2
 70
     1
 10
0.0
 20
0.0
 30
0.0
  3
*D2
  1

  0
LINE
  5
3E
  8
0
  6
BYBLOCK
 62
     9
 10
7990.0
 20
20000.0
 30
0.0
 11
7852.508813
 21
20000.0
 31
0.0
  0
LINE
  5
3F
  8
0
  6
BYBLOCK
 62
     9
 10
7990.0
 20
20400.0
 30
0.0
 11
7852.508813
 21
20400.0
 31
0.0
  0
LINE
  5
40
  8
0
  6
BYBLOCK
 62
     9
 10
7853.508813
 20
20020.0
 30
0.0
 11
7853.508813
 21
20085.083333
 31
0.0
  0
LINE
  5
41
  8
0
  6
BYBLOCK
 62
     9
 10
7853.508813
 20
20380.0
 30
0.0
 11
7853.508813
 21
20314.916667
 31
0.0
  0
SOLID
  5
42
  8
0
  6
BYBLOCK
 62
     9
 10
7850.175479
 20
20020.0
 30
0.0
 11
7856.842146
 21
20020.0
 31
0.0
 12
7853.508813
 22
20000.0
 32
0.0
 13
7853.508813
 23
20000.0
 33
0.0
  0
SOLID
  5
43
  8
0
  6
BYBLOCK
 62
     9
 10
7850.175479
 20
20380.0
 30
0.0
 11
7856.842146
 21
20380.0
 31
0.0
 12
7853.508813
 22
20400.0
 32
0.0
 13
7853.508813
 23
20400.0
 33
0.0
  0
TEXT
  5
44
  8
0
  6
BYBLOCK
 62
    11
 10
7871.008813
 20
20092.083333
 30
0.0
 40
35.0
  1
300-450
 50
90.0
  0
POINT
  5
45
  8
DEFPOINTS
  6
BYBLOCK
 62
     0
 10
8000.0
 20
20000.0
 30
0.0
  0
POINT
  5
46
  8
DEFPOINTS
  6
BYBLOCK
 62
     0
 10
8000.0
 20
20400.0
 30
0.0
  0
POINT
  5
47
  8
DEFPOINTS
  6
BYBLOCK
 62
     0
 10
7853.508813
 20
20400.0
 30
0.0
  0
ENDBLK
  5
49
  8
0
  0
BLOCK
  8
0
  2
*D3
 70
     1
 10
0.0
 20
0.0
 30
0.0
  3
*D3
  1

  0
LINE
  5
4C
  8
0
  6
BYBLOCK
 62
     9
 10
7990.0
 20
20000.0
 30
0.0
 11
7899.827745
 21
20000.0
 31
0.0
  0
LINE
  5
4D
  8
0
  6
BYBLOCK
 62
     9
 10
7990.0
 20
20400.0
 30
0.0
 11
7899.827745
 21
20400.0
 31
0.0
  0
LINE
  5
4E
  8
0
  6
BYBLOCK
 62
     9
 10
7900.827745
 20
20020.0
 30
0.0
 11
7900.827745
 21
20152.166667
 31
0.0
  0
LINE
  5
4F
  8
0
  6
BYBLOCK
 62
     9
 10
7900.827745
 20
20380.0
 30
0.0
 11
7900.827745
 21
20247.833333
 31
0.0
  0
SOLID
  5
50
  8
0
  6
BYBLOCK
 62
     9
 10
7897.494412
 20
20020.0
 30
0.0
 11
7904.161079
 21
20020.0
 31
0.0
 12
7900.827745
 22
20000.0
 32
0.0
 13
7900.827745
 23
20000.0
 33
0.0
  0
SOLID
  5
51
  8
0
  6
BYBLOCK
 62
     9
 10
7897.494412
 20
20380.0
 30
0.0
 11
7904.161079
 21
20380.0
 31
0.0
 12
7900.827745
 22
20400.0
 32
0.0
 13
7900.827745
 23
20400.0
 33
0.0
  0
TEXT
  5
52
  8
0
  6
BYBLOCK
 62
    11
 10
7918.327745
 20
20159.166667
 30
0.0
 40
35.0
  1
400
 50
90.0
  0
POINT
  5
53
  8
DEFPOINTS
  6
BYBLOCK
 62
     0
 10
8000.0
 20
20000.0
 30
0.0
  0
POINT
  5
54
  8
DEFPOINTS
  6
BYBLOCK
 62
     0
 10
8000.0
 20
20400.0
 30
0.0
  0
POINT
  5
55
  8
DEFPOINTS
  6
BYBLOCK
 62
     0
 10
7900.827745
 20
20400.0
 30
0.0
  0
ENDBLK
  5
57
  8
0
  0
BLOCK
  8
0
  2
*D4
 70
     1
 10
0.0
 20
0.0
 30
0.0
  3
*D4
  1

  0
LINE
  5
5A
  8
0
  6
BYBLOCK
 62
     9
 10
7990.0
 20
20000.0
 30
0.0
 11
7803.076332
 21
20000.0
 31
0.0
  0
LINE
  5
5B
  8
0
  6
BYBLOCK
 62
     9
 10
7990.0
 20
20700.0
 30
0.0
 11
7803.076332
 21
20700.0
 31
0.0
  0
LINE
  5
5C
  8
0
  6
BYBLOCK
 62
     9
 10
7804.076332
 20
20020.0
 30
0.0
 11
7804.076332
 21
20302.166667
 31
0.0
  0
LINE
  5
5D
  8
0
  6
BYBLOCK
 62
     9
 10
7804.076332
 20
20680.0
 30
0.0
 11
7804.076332
 21
20397.833333
 31
0.0
  0
SOLID
  5
5E
  8
0
  6
BYBLOCK
 62
     9
 10
7800.742999
 20
20020.0
 30
0.0
 11
7807.409665
 21
20020.0
 31
0.0
 12
7804.076332
 22
20000.0
 32
0.0
 13
7804.076332
 23
20000.0
 33
0.0
  0
SOLID
  5
5F
  8
0
  6
BYBLOCK
 62
     9
 10
7800.742999
 20
20680.0
 30
0.0
 11
7807.409665
 21
20680.0
 31
0.0
 12
7804.076332
 22
20700.0
 32
0.0
 13
7804.076332
 23
20700.0
 33
0.0
  0
TEXT
  5
60
  8
0
  6
BYBLOCK
 62
    11
 10
7821.576332
 20
20309.166667
 30
0.0
 40
35.0
  1
700
 50
90.0
  0
POINT
  5
61
  8
DEFPOINTS
  6
BYBLOCK
 62
     0
 10
8000.0
 20
20000.0
 30
0.0
  0
POINT
  5
62
  8
DEFPOINTS
  6
BYBLOCK
 62
     0
 10
8000.0
 20
20700.0
 30
0.0
  0
POINT
  5
63
  8
DEFPOINTS
  6
BYBLOCK
 62
     0
 10
7804.076332
 20
20700.0
 30
0.0
  0
ENDBLK
  5
65
  8
0
  0
BLOCK
  8
0
  2
*D5
 70
     1
 10
0.0
 20
0.0
 30
0.0
  3
*D5
  1

  0
LINE
  5
68
  8
0
  6
BYBLOCK
 62
     9
 10
8450.0
 20
20710.0
 30
0.0
 11
8450.0
 21
20738.041871
 31
0.0
  0
LINE
  5
69
  8
0
  6
BYBLOCK
 62
     9
 10
8000.0
 20
20710.0
 30
0.0
 11
8000.0
 21
20738.041871
 31
0.0
  0
LINE
  5
6A
  8
0
  6
BYBLOCK
 62
     9
 10
8430.0
 20
20737.041871
 30
0.0
 11
8275.75
 21
20737.041871
 31
0.0
  0
LINE
  5
6B
  8
0
  6
BYBLOCK
 62
     9
 10
8020.0
 20
20737.041871
 30
0.0
 11
8174.25
 21
20737.041871
 31
0.0
  0
SOLID
  5
6C
  8
0
  6
BYBLOCK
 62
     9
 10
8430.0
 20
20740.375204
 30
0.0
 11
8430.0
 21
20733.708537
 31
0.0
 12
8450.0
 22
20737.041871
 32
0.0
 13
8450.0
 23
20737.041871
 33
0.0
  0
SOLID
  5
6D
  8
0
  6
BYBLOCK
 62
     9
 10
8020.0
 20
20740.375204
 30
0.0
 11
8020.0
 21
20733.708537
 31
0.0
 12
8000.0
 22
20737.041871
 32
0.0
 13
8000.0
 23
20737.041871
 33
0.0
  0
TEXT
  5
6E
  8
0
  6
BYBLOCK
 62
    11
 10
8181.25
 20
20719.541871
 30
0.0
 40
35.0
  1
450
  0
POINT
  5
6F
  8
DEFPOINTS
  6
BYBLOCK
 62
     0
 10
8450.0
 20
20700.0
 30
0.0
  0
POINT
  5
70
  8
DEFPOINTS
  6
BYBLOCK
 62
     0
 10
8000.0
 20
20700.0
 30
0.0
  0
POINT
  5
71
  8
DEFPOINTS
  6
BYBLOCK
 62
     0
 10
8000.0
 20
20737.041871
 30
0.0
  0
ENDBLK
  5
73
  8
0
  0
BLOCK
  8
0
  2
*D6
 70
     1
 10
0.0
 20
0.0
 30
0.0
  3
*D6
  1

  0
LINE
  5
76
  8
0
  6
BYBLOCK
 62
     9
 10
7990.0
 20
20700.0
 30
0.0
 11
7852.508813
 21
20700.0
 31
0.0
  0
LINE
  5
77
  8
0
  6
BYBLOCK
 62
     9
 10
8180.0
 20
20545.0
 30
0.0
 11
7852.508813
 21
20545.0
 31
0.0
  0
LINE
  5
78
  8
0
  6
BYBLOCK
 62
     9
 10
7853.508813
 20
20680.0
 30
0.0
 11
7853.508813
 21
20670.333333
 31
0.0
  0
LINE
  5
79
  8
0
  6
BYBLOCK
 62
     9
 10
7853.508813
 20
20565.0
 30
0.0
 11
7853.508813
 21
20574.666667
 31
0.0
  0
SOLID
  5
7A
  8
0
  6
BYBLOCK
 62
     9
 10
7850.175479
 20
20680.0
 30
0.0
 11
7856.842146
 21
20680.0
 31
0.0
 12
7853.508813
 22
20700.0
 32
0.0
 13
7853.508813
 23
20700.0
 33
0.0
  0
SOLID
  5
7B
  8
0
  6
BYBLOCK
 62
     9
 10
7850.175479
 20
20565.0
 30
0.0
 11
7856.842146
 21
20565.0
 31
0.0
 12
7853.508813
 22
20545.0
 32
0.0
 13
7853.508813
 23
20545.0
 33
0.0
  0
TEXT
  5
7C
  8
0
  6
BYBLOCK
 62
    11
 10
7871.008813
 20
20581.666667
 30
0.0
 40
35.0
  1
155
 50
90.0
  0
POINT
  5
7D
  8
DEFPOINTS
  6
BYBLOCK
 62
     0
 10
8000.0
 20
20700.0
 30
0.0
  0
POINT
  5
7E
  8
DEFPOINTS
  6
BYBLOCK
 62
     0
 10
8190.0
 20
20545.0
 30
0.0
  0
POINT
  5
7F
  8
DEFPOINTS
  6
BYBLOCK
 62
     0
 10
7853.508813
 20
20545.0
 30
0.0
  0
ENDBLK
  5
81
  8
0
  0
ENDSEC
  0
SECTION
  2
ENTITIES
  0
DIMENSION
  5
20
  8
TEAM-MAS
  2
*D0
 10
-99.172255
 20
625.0
 30
0.0
 11
-99.253563
 21
593.28258
 31
0.0
 12
-8000.0
 22
-20000.0
 32
0.0
 70
   128
 13
0.0
 23
700.0
 33
0.0
 14
-14.347178
 24
625.0
 34
0.0
 50
90.0
1001
ACAD
1000
DSTYLE
1002
{
1070
    40
1040
1.0
1002
}
  0
DIMENSION
  5
2E
  8
TEAM-MAS
  2
*D1
 10
-245.355928
 20
700.0
 30
0.0
 11
-245.355928
 21
350.0
 31
0.0
 12
-8000.0
 22
-20000.0
 32
0.0
  1
650-800
 13
0.0
 23
0.0
 33
0.0
 14
0.0
 24
700.0
 34
0.0
 50
90.0
  0
DIMENSION
  5
3C
  8
TEAM-MAS
  2
*D2
 10
-146.491187
 20
400.0
 30
0.0
 11
-146.491187
 21
200.0
 31
0.0
 12
-8000.0
 22
-20000.0
 32
0.0
  1
300-450
 13
0.0
 23
0.0
 33
0.0
 14
0.0
 24
400.0
 34
0.0
 50
90.0
  0
DIMENSION
  5
4A
  8
TEAM-MAS
  2
*D3
 10
-99.172255
 20
400.0
 30
0.0
 11
-99.172255
 21
200.0
 31
0.0
 12
-8000.0
 22
-20000.0
 32
0.0
 13
0.0
 23
0.0
 33
0.0
 14
0.0
 24
400.0
 34
0.0
 50
90.0
  0
DIMENSION
  5
58
  8
TEAM-MAS
  2
*D4
 10
-195.923668
 20
700.0
 30
0.0
 11
-195.923668
 21
350.0
 31
0.0
 12
-8000.0
 22
-20000.0
 32
0.0
 13
0.0
 23
0.0
 33
0.0
 14
0.0
 24
700.0
 34
0.0
 50
90.0
  0
DIMENSION
  5
66
  8
TEAM-MAS
  2
*D5
 10
0.0
 20
737.041871
 30
0.0
 11
225.0
 21
737.041871
 31
0.0
 12
-8000.0
 22
-20000.0
 32
0.0
 13
450.0
 23
700.0
 33
0.0
 14
0.0
 24
700.0
 34
0.0
1001
ACAD
1000
DSTYLE
1002
{
1070
    40
1040
1.0
1002
}
  0
DIMENSION
  5
74
  8
TEAM-MAS
  2
*D6
 10
-146.491187
 20
545.0
 30
0.0
 11
-146.491187
 21
622.5
 31
0.0
 12
-8000.0
 22
-20000.0
 32
0.0
 13
0.0
 23
700.0
 33
0.0
 14
190.0
 24
545.0
 34
0.0
 50
90.0
  0
TEXT
  5
82
  8
TEAM-TXT
 10
140.833158
 20
606.624288
 30
0.0
 40
30.0
  1
team 412102
 41
0.8
 51
15.0
  7
TEAM
  0
LINE
  5
85
  8
TEAM-BODY
 10
450.0
 20
670.0
 30
0.0
 11
450.0
 21
700.0
 31
0.0
  0
LINE
  5
87
  8
TEAM-BODY
 10
211.0
 20
545.0
 30
0.0
 11
211.0
 21
523.747916
 31
0.0
  0
LINE
  5
88
  8
TEAM-BODY
 10
169.0
 20
547.631505
 30
0.0
 11
169.0
 21
523.747916
 31
0.0
  0
LINE
  5
89
  8
TEAM-BODY
 10
169.0
 20
523.747916
 30
0.0
 11
211.0
 21
523.747916
 31
0.0
  0
LINE
  5
8A
  8
TEAM-KAN
 10
190.0
 20
523.747916
 30
0.0
 11
190.0
 21
325.980383
 31
0.0
  0
POLYLINE
  5
8C
  8
TEAM-HIDE
 66
     1
 10
0.0
 20
0.0
 30
0.0
  0
VERTEX
  5
187
  8
TEAM-HIDE
 10
70.0
 20
670.0
 30
0.0
  0
VERTEX
  5
188
  8
TEAM-HIDE
 10
75.004772
 20
669.794847
 30
0.0
  0
VERTEX
  5
189
  8
TEAM-HIDE
 10
79.26215
 20
669.159622
 30
0.0
  0
VERTEX
  5
18A
  8
TEAM-HIDE
 10
82.855752
 20
668.064673
 30
0.0
  0
VERTEX
  5
18B
  8
TEAM-HIDE
 10
85.869197
 20
666.48035
 30
0.0
  0
VERTEX
  5
18C
  8
TEAM-HIDE
 10
88.386104
 20
664.377001
 30
0.0
  0
VERTEX
  5
18D
  8
TEAM-HIDE
 10
90.49009
 20
661.724975
 30
0.0
  0
VERTEX
  5
18E
  8
TEAM-HIDE
 10
92.264774
 20
658.494622
 30
0.0
  0
VERTEX
  5
18F
  8
TEAM-HIDE
 10
93.793775
 20
654.65629
 30
0.0
  0
VERTEX
  5
190
  8
TEAM-HIDE
 10
95.1552
 20
650.199577
 30
0.0
  0
VERTEX
  5
191
  8
TEAM-HIDE
 10
96.405121
 20
645.191074
 30
0.0
  0
VERTEX
  5
192
  8
TEAM-HIDE
 10
97.594096
 20
639.716622
 30
0.0
  0
VERTEX
  5
193
  8
TEAM-HIDE
 10
98.772685
 20
633.862061
 30
0.0
  0
VERTEX
  5
194
  8
TEAM-HIDE
 10
99.991448
 20
627.713232
 30
0.0
  0
VERTEX
  5
195
  8
TEAM-HIDE
 10
101.300946
 20
621.355973
 30
0.0
  0
VERTEX
  5
196
  8
TEAM-HIDE
 10
102.751737
 20
614.876127
 30
0.0
  0
VERTEX
  5
197
  8
TEAM-HIDE
 10
104.394383
 20
608.359532
 30
0.0
  0
VERTEX
  5
198
  8
TEAM-HIDE
 10
105.778472
 20
603.584738
 30
0.0
  0
SEQEND
  5
199
  8
TEAM-HIDE
  0
POLYLINE
  5
8F
  8
TEAM-BODY
 66
     1
 10
0.0
 20
0.0
 30
0.0
  0
VERTEX
  5
19A
  8
TEAM-BODY
 10
106.270629
 20
601.887381
 30
0.0
  0
VERTEX
  5
19B
  8
TEAM-BODY
 10
108.378386
 20
595.5481
 30
0.0
  0
VERTEX
  5
19C
  8
TEAM-BODY
 10
110.712116
 20
589.409323
 30
0.0
  0
VERTEX
  5
19D
  8
TEAM-BODY
 10
113.261991
 20
583.551599
 30
0.0
  0
VERTEX
  5
19E
  8
TEAM-BODY
 10
116.019252
 20
578.052248
 30
0.0
  0
VERTEX
  5
19F
  8
TEAM-BODY
 10
118.975145
 20
572.98859
 30
0.0
  0
VERTEX
  5
1A0
  8
TEAM-BODY
 10
122.120911
 20
568.437946
 30
0.0
  0
VERTEX
  5
1A1
  8
TEAM-BODY
 10
125.447795
 20
564.477636
 30
0.0
  0
VERTEX
  5
1A2
  8
TEAM-BODY
 10
128.93729
 20
561.160161
 30
0.0
  0
VERTEX
  5
1A3
  8
TEAM-BODY
 10
132.531894
 20
558.438748
 30
0.0
  0
VERTEX
  5
1A4
  8
TEAM-BODY
 10
136.164351
 20
556.241803
 30
0.0
  0
VERTEX
  5
1A5
  8
TEAM-BODY
 10
139.767411
 20
554.497734
 30
0.0
  0
VERTEX
  5
1A6
  8
TEAM-BODY
 10
143.273819
 20
553.134948
 30
0.0
  0
VERTEX
  5
1A7
  8
TEAM-BODY
 10
146.616322
 20
552.081851
 30
0.0
  0
VERTEX
  5
1A8
  8
TEAM-BODY
 10
149.727667
 20
551.266852
 30
0.0
  0
VERTEX
  5
1A9
  8
TEAM-BODY
 10
152.540602
 20
550.618358
 30
0.0
  0
VERTEX
  5
1AA
  8
TEAM-BODY
 10
155.011485
 20
550.074321
 30
0.0
  0
VERTEX
  5
1AB
  8
TEAM-BODY
 10
157.191124
 20
549.610882
 30
0.0
  0
VERTEX
  5
1AC
  8
TEAM-BODY
 10
159.153939
 20
549.213726
 30
0.0
  0
VERTEX
  5
1AD
  8
TEAM-BODY
 10
160.97435
 20
548.868538
 30
0.0
  0
VERTEX
  5
1AE
  8
TEAM-BODY
 10
162.726776
 20
548.561004
 30
0.0
  0
VERTEX
  5
1AF
  8
TEAM-BODY
 10
164.485638
 20
548.276811
 30
0.0
  0
VERTEX
  5
1B0
  8
TEAM-BODY
 10
166.325355
 20
548.001643
 30
0.0
  0
VERTEX
  5
1B1
  8
TEAM-BODY
 10
168.320347
 20
547.721185
 30
0.0
  0
VERTEX
  5
1B2
  8
TEAM-BODY
 10
170.551011
 20
547.42685
 30
0.0
  0
VERTEX
  5
1B3
  8
TEAM-BODY
 10
173.121649
 20
547.132944
 30
0.0
  0
VERTEX
  5
1B4
  8
TEAM-BODY
 10
176.142542
 20
546.859502
 30
0.0
  0
VERTEX
  5
1B5
  8
TEAM-BODY
 10
179.72397
 20
546.626557
 30
0.0
  0
VERTEX
  5
1B6
  8
TEAM-BODY
 10
183.97621
 20
546.454142
 30
0.0
  0
VERTEX
  5
1B7
  8
TEAM-BODY
 10
189.009544
 20
546.362291
 30
0.0
  0
VERTEX
  5
1B8
  8
TEAM-BODY
 10
194.934252
 20
546.371036
 30
0.0
  0
VERTEX
  5
1B9
  8
TEAM-BODY
 10
201.860611
 20
546.500412
 30
0.0
  0
VERTEX
  5
1BA
  8
TEAM-BODY
 10
209.848916
 20
546.766842
 30
0.0
  0
VERTEX
  5
1BB
  8
TEAM-BODY
 10
218.759504
 20
547.172312
 30
0.0
  0
VERTEX
  5
1BC
  8
TEAM-BODY
 10
228.40273
 20
547.715199
 30
0.0
  0
VERTEX
  5
1BD
  8
TEAM-BODY
 10
238.588944
 20
548.393877
 30
0.0
  0
VERTEX
  5
1BE
  8
TEAM-BODY
 10
249.128499
 20
549.206724
 30
0.0
  0
VERTEX
  5
1BF
  8
TEAM-BODY
 10
259.831746
 20
550.152116
 30
0.0
  0
VERTEX
  5
1C0
  8
TEAM-BODY
 10
270.509039
 20
551.228428
 30
0.0
  0
VERTEX
  5
1C1
  8
TEAM-BODY
 10
280.97073
 20
552.434038
 30
0.0
  0
VERTEX
  5
1C2
  8
TEAM-BODY
 10
291.056921
 20
553.769023
 30
0.0
  0
VERTEX
  5
1C3
  8
TEAM-BODY
 10
300.72672
 20
555.240269
 30
0.0
  0
VERTEX
  5
1C4
  8
TEAM-BODY
 10
309.968985
 20
556.856362
 30
0.0
  0
VERTEX
  5
1C5
  8
TEAM-BODY
 10
318.772577
 20
558.625889
 30
0.0
  0
VERTEX
  5
1C6
  8
TEAM-BODY
 10
327.126353
 20
560.557437
 30
0.0
  0
VERTEX
  5
1C7
  8
TEAM-BODY
 10
335.019171
 20
562.659593
 30
0.0
  0
VERTEX
  5
1C8
  8
TEAM-BODY
 10
342.439892
 20
564.940945
 30
0.0
  0
VERTEX
  5
1C9
  8
TEAM-BODY
 10
349.377373
 20
567.410078
 30
0.0
  0
VERTEX
  5
1CA
  8
TEAM-BODY
 10
355.828844
 20
570.074422
 30
0.0
  0
VERTEX
  5
1CB
  8
TEAM-BODY
 10
361.825019
 20
572.936771
 30
0.0
  0
VERTEX
  5
1CC
  8
TEAM-BODY
 10
367.40498
 20
575.998761
 30
0.0
  0
VERTEX
  5
1CD
  8
TEAM-BODY
 10
372.607812
 20
579.26203
 30
0.0
  0
VERTEX
  5
1CE
  8
TEAM-BODY
 10
377.4726
 20
582.728213
 30
0.0
  0
VERTEX
  5
1CF
  8
TEAM-BODY
 10
382.038426
 20
586.398947
 30
0.0
  0
VERTEX
  5
1D0
  8
TEAM-BODY
 10
386.344374
 20
590.275869
 30
0.0
  0
VERTEX
  5
1D1
  8
TEAM-BODY
 10
390.42953
 20
594.360614
 30
0.0
  0
VERTEX
  5
1D2
  8
TEAM-BODY
 10
394.333264
 20
598.723732
 30
0.0
  0
VERTEX
  5
1D3
  8
TEAM-BODY
 10
398.096104
 20
603.711424
 30
0.0
  0
VERTEX
  5
1D4
  8
TEAM-BODY
 10
401.758864
 20
609.738804
 30
0.0
  0
VERTEX
  5
1D5
  8
TEAM-BODY
 10
405.36236
 20
617.220985
 30
0.0
  0
VERTEX
  5
1D6
  8
TEAM-BODY
 10
408.947407
 20
626.573082
 30
0.0
  0
VERTEX
  5
1D7
  8
TEAM-BODY
 10
412.554819
 20
638.210207
 30
0.0
  0
VERTEX
  5
1D8
  8
TEAM-BODY
 10
416.225412
 20
652.547475
 30
0.0
  0
VERTEX
  5
1D9
  8
TEAM-BODY
 10
420.0
 20
670.0
 30
0.0
  0
SEQEND
  5
1DA
  8
TEAM-BODY
  0
LINE
  5
90
  8
TEAM-DET3
 10
-14.347178
 20
625.0
 30
0.0
 11
6.187631
 21
625.0
 31
0.0
  0
LINE
  5
92
  8
TEAM-DET3
 10
-14.347178
 20
595.0
 30
0.0
 11
6.187631
 21
595.0
 31
0.0
  0
LINE
  5
93
  8
TEAM-AXE
 10
0.0
 20
370.0
 30
0.0
 11
0.0
 21
430.0
 31
0.0
  0
CIRCLE
  5
96
  8
TEAM-KAN
 10
0.0
 20
400.0
 30
0.0
 40
20.0
  0
LINE
  5
97
  8
TEAM-AXE
 10
-30.0
 20
400.0
 30
0.0
 11
30.0
 21
400.0
 31
0.0
  0
LINE
  5
98
  8
TEAM-BODY
 10
0.0
 20
700.0
 30
0.0
 11
0.0
 21
670.0
 31
0.0
  0
CIRCLE
  5
99
  8
TEAM-INSP
 10
0.0
 20
0.0
 30
0.0
 40
10.0
  0
LINE
  5
9B
  8
TEAM-BODY
 10
0.0
 20
638.83598
 30
0.0
 11
0.0
 21
536.999087
 31
0.0
  0
LINE
  5
9C
  8
TEAM-BODY
 10
0.0
 20
638.83598
 30
0.0
 11
63.748098
 21
670.0
 31
0.0
  0
LINE
  5
9D
  8
TEAM-KAN
 10
30.0
 20
400.0
 30
0.0
 11
190.0
 21
400.0
 31
0.0
  0
LINE
  5
9E
  8
TEAM-BODY
 10
0.0
 20
536.999087
 30
0.0
 11
217.821887
 21
670.0
 31
0.0
  0
LINE
  5
9F
  8
TEAM-BODY
 10
450.0
 20
700.0
 30
0.0
 11
0.0
 21
700.0
 31
0.0
  0
LINE
  5
A0
  8
TEAM-BODY
 10
450.0
 20
670.0
 30
0.0
 11
0.0
 21
670.0
 31
0.0
  0
ENDSEC
  0
EOF
