  0
SECTION
  2
HEADER
  9
$ACADVER
  1
AC1009
  9
$INSBASE
 10
0.0
 20
0.0
 30
0.0
  9
$EXTMIN
 10
-303.303652
 20
-10.01441
 30
-0.000004
  9
$EXTMAX
 10
456.267751
 20
1020.003497
 30
0.000002
  9
$LIMMIN
 10
-303.303652
 20
-10.01441
  9
$LIMMAX
 10
456.267751
 20
1020.003497
  9
$ORTHOMODE
 70
     1
  9
$REGENMODE
 70
     1
  9
$FILLMODE
 70
     1
  9
$QTEXTMODE
 70
     0
  9
$MIRRTEXT
 70
     0
  9
$DRAGMODE
 70
     2
  9
$LTSCALE
 40
50.0
  9
$OSMODE
 70
     0
  9
$ATTMODE
 70
     1
  9
$TEXTSIZE
 40
200.0
  9
$TRACEWID
 40
1.0
  9
$TEXTSTYLE
  7
STANDARD
  9
$CLAYER
  8
TEAM-MAS
  9
$CELTYPE
  6
BYLAYER
  9
$CECOLOR
 62
   256
  9
$DIMSCALE
 40
0.0
  9
$DIMASZ
 40
20.0
  9
$DIMEXO
 40
10.0
  9
$DIMDLI
 40
1.0
  9
$DIMRND
 40
0.0
  9
$DIMDLE
 40
0.0
  9
$DIMEXE
 40
1.0
  9
$DIMTP
 40
0.0
  9
$DIMTM
 40
0.0
  9
$DIMTXT
 40
35.0
  9
$DIMCEN
 40
1.0
  9
$DIMTSZ
 40
0.0
  9
$DIMTOL
 70
     0
  9
$DIMLIM
 70
     0
  9
$DIMTIH
 70
     0
  9
$DIMTOH
 70
     0
  9
$DIMSE1
 70
     0
  9
$DIMSE2
 70
     0
  9
$DIMTAD
 70
     0
  9
$DIMZIN
 70
     0
  9
$DIMBLK
  1

  9
$DIMASO
 70
     1
  9
$DIMSHO
 70
     0
  9
$DIMPOST
  1

  9
$DIMAPOST
  1

  9
$DIMALT
 70
     0
  9
$DIMALTD
 70
     2
  9
$DIMALTF
 40
25.4
  9
$DIMLFAC
 40
1.0
  9
$DIMTOFL
 70
     0
  9
$DIMTVP
 40
0.0
  9
$DIMTIX
 70
     0
  9
$DIMSOXD
 70
     0
  9
$DIMSAH
 70
     0
  9
$DIMBLK1
  1

  9
$DIMBLK2
  1

  9
$DIMSTYLE
  2
TEAM
  9
$DIMCLRD
 70
     9
  9
$DIMCLRE
 70
     9
  9
$DIMCLRT
 70
    11
  9
$DIMTFAC
 40
1.0
  9
$DIMGAP
 40
7.0
  9
$LUNITS
 70
     2
  9
$LUPREC
 70
     1
  9
$SKETCHINC
 40
1.0
  9
$FILLETRAD
 40
10.0
  9
$AUNITS
 70
     0
  9
$AUPREC
 70
     0
  9
$MENU
  1
ROPLANS
  9
$ELEVATION
 40
0.0
  9
$PELEVATION
 40
0.0
  9
$THICKNESS
 40
0.0
  9
$LIMCHECK
 70
     0
  9
$BLIPMODE
 70
     1
  9
$CHAMFERA
 40
0.0
  9
$CHAMFERB
 40
0.0
  9
$SKPOLY
 70
     0
  9
$TDCREATE
 40
2450392.957851
  9
$TDUPDATE
 40
2457298.749309
  9
$TDINDWG
 40
2.224856
  9
$TDUSRTIMER
 40
2.224856
  9
$USRTIMER
 70
     1
  9
$ANGBASE
 50
0.0
  9
$ANGDIR
 70
     0
  9
$PDMODE
 70
     0
  9
$PDSIZE
 40
0.0
  9
$PLINEWID
 40
0.0
  9
$COORDS
 70
     2
  9
$SPLFRAME
 70
     0
  9
$SPLINETYPE
 70
     6
  9
$SPLINESEGS
 70
     8
  9
$ATTDIA
 70
     0
  9
$ATTREQ
 70
     0
  9
$HANDLING
 70
     1
  9
$HANDSEED
  5
125
  9
$SURFTAB1
 70
    36
  9
$SURFTAB2
 70
    36
  9
$SURFTYPE
 70
     6
  9
$SURFU
 70
     6
  9
$SURFV
 70
     6
  9
$UCSNAME
  2

  9
$UCSORG
 10
0.0
 20
0.0
 30
0.0
  9
$UCSXDIR
 10
1.0
 20
0.0
 30
0.0
  9
$UCSYDIR
 10
0.0
 20
1.0
 30
0.0
  9
$PUCSNAME
  2

  9
$PUCSORG
 10
0.0
 20
0.0
 30
0.0
  9
$PUCSXDIR
 10
1.0
 20
0.0
 30
0.0
  9
$PUCSYDIR
 10
0.0
 20
1.0
 30
0.0
  9
$USERI1
 70
     0
  9
$USERI2
 70
     0
  9
$USERI3
 70
     0
  9
$USERI4
 70
     0
  9
$USERI5
 70
     0
  9
$USERR1
 40
0.0
  9
$USERR2
 40
0.0
  9
$USERR3
 40
0.0
  9
$USERR4
 40
0.0
  9
$USERR5
 40
0.0
  9
$WORLDVIEW
 70
     1
  9
$SHADEDGE
 70
     0
  9
$SHADEDIF
 70
    70
  9
$TILEMODE
 70
     1
  9
$MAXACTVP
 70
    16
  9
$PLIMCHECK
 70
     0
  9
$PEXTMIN
 10
-0.805942
 20
0.005011
 30
0.0
  9
$PEXTMAX
 10
20.250094
 20
11.356329
 30
0.0
  9
$PLIMMIN
 10
0.0
 20
0.0
  9
$PLIMMAX
 10
12.0
 20
9.0
  9
$UNITMODE
 70
     0
  9
$VISRETAIN
 70
     0
  9
$PLINEGEN
 70
     0
  9
$PSLTSCALE
 70
     0
  0
ENDSEC
  0
SECTION
  2
TABLES
  0
TABLE
  2
VPORT
 70
     2
  0
VPORT
  2
*ACTIVE
 70
     0
 10
0.0
 20
0.0
 11
1.0
 21
1.0
 12
76.482049
 22
504.994544
 13
0.0
 23
0.0
 14
1.0
 24
1.0
 15
50.0
 25
50.0
 16
0.0
 26
0.0
 36
1.0
 17
0.0
 27
0.0
 37
0.0
 40
1036.415533
 41
1.926425
 42
50.0
 43
0.0
 44
0.0
 50
0.0
 51
0.0
 71
     0
 72
   100
 73
     1
 74
     1
 75
     0
 76
     0
 77
     0
 78
     0
  0
ENDTAB
  0
TABLE
  2
LTYPE
 70
     3
  0
LTYPE
  2
CONTINUOUS
 70
     0
  3
Solid Line
 72
    65
 73
     0
 40
0.0
  0
LTYPE
  2
31
 70
     0
  3

 72
    65
 73
     4
 40
2.1
 49
1.5
 49
-0.3
 49
0.0
 49
-0.3
  0
LTYPE
  2
22
 70
     0
  3

 72
    65
 73
     2
 40
1.4
 49
1.2
 49
-0.2
  0
ENDTAB
  0
TABLE
  2
LAYER
 70
    11
  0
LAYER
  2
0
 70
     0
 62
     7
  6
CONTINUOUS
  0
LAYER
  2
DEFPOINTS
 70
     0
 62
     7
  6
CONTINUOUS
  0
LAYER
  2
TEAM-BODY
 70
     0
 62
     2
  6
CONTINUOUS
  0
LAYER
  2
TEAM-AXE
 70
     0
 62
    10
  6
31
  0
LAYER
  2
TEAM-MAS
 70
     0
 62
     9
  6
CONTINUOUS
  0
LAYER
  2
TEAM-TXT
 70
     0
 62
    11
  6
CONTINUOUS
  0
LAYER
  2
TEAM-COLD
 70
     0
 62
     3
  6
CONTINUOUS
  0
LAYER
  2
TEAM-HIDE
 70
     0
 62
     8
  6
22
  0
LAYER
  2
TEAM-KAN
 70
     0
 62
     6
  6
CONTINUOUS
  0
LAYER
  2
TEAM-WARM
 70
     0
 62
     1
  6
CONTINUOUS
  0
LAYER
  2
TEAM-INSP
 70
     0
 62
     5
  6
CONTINUOUS
  0
ENDTAB
  0
TABLE
  2
STYLE
 70
     2
  0
STYLE
  2
STANDARD
 70
     0
 40
0.0
 41
1.0
 50
0.0
 71
     0
 42
200.0
  3
txt
  4

  0
STYLE
  2
TEAM
 70
     0
 40
0.0
 41
0.8
 50
15.0
 71
     0
 42
7.0
  3
ROMANS.shx
  4

  0
ENDTAB
  0
TABLE
  2
VIEW
 70
     0
  0
ENDTAB
  0
TABLE
  2
UCS
 70
     0
  0
ENDTAB
  0
TABLE
  2
APPID
 70
     1
  0
APPID
  2
ACAD
 70
     0
  0
ENDTAB
  0
TABLE
  2
DIMSTYLE
 70
     1
  0
DIMSTYLE
  2
TEAM
 70
     0
  3

  4

  5

  6

  7

 40
0.0
 41
20.0
 42
10.0
 43
1.0
 44
1.0
 45
0.0
 46
0.0
 47
0.0
 48
0.0
140
35.0
141
1.0
142
0.0
143
25.4
144
1.0
145
0.0
146
1.0
147
7.0
 71
     0
 72
     0
 73
     0
 74
     0
 75
     0
 76
     0
 77
     0
 78
     0
170
     0
171
     2
172
     0
173
     0
174
     0
175
     0
176
     9
177
     9
178
    11
  0
ENDTAB
  0
ENDSEC
  0
SECTION
  2
BLOCKS
  0
BLOCK
  8
0
  2
$MODEL_SPACE
 70
     0
 10
0.0
 20
0.0
 30
0.0
  3
$MODEL_SPACE
  1

  0
ENDBLK
  5
119
  8
0
  0
BLOCK
 67
     1
  8
0
  2
$PAPER_SPACE
 70
     0
 10
0.0
 20
0.0
 30
0.0
  3
$PAPER_SPACE
  1

  0
ENDBLK
  5
117
 67
     1
  8
0
  0
BLOCK
  8
0
  2
*D0
 70
     1
 10
0.0
 20
0.0
 30
0.0
  3
*D0
  1

  0
LINE
  5
3D
  8
0
  6
BYBLOCK
 62
     9
 10
7990.0
 20
0.0
 30
0.0
 11
7803.697164
 21
0.0
 31
0.0
  0
LINE
  5
3E
  8
0
  6
BYBLOCK
 62
     9
 10
7990.0
 20
850.0
 30
0.0
 11
7803.697164
 21
850.0
 31
0.0
  0
LINE
  5
3F
  8
0
  6
BYBLOCK
 62
     9
 10
7804.697164
 20
20.0
 30
0.0
 11
7804.697164
 21
277.166667
 31
0.0
  0
LINE
  5
40
  8
0
  6
BYBLOCK
 62
     9
 10
7804.697164
 20
830.0
 30
0.0
 11
7804.697164
 21
512.833333
 31
0.0
  0
TEXT
  5
41
  8
0
  6
BYBLOCK
 62
    11
 10
7822.197164
 20
284.166667
 30
0.0
 40
35.0
  1
650-850
 50
90.0
  0
SOLID
  5
42
  8
0
  6
BYBLOCK
 62
     9
 10
7801.363831
 20
20.0
 30
0.0
 11
7808.030497
 21
20.0
 31
0.0
 12
7804.697164
 22
0.0
 32
0.0
 13
7804.697164
 23
0.0
 33
0.0
  0
SOLID
  5
43
  8
0
  6
BYBLOCK
 62
     9
 10
7801.363831
 20
830.0
 30
0.0
 11
7808.030497
 21
830.0
 31
0.0
 12
7804.697164
 22
850.0
 32
0.0
 13
7804.697164
 23
850.0
 33
0.0
  0
POINT
  5
44
  8
DEFPOINTS
  6
BYBLOCK
 62
     0
 10
8000.0
 20
0.0
 30
0.0
  0
POINT
  5
45
  8
DEFPOINTS
  6
BYBLOCK
 62
     0
 10
8000.0
 20
850.0
 30
0.0
  0
POINT
  5
46
  8
DEFPOINTS
  6
BYBLOCK
 62
     0
 10
7804.697164
 20
850.0
 30
0.0
  0
ENDBLK
  5
48
  8
0
  0
BLOCK
  8
0
  2
*D1
 70
     1
 10
0.0
 20
0.0
 30
0.0
  3
*D1
  1

  0
LINE
  5
4B
  8
0
  6
BYBLOCK
 62
     9
 10
7990.0
 20
0.0
 30
0.0
 11
7757.6754
 21
0.0
 31
0.0
  0
LINE
  5
4C
  8
0
  6
BYBLOCK
 62
     9
 10
7990.0
 20
1000.0
 30
0.0
 11
7757.6754
 21
1000.0
 31
0.0
  0
LINE
  5
4D
  8
0
  6
BYBLOCK
 62
     9
 10
7758.6754
 20
20.0
 30
0.0
 11
7758.6754
 21
378.416667
 31
0.0
  0
LINE
  5
4E
  8
0
  6
BYBLOCK
 62
     9
 10
7758.6754
 20
980.0
 30
0.0
 11
7758.6754
 21
561.583333
 31
0.0
  0
TEXT
  5
4F
  8
0
  6
BYBLOCK
 62
    11
 10
7776.1754
 20
385.416667
 30
0.0
 40
35.0
  1
1000.00
 50
90.0
  0
SOLID
  5
50
  8
0
  6
BYBLOCK
 62
     9
 10
7755.342067
 20
20.0
 30
0.0
 11
7762.008734
 21
20.0
 31
0.0
 12
7758.6754
 22
0.0
 32
0.0
 13
7758.6754
 23
0.0
 33
0.0
  0
SOLID
  5
51
  8
0
  6
BYBLOCK
 62
     9
 10
7755.342067
 20
980.0
 30
0.0
 11
7762.008734
 21
980.0
 31
0.0
 12
7758.6754
 22
1000.0
 32
0.0
 13
7758.6754
 23
1000.0
 33
0.0
  0
POINT
  5
52
  8
DEFPOINTS
  6
BYBLOCK
 62
     0
 10
8000.0
 20
0.0
 30
0.0
  0
POINT
  5
53
  8
DEFPOINTS
  6
BYBLOCK
 62
     0
 10
8000.0
 20
1000.0
 30
0.0
  0
POINT
  5
54
  8
DEFPOINTS
  6
BYBLOCK
 62
     0
 10
7758.6754
 20
1000.0
 30
0.0
  0
ENDBLK
  5
56
  8
0
  0
BLOCK
  8
0
  2
*D2
 70
     1
 10
0.0
 20
0.0
 30
0.0
  3
*D2
  1

  0
LINE
  5
59
  8
0
  6
BYBLOCK
 62
     9
 10
7990.0
 20
0.0
 30
0.0
 11
7849.718928
 21
0.0
 31
0.0
  0
LINE
  5
5A
  8
0
  6
BYBLOCK
 62
     9
 10
7990.0
 20
850.0
 30
0.0
 11
7849.718928
 21
850.0
 31
0.0
  0
LINE
  5
5B
  8
0
  6
BYBLOCK
 62
     9
 10
7850.718928
 20
20.0
 30
0.0
 11
7850.718928
 21
309.25
 31
0.0
  0
LINE
  5
5C
  8
0
  6
BYBLOCK
 62
     9
 10
7850.718928
 20
830.0
 30
0.0
 11
7850.718928
 21
480.75
 31
0.0
  0
TEXT
  5
5D
  8
0
  6
BYBLOCK
 62
    11
 10
7868.218928
 20
316.25
 30
0.0
 40
35.0
  1
850.00
 50
90.0
  0
SOLID
  5
5E
  8
0
  6
BYBLOCK
 62
     9
 10
7847.385594
 20
20.0
 30
0.0
 11
7854.052261
 21
20.0
 31
0.0
 12
7850.718928
 22
0.0
 32
0.0
 13
7850.718928
 23
0.0
 33
0.0
  0
SOLID
  5
5F
  8
0
  6
BYBLOCK
 62
     9
 10
7847.385594
 20
830.0
 30
0.0
 11
7854.052261
 21
830.0
 31
0.0
 12
7850.718928
 22
850.0
 32
0.0
 13
7850.718928
 23
850.0
 33
0.0
  0
POINT
  5
60
  8
DEFPOINTS
  6
BYBLOCK
 62
     0
 10
8000.0
 20
0.0
 30
0.0
  0
POINT
  5
61
  8
DEFPOINTS
  6
BYBLOCK
 62
     0
 10
8000.0
 20
850.0
 30
0.0
  0
POINT
  5
62
  8
DEFPOINTS
  6
BYBLOCK
 62
     0
 10
7850.718928
 20
850.0
 30
0.0
  0
ENDBLK
  5
64
  8
0
  0
BLOCK
  8
0
  2
*D3
 70
     1
 10
0.0
 20
0.0
 30
0.0
  3
*D3
  1

  0
LINE
  5
2C
  8
0
  6
BYBLOCK
 62
     9
 10
7990.0
 20
850.0
 30
0.0
 11
7892.63426
 21
850.0
 31
0.0
  0
LINE
  5
2D
  8
0
  6
BYBLOCK
 62
     9
 10
8100.0
 20
615.0
 30
0.0
 11
7892.63426
 21
615.0
 31
0.0
  0
LINE
  5
2E
  8
0
  6
BYBLOCK
 62
     9
 10
7893.63426
 20
830.0
 30
0.0
 11
7893.63426
 21
821.166667
 31
0.0
  0
LINE
  5
2F
  8
0
  6
BYBLOCK
 62
     9
 10
7893.63426
 20
635.0
 30
0.0
 11
7893.63426
 21
643.833333
 31
0.0
  0
SOLID
  5
30
  8
0
  6
BYBLOCK
 62
     9
 10
7890.300927
 20
830.0
 30
0.0
 11
7896.967593
 21
830.0
 31
0.0
 12
7893.63426
 22
850.0
 32
0.0
 13
7893.63426
 23
850.0
 33
0.0
  0
SOLID
  5
31
  8
0
  6
BYBLOCK
 62
     9
 10
7890.300927
 20
635.0
 30
0.0
 11
7896.967593
 21
635.0
 31
0.0
 12
7893.63426
 22
615.0
 32
0.0
 13
7893.63426
 23
615.0
 33
0.0
  0
TEXT
  5
32
  8
0
  6
BYBLOCK
 62
    11
 10
7911.13426
 20
650.833333
 30
0.0
 40
35.0
  1
235.00
 50
90.0
  0
POINT
  5
33
  8
DEFPOINTS
  6
BYBLOCK
 62
     0
 10
8000.0
 20
850.0
 30
0.0
  0
POINT
  5
35
  8
DEFPOINTS
  6
BYBLOCK
 62
     0
 10
8110.0
 20
615.0
 30
0.0
  0
POINT
  5
36
  8
DEFPOINTS
  6
BYBLOCK
 62
     0
 10
7893.63426
 20
615.0
 30
0.0
  0
ENDBLK
  5
38
  8
0
  0
BLOCK
  8
0
  2
*D4
 70
     1
 10
0.0
 20
0.0
 30
0.0
  3
*D4
  1

  0
LINE
  5
8C
  8
0
  6
BYBLOCK
 62
     9
 10
7990.0
 20
0.0
 30
0.0
 11
7892.63426
 21
0.0
 31
0.0
  0
LINE
  5
8D
  8
0
  6
BYBLOCK
 62
     9
 10
7990.0
 20
470.0
 30
0.0
 11
7892.63426
 21
470.0
 31
0.0
  0
LINE
  5
8E
  8
0
  6
BYBLOCK
 62
     9
 10
7893.63426
 20
20.0
 30
0.0
 11
7893.63426
 21
128.833333
 31
0.0
  0
LINE
  5
8F
  8
0
  6
BYBLOCK
 62
     9
 10
7893.63426
 20
450.0
 30
0.0
 11
7893.63426
 21
341.166667
 31
0.0
  0
SOLID
  5
90
  8
0
  6
BYBLOCK
 62
     9
 10
7890.300927
 20
20.0
 30
0.0
 11
7896.967593
 21
20.0
 31
0.0
 12
7893.63426
 22
0.0
 32
0.0
 13
7893.63426
 23
0.0
 33
0.0
  0
SOLID
  5
91
  8
0
  6
BYBLOCK
 62
     9
 10
7890.300927
 20
450.0
 30
0.0
 11
7896.967593
 21
450.0
 31
0.0
 12
7893.63426
 22
470.0
 32
0.0
 13
7893.63426
 23
470.0
 33
0.0
  0
TEXT
  5
92
  8
0
  6
BYBLOCK
 62
    11
 10
7911.13426
 20
135.833333
 30
0.0
 40
35.0
  1
310-510
 50
90.0
  0
POINT
  5
93
  8
DEFPOINTS
  6
BYBLOCK
 62
     0
 10
8000.0
 20
0.0
 30
0.0
  0
POINT
  5
94
  8
DEFPOINTS
  6
BYBLOCK
 62
     0
 10
8000.0
 20
470.0
 30
0.0
  0
POINT
  5
95
  8
DEFPOINTS
  6
BYBLOCK
 62
     0
 10
7893.63426
 20
470.0
 30
0.0
  0
ENDBLK
  5
97
  8
0
  0
BLOCK
  8
0
  2
*D5
 70
     1
 10
0.0
 20
0.0
 30
0.0
  3
*D5
  1

  0
LINE
  5
9A
  8
0
  6
BYBLOCK
 62
     9
 10
7990.0
 20
0.0
 30
0.0
 11
7937.103512
 21
0.0
 31
0.0
  0
LINE
  5
9B
  8
0
  6
BYBLOCK
 62
     9
 10
7990.0
 20
470.0
 30
0.0
 11
7937.103512
 21
470.0
 31
0.0
  0
LINE
  5
9C
  8
0
  6
BYBLOCK
 62
     9
 10
7938.103512
 20
20.0
 30
0.0
 11
7938.103512
 21
149.25
 31
0.0
  0
LINE
  5
9D
  8
0
  6
BYBLOCK
 62
     9
 10
7938.103512
 20
450.0
 30
0.0
 11
7938.103512
 21
320.75
 31
0.0
  0
SOLID
  5
9E
  8
0
  6
BYBLOCK
 62
     9
 10
7934.770179
 20
20.0
 30
0.0
 11
7941.436846
 21
20.0
 31
0.0
 12
7938.103512
 22
0.0
 32
0.0
 13
7938.103512
 23
0.0
 33
0.0
  0
SOLID
  5
9F
  8
0
  6
BYBLOCK
 62
     9
 10
7934.770179
 20
450.0
 30
0.0
 11
7941.436846
 21
450.0
 31
0.0
 12
7938.103512
 22
470.0
 32
0.0
 13
7938.103512
 23
470.0
 33
0.0
  0
TEXT
  5
A0
  8
0
  6
BYBLOCK
 62
    11
 10
7955.603512
 20
156.25
 30
0.0
 40
35.0
  1
470.00
 50
90.0
  0
POINT
  5
A1
  8
DEFPOINTS
  6
BYBLOCK
 62
     0
 10
8000.0
 20
0.0
 30
0.0
  0
POINT
  5
A2
  8
DEFPOINTS
  6
BYBLOCK
 62
     0
 10
8000.0
 20
470.0
 30
0.0
  0
POINT
  5
A3
  8
DEFPOINTS
  6
BYBLOCK
 62
     0
 10
7938.103512
 20
470.0
 30
0.0
  0
ENDBLK
  5
A5
  8
0
  0
BLOCK
  8
0
  2
*D6
 70
     1
 10
0.0
 20
0.0
 30
0.0
  3
*D6
  1

  0
LINE
  5
BE
  8
0
  6
BYBLOCK
 62
     9
 10
8000.0
 20
860.0
 30
0.0
 11
8000.0
 21
888.314953
 31
0.0
  0
LINE
  5
BF
  8
0
  6
BYBLOCK
 62
     9
 10
8450.0
 20
860.0
 30
0.0
 11
8450.0
 21
888.314953
 31
0.0
  0
LINE
  5
C0
  8
0
  6
BYBLOCK
 62
     9
 10
8020.0
 20
887.314953
 30
0.0
 11
8139.25
 21
887.314953
 31
0.0
  0
LINE
  5
C1
  8
0
  6
BYBLOCK
 62
     9
 10
8430.0
 20
887.314953
 30
0.0
 11
8310.75
 21
887.314953
 31
0.0
  0
SOLID
  5
C2
  8
0
  6
BYBLOCK
 62
     9
 10
8020.0
 20
890.648287
 30
0.0
 11
8020.0
 21
883.98162
 31
0.0
 12
8000.0
 22
887.314953
 32
0.0
 13
8000.0
 23
887.314953
 33
0.0
  0
SOLID
  5
C3
  8
0
  6
BYBLOCK
 62
     9
 10
8430.0
 20
890.648287
 30
0.0
 11
8430.0
 21
883.98162
 31
0.0
 12
8450.0
 22
887.314953
 32
0.0
 13
8450.0
 23
887.314953
 33
0.0
  0
TEXT
  5
C4
  8
0
  6
BYBLOCK
 62
    11
 10
8146.25
 20
869.814953
 30
0.0
 40
35.0
  1
450.00
  0
POINT
  5
C5
  8
DEFPOINTS
  6
BYBLOCK
 62
     0
 10
8000.0
 20
850.0
 30
0.0
  0
POINT
  5
C6
  8
DEFPOINTS
  6
BYBLOCK
 62
     0
 10
8450.0
 20
850.0
 30
0.0
  0
POINT
  5
C7
  8
DEFPOINTS
  6
BYBLOCK
 62
     0
 10
8450.0
 20
887.314953
 30
0.0
  0
ENDBLK
  5
C9
  8
0
  0
BLOCK
  8
0
  2
*D7
 70
     1
 10
0.0
 20
0.0
 30
0.0
  3
*D7
  1

  0
LINE
  5
67
  8
0
  6
BYBLOCK
 62
     9
 10
7990.0
 20
0.0
 30
0.0
 11
7713.206148
 21
0.0
 31
0.0
  0
LINE
  5
68
  8
0
  6
BYBLOCK
 62
     9
 10
7997.579317
 20
1000.0
 30
0.0
 11
7713.206148
 21
1000.0
 31
0.0
  0
LINE
  5
69
  8
0
  6
BYBLOCK
 62
     9
 10
7714.206148
 20
20.0
 30
0.0
 11
7714.206148
 21
334.666667
 31
0.0
  0
LINE
  5
6A
  8
0
  6
BYBLOCK
 62
     9
 10
7714.206148
 20
980.0
 30
0.0
 11
7714.206148
 21
605.333333
 31
0.0
  0
TEXT
  5
6B
  8
0
  6
BYBLOCK
 62
    11
 10
7731.706148
 20
341.666667
 30
0.0
 40
35.0
  1
1050-1200
 50
90.0
  0
SOLID
  5
6C
  8
0
  6
BYBLOCK
 62
     9
 10
7710.872815
 20
20.0
 30
0.0
 11
7717.539481
 21
20.0
 31
0.0
 12
7714.206148
 22
0.0
 32
0.0
 13
7714.206148
 23
0.0
 33
0.0
  0
SOLID
  5
6D
  8
0
  6
BYBLOCK
 62
     9
 10
7710.872815
 20
980.0
 30
0.0
 11
7717.539481
 21
980.0
 31
0.0
 12
7714.206148
 22
1000.0
 32
0.0
 13
7714.206148
 23
1000.0
 33
0.0
  0
POINT
  5
6E
  8
DEFPOINTS
  6
BYBLOCK
 62
     0
 10
8000.0
 20
0.0
 30
0.0
  0
POINT
  5
6F
  8
DEFPOINTS
  6
BYBLOCK
 62
     0
 10
8007.579317
 20
1000.0
 30
0.0
  0
POINT
  5
70
  8
DEFPOINTS
  6
BYBLOCK
 62
     0
 10
7714.206148
 20
1000.0
 30
0.0
  0
ENDBLK
  5
72
  8
0
  0
BLOCK
  8
0
  2
*D8
 70
     1
 10
0.0
 20
0.0
 30
0.0
  3
*D8
  1

  0
LINE
  5
AA
  8
0
  6
BYBLOCK
 62
     9
 10
8210.0
 20
460.0
 30
0.0
 11
8210.0
 21
257.357343
 31
0.0
  0
LINE
  5
AB
  8
0
  6
BYBLOCK
 62
     9
 10
8000.0
 20
10.0
 30
0.0
 11
8000.0
 21
259.357343
 31
0.0
  0
LINE
  5
AC
  8
0
  6
BYBLOCK
 62
     9
 10
8230.0
 20
258.357343
 30
0.0
 11
8250.0
 21
258.357343
 31
0.0
  0
LINE
  5
AD
  8
0
  6
BYBLOCK
 62
     9
 10
7980.0
 20
258.357343
 30
0.0
 11
7960.0
 21
258.357343
 31
0.0
  0
SOLID
  5
AE
  8
0
  6
BYBLOCK
 62
     9
 10
8230.0
 20
261.690676
 30
0.0
 11
8230.0
 21
255.02401
 31
0.0
 12
8210.0
 22
258.357343
 32
0.0
 13
8210.0
 23
258.357343
 33
0.0
  0
SOLID
  5
AF
  8
0
  6
BYBLOCK
 62
     9
 10
7980.0
 20
261.690676
 30
0.0
 11
7980.0
 21
255.02401
 31
0.0
 12
8000.0
 22
258.357343
 32
0.0
 13
8000.0
 23
258.357343
 33
0.0
  0
TEXT
  5
B0
  8
0
  6
BYBLOCK
 62
    11
 10
8032.083333
 20
240.857343
 30
0.0
 40
35.0
  1
210.00
  0
POINT
  5
B1
  8
DEFPOINTS
  6
BYBLOCK
 62
     0
 10
8210.0
 20
470.0
 30
0.0
  0
POINT
  5
B2
  8
DEFPOINTS
  6
BYBLOCK
 62
     0
 10
8000.0
 20
0.0
 30
0.0
  0
POINT
  5
B3
  8
DEFPOINTS
  6
BYBLOCK
 62
     0
 10
8000.0
 20
258.357343
 30
0.0
  0
ENDBLK
  5
B5
  8
0
  0
ENDSEC
  0
SECTION
  2
ENTITIES
  0
LINE
  5
20
  8
TEAM-AXE
 10
210.0
 20
850.0
 30
0.0
 11
210.0
 21
505.0
 31
0.0
  0
LINE
  5
23
  8
TEAM-HIDE
 10
110.0
 20
825.0
 30
0.0
 11
110.0
 21
655.0
 31
0.0
  0
LINE
  5
26
  8
TEAM-HIDE
 10
25.0
 20
825.0
 30
0.0
 11
25.0
 21
655.0
 31
0.0
  0
LINE
  5
27
  8
TEAM-BODY
 10
0.0
 20
850.0
 30
0.0
 11
0.0
 21
655.0
 31
0.0
  0
LINE
  5
29
  8
TEAM-BODY
 10
450.0
 20
685.0
 30
0.0
 11
450.0
 21
850.0
 31
0.0
  0
DIMENSION
  5
2A
  8
TEAM-MAS
  2
*D3
 10
-106.36574
 20
615.0
 30
0.0
 11
-106.36574
 21
732.5
 31
0.0
 12
-8000.0
 22
0.0
 32
0.0
 13
0.0
 23
850.0
 33
0.0
 14
110.0
 24
615.0
 34
0.0
 50
90.0
  0
LINE
  5
39
  8
TEAM-HIDE
 10
135.0
 20
850.0
 30
0.0
 11
135.0
 21
690.0
 31
0.0
  0
LINE
  5
3A
  8
TEAM-HIDE
 10
425.0
 20
690.0
 30
0.0
 11
425.0
 21
850.0
 31
0.0
  0
DIMENSION
  5
3B
  8
TEAM-MAS
  2
*D0
 10
-195.302836
 20
850.0
 30
0.0
 11
-195.302836
 21
395.0
 31
0.0
 12
-8000.0
 22
0.0
 32
0.0
 70
   128
  1
650-850
 13
0.0
 23
0.0
 33
0.0
 14
0.0
 24
850.0
 34
0.0
 50
90.0
  0
DIMENSION
  5
49
  8
TEAM-MAS
  2
*D1
 10
-241.3246
 20
1000.0
 30
0.0
 11
-241.3246
 21
470.0
 31
0.0
 12
-8000.0
 22
0.0
 32
0.0
 70
   128
 13
0.0
 23
0.0
 33
0.0
 14
0.0
 24
1000.0
 34
0.0
 50
90.0
  0
DIMENSION
  5
57
  8
TEAM-MAS
  2
*D2
 10
-149.281072
 20
850.0
 30
0.0
 11
-149.281072
 21
395.0
 31
0.0
 12
-8000.0
 22
0.0
 32
0.0
 70
   128
 13
0.0
 23
0.0
 33
0.0
 14
0.0
 24
850.0
 34
0.0
 50
90.0
  0
DIMENSION
  5
65
  8
TEAM-MAS
  2
*D7
 10
-285.793852
 20
1000.0
 30
0.0
 11
-285.793852
 21
470.0
 31
0.0
 12
-8000.0
 22
0.0
 32
0.0
 70
   128
  1
1050-1200
 13
0.0
 23
0.0
 33
0.0
 14
7.579317
 24
1000.0
 34
0.0
 50
90.0
  0
TEXT
  5
73
  8
TEAM-TXT
 10
151.20458
 20
694.831159
 30
0.0
 40
30.0
  1
team 415005
 41
0.8
 51
15.0
  7
TEAM
  0
LINE
  5
76
  8
TEAM-BODY
 10
189.0
 20
525.0
 30
0.0
 11
231.0
 21
525.0
 31
0.0
  0
LINE
  5
77
  8
TEAM-KAN
 10
210.0
 20
525.0
 30
0.0
 11
210.0
 21
655.0
 31
0.0
  0
ARC
  5
79
  8
TEAM-BODY
 10
420.0
 20
685.0
 30
0.0
 40
30.0
 50
270.0
 51
0.0
  0
LINE
  5
7A
  8
TEAM-BODY
 10
0.0
 20
655.0
 30
0.0
 11
110.0
 21
655.0
 31
0.0
  0
LINE
  5
7B
  8
TEAM-BODY
 10
265.0
 20
655.0
 30
0.0
 11
420.0
 21
655.0
 31
0.0
  0
LINE
  5
7C
  8
TEAM-BODY
 10
210.0
 20
615.0
 30
0.0
 11
240.0
 21
615.0
 31
0.0
  0
LINE
  5
7D
  8
TEAM-BODY
 10
240.0
 20
615.0
 30
0.0
 11
265.0
 21
615.0
 31
0.0
  0
LINE
  5
7E
  8
TEAM-BODY
 10
265.0
 20
615.0
 30
0.0
 11
265.0
 21
655.0
 31
0.0
  0
LINE
  5
7F
  8
TEAM-BODY
 10
110.0
 20
615.0
 30
0.0
 11
110.0
 21
655.0
 31
0.0
  0
LINE
  5
80
  8
TEAM-BODY
 10
180.0
 20
615.0
 30
0.0
 11
110.0
 21
615.0
 31
0.0
  0
LINE
  5
81
  8
TEAM-BODY
 10
210.0
 20
615.0
 30
0.0
 11
180.0
 21
615.0
 31
0.0
  0
LINE
  5
82
  8
TEAM-BODY
 10
210.0
 20
550.0
 30
0.0
 11
180.0
 21
550.0
 31
0.0
  0
LINE
  5
83
  8
TEAM-BODY
 10
210.0
 20
550.0
 30
0.0
 11
240.0
 21
550.0
 31
0.0
  0
LINE
  5
84
  8
TEAM-BODY
 10
240.0
 20
550.0
 30
0.0
 11
240.0
 21
591.683481
 31
0.0
  0
LINE
  5
85
  8
TEAM-BODY
 10
180.0
 20
550.0
 30
0.0
 11
180.0
 21
591.683481
 31
0.0
  0
POLYLINE
  5
86
  8
TEAM-BODY
 66
     1
 10
0.0
 20
0.0
 30
0.0
 70
     1
  0
VERTEX
  5
11F
  8
TEAM-BODY
 10
255.146608
 20
615.0
 30
0.0
  0
VERTEX
  5
120
  8
TEAM-BODY
 10
164.853392
 20
615.0
 30
0.0
  0
VERTEX
  5
121
  8
TEAM-BODY
 10
164.853392
 20
591.683481
 30
0.0
  0
VERTEX
  5
122
  8
TEAM-BODY
 10
255.146608
 20
591.683481
 30
0.0
  0
SEQEND
  5
123
  8
TEAM-BODY
  0
ARC
  5
87
  8
TEAM-HIDE
 10
145.0
 20
690.0
 30
0.0
 40
10.0
 50
180.0
 51
270.0
  0
LINE
  5
88
  8
TEAM-HIDE
 10
145.0
 20
680.0
 30
0.0
 11
415.0
 21
680.0
 31
0.0
  0
ARC
  5
89
  8
TEAM-HIDE
 10
415.0
 20
690.0
 30
0.0
 40
10.0
 50
270.0
 51
0.0
  0
DIMENSION
  5
8A
  8
TEAM-MAS
  2
*D4
 10
-106.36574
 20
470.0
 30
0.0
 11
-106.36574
 21
235.0
 31
0.0
 12
-8000.0
 22
0.0
 32
0.0
  1
310-510
 13
0.0
 23
0.0
 33
0.0
 14
0.0
 24
470.0
 34
0.0
 50
90.0
  0
DIMENSION
  5
98
  8
TEAM-MAS
  2
*D5
 10
-61.896488
 20
470.0
 30
0.0
 11
-61.896488
 21
235.0
 31
0.0
 12
-8000.0
 22
0.0
 32
0.0
 13
0.0
 23
0.0
 33
0.0
 14
0.0
 24
470.0
 34
0.0
 50
90.0
  0
CIRCLE
  5
A6
  8
TEAM-INSP
 10
0.0
 20
0.0
 30
0.0
 40
10.0
  0
DIMENSION
  5
A8
  8
TEAM-MAS
  2
*D8
 10
0.0
 20
258.357343
 30
0.0
 11
105.0
 21
258.357343
 31
0.0
 12
-8000.0
 22
0.0
 32
0.0
 13
210.0
 23
470.0
 33
0.0
 14
0.0
 24
0.0
 34
0.0
1001
ACAD
1000
DSTYLE
1002
{
1070
    40
1040
1.0
1002
}
  0
LINE
  5
B6
  8
TEAM-AXE
 10
180.0
 20
470.0
 30
0.0
 11
240.0
 21
470.0
 31
0.0
  0
LINE
  5
B7
  8
TEAM-BODY
 10
189.0
 20
375.0
 30
0.0
 11
231.0
 21
375.0
 31
0.0
  0
LINE
  5
B8
  8
TEAM-KAN
 10
-12.246246
 20
470.0
 30
0.0
 11
189.0
 21
470.0
 31
0.0
  0
CIRCLE
  5
B9
  8
TEAM-KAN
 10
210.0
 20
470.0
 30
0.0
 40
20.0
  0
LINE
  5
BA
  8
TEAM-BODY
 10
189.0
 20
525.0
 30
0.0
 11
189.0
 21
375.0
 31
0.0
  0
LINE
  5
BB
  8
TEAM-BODY
 10
231.0
 20
525.0
 30
0.0
 11
231.0
 21
375.0
 31
0.0
  0
DIMENSION
  5
BC
  8
TEAM-MAS
  2
*D6
 10
450.0
 20
887.314953
 30
0.0
 11
225.0
 21
887.314953
 31
0.0
 12
-8000.0
 22
0.0
 32
0.0
 13
0.0
 23
850.0
 33
0.0
 14
450.0
 24
850.0
 34
0.0
  0
LINE
  5
CA
  8
TEAM-BODY
 10
450.0
 20
850.0
 30
0.0
 11
0.0
 21
850.0
 31
0.0
  0
CIRCLE
  5
CB
  8
TEAM-COLD
 10
7.579317
 20
1000.0
 30
0.0
 40
15.0
  0
LINE
  5
CD
  8
TEAM-AXE
 10
-12.420683
 20
1000.0
 30
0.0
 11
27.579317
 21
1000.0
 31
0.0
  0
LINE
  5
CE
  8
TEAM-AXE
 10
7.579317
 20
980.0
 30
0.0
 11
7.579317
 21
1020.0
 31
0.0
  0
CIRCLE
  5
CF
  8
TEAM-WARM
 10
0.0
 20
1000.0
 30
0.0
 40
15.0
  0
LINE
  5
D1
  8
TEAM-AXE
 10
-20.0
 20
1000.0
 30
0.0
 11
20.0
 21
1000.0
 31
0.0
  0
LINE
  5
D2
  8
TEAM-AXE
 10
0.0
 20
980.0
 30
0.0
 11
0.0
 21
1020.0
 31
0.0
  0
LINE
  5
D3
  8
TEAM-HIDE
 10
110.0
 20
825.0
 30
0.0
 11
25.0
 21
825.0
 31
0.0
  0
ENDSEC
  0
EOF
