  0
SECTION
  2
HEADER
  9
$ACADVER
  1
AC1009
  9
$INSBASE
 10
0.0
 20
0.0
 30
0.0
  9
$EXTMIN
 10
-456.263633
 20
-10.067822
 30
-0.000004
  9
$EXTMAX
 10
784.593114
 20
1111.841413
 30
0.000002
  9
$LIMMIN
 10
-456.263633
 20
-10.067822
  9
$LIMMAX
 10
784.593114
 20
1111.841413
  9
$ORTHOMODE
 70
     1
  9
$REGENMODE
 70
     1
  9
$FILLMODE
 70
     1
  9
$QTEXTMODE
 70
     0
  9
$MIRRTEXT
 70
     0
  9
$DRAGMODE
 70
     2
  9
$LTSCALE
 40
50.0
  9
$OSMODE
 70
     0
  9
$ATTMODE
 70
     1
  9
$TEXTSIZE
 40
200.0
  9
$TRACEWID
 40
1.0
  9
$TEXTSTYLE
  7
STANDARD
  9
$CLAYER
  8
TEAM-MAS
  9
$CELTYPE
  6
BYLAYER
  9
$CECOLOR
 62
   256
  9
$DIMSCALE
 40
0.0
  9
$DIMASZ
 40
20.0
  9
$DIMEXO
 40
10.0
  9
$DIMDLI
 40
1.0
  9
$DIMRND
 40
0.0
  9
$DIMDLE
 40
0.0
  9
$DIMEXE
 40
1.0
  9
$DIMTP
 40
0.0
  9
$DIMTM
 40
0.0
  9
$DIMTXT
 40
35.0
  9
$DIMCEN
 40
1.0
  9
$DIMTSZ
 40
0.0
  9
$DIMTOL
 70
     0
  9
$DIMLIM
 70
     0
  9
$DIMTIH
 70
     0
  9
$DIMTOH
 70
     0
  9
$DIMSE1
 70
     0
  9
$DIMSE2
 70
     0
  9
$DIMTAD
 70
     0
  9
$DIMZIN
 70
     0
  9
$DIMBLK
  1

  9
$DIMASO
 70
     1
  9
$DIMSHO
 70
     0
  9
$DIMPOST
  1

  9
$DIMAPOST
  1

  9
$DIMALT
 70
     0
  9
$DIMALTD
 70
     2
  9
$DIMALTF
 40
25.4
  9
$DIMLFAC
 40
1.0
  9
$DIMTOFL
 70
     0
  9
$DIMTVP
 40
0.0
  9
$DIMTIX
 70
     0
  9
$DIMSOXD
 70
     0
  9
$DIMSAH
 70
     0
  9
$DIMBLK1
  1

  9
$DIMBLK2
  1

  9
$DIMSTYLE
  2
TEAM
  9
$DIMCLRD
 70
     9
  9
$DIMCLRE
 70
     9
  9
$DIMCLRT
 70
    11
  9
$DIMTFAC
 40
1.0
  9
$DIMGAP
 40
7.0
  9
$LUNITS
 70
     2
  9
$LUPREC
 70
     1
  9
$SKETCHINC
 40
1.0
  9
$FILLETRAD
 40
10.0
  9
$AUNITS
 70
     0
  9
$AUPREC
 70
     0
  9
$MENU
  1
ROPLANS
  9
$ELEVATION
 40
0.0
  9
$PELEVATION
 40
0.0
  9
$THICKNESS
 40
0.0
  9
$LIMCHECK
 70
     0
  9
$BLIPMODE
 70
     1
  9
$CHAMFERA
 40
0.0
  9
$CHAMFERB
 40
0.0
  9
$SKPOLY
 70
     0
  9
$TDCREATE
 40
2450392.957851
  9
$TDUPDATE
 40
2457298.749309
  9
$TDINDWG
 40
2.224856
  9
$TDUSRTIMER
 40
2.224856
  9
$USRTIMER
 70
     1
  9
$ANGBASE
 50
0.0
  9
$ANGDIR
 70
     0
  9
$PDMODE
 70
     0
  9
$PDSIZE
 40
0.0
  9
$PLINEWID
 40
0.0
  9
$COORDS
 70
     2
  9
$SPLFRAME
 70
     0
  9
$SPLINETYPE
 70
     6
  9
$SPLINESEGS
 70
     8
  9
$ATTDIA
 70
     0
  9
$ATTREQ
 70
     0
  9
$HANDLING
 70
     1
  9
$HANDSEED
  5
17C
  9
$SURFTAB1
 70
    36
  9
$SURFTAB2
 70
    36
  9
$SURFTYPE
 70
     6
  9
$SURFU
 70
     6
  9
$SURFV
 70
     6
  9
$UCSNAME
  2

  9
$UCSORG
 10
0.0
 20
0.0
 30
0.0
  9
$UCSXDIR
 10
1.0
 20
0.0
 30
0.0
  9
$UCSYDIR
 10
0.0
 20
1.0
 30
0.0
  9
$PUCSNAME
  2

  9
$PUCSORG
 10
0.0
 20
0.0
 30
0.0
  9
$PUCSXDIR
 10
1.0
 20
0.0
 30
0.0
  9
$PUCSYDIR
 10
0.0
 20
1.0
 30
0.0
  9
$USERI1
 70
     0
  9
$USERI2
 70
     0
  9
$USERI3
 70
     0
  9
$USERI4
 70
     0
  9
$USERI5
 70
     0
  9
$USERR1
 40
0.0
  9
$USERR2
 40
0.0
  9
$USERR3
 40
0.0
  9
$USERR4
 40
0.0
  9
$USERR5
 40
0.0
  9
$WORLDVIEW
 70
     1
  9
$SHADEDGE
 70
     0
  9
$SHADEDIF
 70
    70
  9
$TILEMODE
 70
     1
  9
$MAXACTVP
 70
    16
  9
$PLIMCHECK
 70
     0
  9
$PEXTMIN
 10
-0.805942
 20
0.005011
 30
0.0
  9
$PEXTMAX
 10
20.250094
 20
11.356329
 30
0.0
  9
$PLIMMIN
 10
0.0
 20
0.0
  9
$PLIMMAX
 10
12.0
 20
9.0
  9
$UNITMODE
 70
     0
  9
$VISRETAIN
 70
     0
  9
$PLINEGEN
 70
     0
  9
$PSLTSCALE
 70
     0
  0
ENDSEC
  0
SECTION
  2
TABLES
  0
TABLE
  2
VPORT
 70
     2
  0
VPORT
  2
*ACTIVE
 70
     0
 10
0.0
 20
0.0
 11
1.0
 21
1.0
 12
164.16474
 22
550.886795
 13
0.0
 23
0.0
 14
1.0
 24
1.0
 15
50.0
 25
50.0
 16
0.0
 26
0.0
 36
1.0
 17
0.0
 27
0.0
 37
0.0
 40
1128.877616
 41
1.926425
 42
50.0
 43
0.0
 44
0.0
 50
0.0
 51
0.0
 71
     0
 72
   100
 73
     1
 74
     1
 75
     0
 76
     0
 77
     0
 78
     0
  0
ENDTAB
  0
TABLE
  2
LTYPE
 70
     3
  0
LTYPE
  2
CONTINUOUS
 70
     0
  3
Solid Line
 72
    65
 73
     0
 40
0.0
  0
LTYPE
  2
31
 70
     0
  3

 72
    65
 73
     4
 40
2.1
 49
1.5
 49
-0.3
 49
0.0
 49
-0.3
  0
LTYPE
  2
22
 70
     0
  3

 72
    65
 73
     2
 40
1.4
 49
1.2
 49
-0.2
  0
ENDTAB
  0
TABLE
  2
LAYER
 70
    11
  0
LAYER
  2
0
 70
     0
 62
     7
  6
CONTINUOUS
  0
LAYER
  2
DEFPOINTS
 70
     0
 62
     7
  6
CONTINUOUS
  0
LAYER
  2
TEAM-BODY
 70
     0
 62
     2
  6
CONTINUOUS
  0
LAYER
  2
TEAM-AXE
 70
     0
 62
    10
  6
31
  0
LAYER
  2
TEAM-MAS
 70
     0
 62
     9
  6
CONTINUOUS
  0
LAYER
  2
TEAM-TXT
 70
     0
 62
    11
  6
CONTINUOUS
  0
LAYER
  2
TEAM-COLD
 70
     0
 62
     3
  6
CONTINUOUS
  0
LAYER
  2
TEAM-HIDE
 70
     0
 62
     8
  6
22
  0
LAYER
  2
TEAM-KAN
 70
     0
 62
     6
  6
CONTINUOUS
  0
LAYER
  2
TEAM-WARM
 70
     0
 62
     1
  6
CONTINUOUS
  0
LAYER
  2
TEAM-INSP
 70
     0
 62
     5
  6
CONTINUOUS
  0
ENDTAB
  0
TABLE
  2
STYLE
 70
     2
  0
STYLE
  2
STANDARD
 70
     0
 40
0.0
 41
1.0
 50
0.0
 71
     0
 42
200.0
  3
txt
  4

  0
STYLE
  2
TEAM
 70
     0
 40
0.0
 41
0.8
 50
15.0
 71
     0
 42
7.0
  3
ROMANS.shx
  4

  0
ENDTAB
  0
TABLE
  2
VIEW
 70
     0
  0
ENDTAB
  0
TABLE
  2
UCS
 70
     0
  0
ENDTAB
  0
TABLE
  2
APPID
 70
     1
  0
APPID
  2
ACAD
 70
     0
  0
ENDTAB
  0
TABLE
  2
DIMSTYLE
 70
     1
  0
DIMSTYLE
  2
TEAM
 70
     0
  3

  4

  5

  6

  7

 40
0.0
 41
20.0
 42
10.0
 43
1.0
 44
1.0
 45
0.0
 46
0.0
 47
0.0
 48
0.0
140
35.0
141
1.0
142
0.0
143
25.4
144
1.0
145
0.0
146
1.0
147
7.0
 71
     0
 72
     0
 73
     0
 74
     0
 75
     0
 76
     0
 77
     0
 78
     0
170
     0
171
     2
172
     0
173
     0
174
     0
175
     0
176
     9
177
     9
178
    11
  0
ENDTAB
  0
ENDSEC
  0
SECTION
  2
BLOCKS
  0
BLOCK
  8
0
  2
$MODEL_SPACE
 70
     0
 10
0.0
 20
0.0
 30
0.0
  3
$MODEL_SPACE
  1

  0
ENDBLK
  5
16B
  8
0
  0
BLOCK
 67
     1
  8
0
  2
$PAPER_SPACE
 70
     0
 10
0.0
 20
0.0
 30
0.0
  3
$PAPER_SPACE
  1

  0
ENDBLK
  5
169
 67
     1
  8
0
  0
BLOCK
  8
0
  2
*D0
 70
     1
 10
0.0
 20
0.0
 30
0.0
  3
*D0
  1

  0
LINE
  5
72
  8
0
  6
BYBLOCK
 62
     9
 10
12010.0
 20
4000.0
 30
0.0
 11
12768.05806
 21
4000.0
 31
0.0
  0
LINE
  5
73
  8
0
  6
BYBLOCK
 62
     9
 10
12086.5
 20
5000.0
 30
0.0
 11
12768.05806
 21
5000.0
 31
0.0
  0
LINE
  5
74
  8
0
  6
BYBLOCK
 62
     9
 10
12767.05806
 20
4020.0
 30
0.0
 11
12767.05806
 21
4334.666667
 31
0.0
  0
LINE
  5
75
  8
0
  6
BYBLOCK
 62
     9
 10
12767.05806
 20
4980.0
 30
0.0
 11
12767.05806
 21
4605.333333
 31
0.0
  0
TEXT
  5
76
  8
0
  6
BYBLOCK
 62
    11
 10
12784.55806
 20
4341.666667
 30
0.0
 40
35.0
  1
1050-1200
 50
90.0
  0
SOLID
  5
77
  8
0
  6
BYBLOCK
 62
     9
 10
12763.724727
 20
4020.0
 30
0.0
 11
12770.391393
 21
4020.0
 31
0.0
 12
12767.05806
 22
4000.0
 32
0.0
 13
12767.05806
 23
4000.0
 33
0.0
  0
SOLID
  5
78
  8
0
  6
BYBLOCK
 62
     9
 10
12763.724727
 20
4980.0
 30
0.0
 11
12770.391393
 21
4980.0
 31
0.0
 12
12767.05806
 22
5000.0
 32
0.0
 13
12767.05806
 23
5000.0
 33
0.0
  0
POINT
  5
79
  8
DEFPOINTS
  6
BYBLOCK
 62
     0
 10
12000.0
 20
4000.0
 30
0.0
  0
POINT
  5
7A
  8
DEFPOINTS
  6
BYBLOCK
 62
     0
 10
12076.5
 20
5000.0
 30
0.0
  0
POINT
  5
7B
  8
DEFPOINTS
  6
BYBLOCK
 62
     0
 10
12767.05806
 20
5000.0
 30
0.0
  0
ENDBLK
  5
7D
  8
0
  0
BLOCK
  8
0
  2
*D1
 70
     1
 10
0.0
 20
0.0
 30
0.0
  3
*D1
  1

  0
LINE
  5
64
  8
0
  6
BYBLOCK
 62
     9
 10
12010.0
 20
4000.0
 30
0.0
 11
12675.255183
 21
4000.0
 31
0.0
  0
LINE
  5
65
  8
0
  6
BYBLOCK
 62
     9
 10
12460.0
 20
4850.0
 30
0.0
 11
12675.255183
 21
4850.0
 31
0.0
  0
LINE
  5
66
  8
0
  6
BYBLOCK
 62
     9
 10
12674.255183
 20
4020.0
 30
0.0
 11
12674.255183
 21
4277.166667
 31
0.0
  0
LINE
  5
67
  8
0
  6
BYBLOCK
 62
     9
 10
12674.255183
 20
4830.0
 30
0.0
 11
12674.255183
 21
4512.833333
 31
0.0
  0
TEXT
  5
68
  8
0
  6
BYBLOCK
 62
    11
 10
12691.755183
 20
4284.166667
 30
0.0
 40
35.0
  1
650-850
 50
90.0
  0
SOLID
  5
69
  8
0
  6
BYBLOCK
 62
     9
 10
12670.92185
 20
4020.0
 30
0.0
 11
12677.588516
 21
4020.0
 31
0.0
 12
12674.255183
 22
4000.0
 32
0.0
 13
12674.255183
 23
4000.0
 33
0.0
  0
SOLID
  5
6A
  8
0
  6
BYBLOCK
 62
     9
 10
12670.92185
 20
4830.0
 30
0.0
 11
12677.588516
 21
4830.0
 31
0.0
 12
12674.255183
 22
4850.0
 32
0.0
 13
12674.255183
 23
4850.0
 33
0.0
  0
POINT
  5
6B
  8
DEFPOINTS
  6
BYBLOCK
 62
     0
 10
12000.0
 20
4000.0
 30
0.0
  0
POINT
  5
6C
  8
DEFPOINTS
  6
BYBLOCK
 62
     0
 10
12450.0
 20
4850.0
 30
0.0
  0
POINT
  5
6D
  8
DEFPOINTS
  6
BYBLOCK
 62
     0
 10
12674.255183
 20
4850.0
 30
0.0
  0
ENDBLK
  5
6F
  8
0
  0
BLOCK
  8
0
  2
*D2
 70
     1
 10
0.0
 20
0.0
 30
0.0
  3
*D2
  1

  0
LINE
  5
AB
  8
0
  6
BYBLOCK
 62
     9
 10
12010.0
 20
4000.0
 30
0.0
 11
12584.052717
 21
4000.0
 31
0.0
  0
LINE
  5
AC
  8
0
  6
BYBLOCK
 62
     9
 10
12040.0
 20
4470.0
 30
0.0
 11
12584.052717
 21
4470.0
 31
0.0
  0
LINE
  5
AD
  8
0
  6
BYBLOCK
 62
     9
 10
12583.052717
 20
4020.0
 30
0.0
 11
12583.052717
 21
4128.833333
 31
0.0
  0
LINE
  5
AE
  8
0
  6
BYBLOCK
 62
     9
 10
12583.052717
 20
4450.0
 30
0.0
 11
12583.052717
 21
4341.166667
 31
0.0
  0
SOLID
  5
AF
  8
0
  6
BYBLOCK
 62
     9
 10
12579.719384
 20
4020.0
 30
0.0
 11
12586.38605
 21
4020.0
 31
0.0
 12
12583.052717
 22
4000.0
 32
0.0
 13
12583.052717
 23
4000.0
 33
0.0
  0
SOLID
  5
B0
  8
0
  6
BYBLOCK
 62
     9
 10
12579.719384
 20
4450.0
 30
0.0
 11
12586.38605
 21
4450.0
 31
0.0
 12
12583.052717
 22
4470.0
 32
0.0
 13
12583.052717
 23
4470.0
 33
0.0
  0
TEXT
  5
B1
  8
0
  6
BYBLOCK
 62
    11
 10
12600.552717
 20
4135.833333
 30
0.0
 40
35.0
  1
310-510
 50
90.0
  0
POINT
  5
B2
  8
DEFPOINTS
  6
BYBLOCK
 62
     0
 10
12000.0
 20
4000.0
 30
0.0
  0
POINT
  5
B3
  8
DEFPOINTS
  6
BYBLOCK
 62
     0
 10
12030.0
 20
4470.0
 30
0.0
  0
POINT
  5
B4
  8
DEFPOINTS
  6
BYBLOCK
 62
     0
 10
12583.052717
 20
4470.0
 30
0.0
  0
ENDBLK
  5
B6
  8
0
  0
BLOCK
  8
0
  2
*D3
 70
     1
 10
0.0
 20
0.0
 30
0.0
  3
*D3
  1

  0
LINE
  5
56
  8
0
  6
BYBLOCK
 62
     9
 10
12010.0
 20
4000.0
 30
0.0
 11
12720.857121
 21
4000.0
 31
0.0
  0
LINE
  5
57
  8
0
  6
BYBLOCK
 62
     9
 10
12086.5
 20
5000.0
 30
0.0
 11
12720.857121
 21
5000.0
 31
0.0
  0
LINE
  5
58
  8
0
  6
BYBLOCK
 62
     9
 10
12719.857121
 20
4020.0
 30
0.0
 11
12719.857121
 21
4378.416667
 31
0.0
  0
LINE
  5
59
  8
0
  6
BYBLOCK
 62
     9
 10
12719.857121
 20
4980.0
 30
0.0
 11
12719.857121
 21
4561.583333
 31
0.0
  0
TEXT
  5
5A
  8
0
  6
BYBLOCK
 62
    11
 10
12737.357121
 20
4385.416667
 30
0.0
 40
35.0
  1
1000.00
 50
90.0
  0
SOLID
  5
5B
  8
0
  6
BYBLOCK
 62
     9
 10
12716.523787
 20
4020.0
 30
0.0
 11
12723.190454
 21
4020.0
 31
0.0
 12
12719.857121
 22
4000.0
 32
0.0
 13
12719.857121
 23
4000.0
 33
0.0
  0
SOLID
  5
5C
  8
0
  6
BYBLOCK
 62
     9
 10
12716.523787
 20
4980.0
 30
0.0
 11
12723.190454
 21
4980.0
 31
0.0
 12
12719.857121
 22
5000.0
 32
0.0
 13
12719.857121
 23
5000.0
 33
0.0
  0
POINT
  5
5D
  8
DEFPOINTS
  6
BYBLOCK
 62
     0
 10
12000.0
 20
4000.0
 30
0.0
  0
POINT
  5
5E
  8
DEFPOINTS
  6
BYBLOCK
 62
     0
 10
12076.5
 20
5000.0
 30
0.0
  0
POINT
  5
5F
  8
DEFPOINTS
  6
BYBLOCK
 62
     0
 10
12719.857121
 20
5000.0
 30
0.0
  0
ENDBLK
  5
61
  8
0
  0
BLOCK
  8
0
  2
*D4
 70
     1
 10
0.0
 20
0.0
 30
0.0
  3
*D4
  1

  0
LINE
  5
48
  8
0
  6
BYBLOCK
 62
     9
 10
12010.0
 20
4000.0
 30
0.0
 11
12631.253656
 21
4000.0
 31
0.0
  0
LINE
  5
49
  8
0
  6
BYBLOCK
 62
     9
 10
12460.0
 20
4850.0
 30
0.0
 11
12631.253656
 21
4850.0
 31
0.0
  0
LINE
  5
4A
  8
0
  6
BYBLOCK
 62
     9
 10
12630.253656
 20
4020.0
 30
0.0
 11
12630.253656
 21
4309.25
 31
0.0
  0
LINE
  5
4B
  8
0
  6
BYBLOCK
 62
     9
 10
12630.253656
 20
4830.0
 30
0.0
 11
12630.253656
 21
4480.75
 31
0.0
  0
TEXT
  5
4C
  8
0
  6
BYBLOCK
 62
    11
 10
12647.753656
 20
4316.25
 30
0.0
 40
35.0
  1
850.00
 50
90.0
  0
SOLID
  5
4D
  8
0
  6
BYBLOCK
 62
     9
 10
12626.920323
 20
4020.0
 30
0.0
 11
12633.58699
 21
4020.0
 31
0.0
 12
12630.253656
 22
4000.0
 32
0.0
 13
12630.253656
 23
4000.0
 33
0.0
  0
SOLID
  5
4E
  8
0
  6
BYBLOCK
 62
     9
 10
12626.920323
 20
4830.0
 30
0.0
 11
12633.58699
 21
4830.0
 31
0.0
 12
12630.253656
 22
4850.0
 32
0.0
 13
12630.253656
 23
4850.0
 33
0.0
  0
POINT
  5
4F
  8
DEFPOINTS
  6
BYBLOCK
 62
     0
 10
12000.0
 20
4000.0
 30
0.0
  0
POINT
  5
50
  8
DEFPOINTS
  6
BYBLOCK
 62
     0
 10
12450.0
 20
4850.0
 30
0.0
  0
POINT
  5
51
  8
DEFPOINTS
  6
BYBLOCK
 62
     0
 10
12630.253656
 20
4850.0
 30
0.0
  0
ENDBLK
  5
53
  8
0
  0
BLOCK
  8
0
  2
*D5
 70
     1
 10
0.0
 20
0.0
 30
0.0
  3
*D5
  1

  0
LINE
  5
3A
  8
0
  6
BYBLOCK
 62
     9
 10
12460.0
 20
4850.0
 30
0.0
 11
12584.052717
 21
4850.0
 31
0.0
  0
LINE
  5
3B
  8
0
  6
BYBLOCK
 62
     9
 10
12010.0
 20
4470.0
 30
0.0
 11
12584.052717
 21
4470.0
 31
0.0
  0
LINE
  5
3C
  8
0
  6
BYBLOCK
 62
     9
 10
12583.052717
 20
4830.0
 30
0.0
 11
12583.052717
 21
4745.75
 31
0.0
  0
LINE
  5
3D
  8
0
  6
BYBLOCK
 62
     9
 10
12583.052717
 20
4490.0
 30
0.0
 11
12583.052717
 21
4574.25
 31
0.0
  0
TEXT
  5
3E
  8
0
  6
BYBLOCK
 62
    11
 10
12600.552717
 20
4581.25
 30
0.0
 40
35.0
  1
380.00
 50
90.0
  0
SOLID
  5
3F
  8
0
  6
BYBLOCK
 62
     9
 10
12579.719384
 20
4830.0
 30
0.0
 11
12586.38605
 21
4830.0
 31
0.0
 12
12583.052717
 22
4850.0
 32
0.0
 13
12583.052717
 23
4850.0
 33
0.0
  0
SOLID
  5
40
  8
0
  6
BYBLOCK
 62
     9
 10
12579.719384
 20
4490.0
 30
0.0
 11
12586.38605
 21
4490.0
 31
0.0
 12
12583.052717
 22
4470.0
 32
0.0
 13
12583.052717
 23
4470.0
 33
0.0
  0
POINT
  5
41
  8
DEFPOINTS
  6
BYBLOCK
 62
     0
 10
12450.0
 20
4850.0
 30
0.0
  0
POINT
  5
42
  8
DEFPOINTS
  6
BYBLOCK
 62
     0
 10
12000.0
 20
4470.0
 30
0.0
  0
POINT
  5
43
  8
DEFPOINTS
  6
BYBLOCK
 62
     0
 10
12583.052717
 20
4470.0
 30
0.0
  0
ENDBLK
  5
45
  8
0
  0
BLOCK
  8
0
  2
*D6
 70
     1
 10
0.0
 20
0.0
 30
0.0
  3
*D6
  1

  0
LINE
  5
2C
  8
0
  6
BYBLOCK
 62
     9
 10
12455.472342
 20
4850.0
 30
0.0
 11
12494.450662
 21
4850.0
 31
0.0
  0
LINE
  5
2D
  8
0
  6
BYBLOCK
 62
     9
 10
12315.710615
 20
4795.0
 30
0.0
 11
12494.450662
 21
4795.0
 31
0.0
  0
LINE
  5
2E
  8
0
  6
BYBLOCK
 62
     9
 10
12493.450662
 20
4830.0
 30
0.0
 11
12493.450662
 21
4815.0
 31
0.0
  0
TEXT
  5
2F
  8
0
  6
BYBLOCK
 62
    11
 10
12510.950662
 20
4681.566667
 30
0.0
 40
35.0
  1
55.00
 50
90.0
  0
SOLID
  5
30
  8
0
  6
BYBLOCK
 62
     9
 10
12490.117328
 20
4830.0
 30
0.0
 11
12496.783995
 21
4830.0
 31
0.0
 12
12493.450662
 22
4850.0
 32
0.0
 13
12493.450662
 23
4850.0
 33
0.0
  0
SOLID
  5
31
  8
0
  6
BYBLOCK
 62
     9
 10
12490.117328
 20
4815.0
 30
0.0
 11
12496.783995
 21
4815.0
 31
0.0
 12
12493.450662
 22
4795.0
 32
0.0
 13
12493.450662
 23
4795.0
 33
0.0
  0
POINT
  5
32
  8
DEFPOINTS
  6
BYBLOCK
 62
     0
 10
12445.472342
 20
4850.0
 30
0.0
  0
POINT
  5
34
  8
DEFPOINTS
  6
BYBLOCK
 62
     0
 10
12305.710615
 20
4795.0
 30
0.0
  0
POINT
  5
35
  8
DEFPOINTS
  6
BYBLOCK
 62
     0
 10
12493.450662
 20
4795.0
 30
0.0
  0
ENDBLK
  5
37
  8
0
  0
BLOCK
  8
0
  2
*D7
 70
     1
 10
0.0
 20
0.0
 30
0.0
  3
*D7
  1

  0
LINE
  5
80
  8
0
  6
BYBLOCK
 62
     9
 10
12460.0
 20
4850.0
 30
0.0
 11
12540.05119
 21
4850.0
 31
0.0
  0
LINE
  5
81
  8
0
  6
BYBLOCK
 62
     9
 10
12075.262521
 20
4615.0
 30
0.0
 11
12540.05119
 21
4615.0
 31
0.0
  0
LINE
  5
82
  8
0
  6
BYBLOCK
 62
     9
 10
12539.05119
 20
4830.0
 30
0.0
 11
12539.05119
 21
4821.166667
 31
0.0
  0
LINE
  5
83
  8
0
  6
BYBLOCK
 62
     9
 10
12539.05119
 20
4635.0
 30
0.0
 11
12539.05119
 21
4643.833333
 31
0.0
  0
SOLID
  5
84
  8
0
  6
BYBLOCK
 62
     9
 10
12535.717857
 20
4830.0
 30
0.0
 11
12542.384524
 21
4830.0
 31
0.0
 12
12539.05119
 22
4850.0
 32
0.0
 13
12539.05119
 23
4850.0
 33
0.0
  0
SOLID
  5
85
  8
0
  6
BYBLOCK
 62
     9
 10
12535.717857
 20
4635.0
 30
0.0
 11
12542.384524
 21
4635.0
 31
0.0
 12
12539.05119
 22
4615.0
 32
0.0
 13
12539.05119
 23
4615.0
 33
0.0
  0
TEXT
  5
86
  8
0
  6
BYBLOCK
 62
    11
 10
12556.55119
 20
4650.833333
 30
0.0
 40
35.0
  1
235.00
 50
90.0
  0
POINT
  5
87
  8
DEFPOINTS
  6
BYBLOCK
 62
     0
 10
12450.0
 20
4850.0
 30
0.0
  0
POINT
  5
88
  8
DEFPOINTS
  6
BYBLOCK
 62
     0
 10
12065.262521
 20
4615.0
 30
0.0
  0
POINT
  5
89
  8
DEFPOINTS
  6
BYBLOCK
 62
     0
 10
12539.05119
 20
4615.0
 30
0.0
  0
ENDBLK
  5
8B
  8
0
  0
BLOCK
  8
0
  2
*D8
 70
     1
 10
0.0
 20
0.0
 30
0.0
  3
*D8
  1

  0
LINE
  5
F0
  8
0
  6
BYBLOCK
 62
     9
 10
11700.0
 20
4815.0
 30
0.0
 11
11700.0
 21
5049.594074
 31
0.0
  0
LINE
  5
F1
  8
0
  6
BYBLOCK
 62
     9
 10
12000.0
 20
5033.707822
 30
0.0
 11
12000.0
 21
5049.594074
 31
0.0
  0
LINE
  5
F2
  8
0
  6
BYBLOCK
 62
     9
 10
11720.0
 20
5048.594074
 30
0.0
 11
11767.166667
 21
5048.594074
 31
0.0
  0
LINE
  5
F3
  8
0
  6
BYBLOCK
 62
     9
 10
11980.0
 20
5048.594074
 30
0.0
 11
11932.833333
 21
5048.594074
 31
0.0
  0
SOLID
  5
F4
  8
0
  6
BYBLOCK
 62
     9
 10
11720.0
 20
5051.927407
 30
0.0
 11
11720.0
 21
5045.26074
 31
0.0
 12
11700.0
 22
5048.594074
 32
0.0
 13
11700.0
 23
5048.594074
 33
0.0
  0
SOLID
  5
F5
  8
0
  6
BYBLOCK
 62
     9
 10
11980.0
 20
5051.927407
 30
0.0
 11
11980.0
 21
5045.26074
 31
0.0
 12
12000.0
 22
5048.594074
 32
0.0
 13
12000.0
 23
5048.594074
 33
0.0
  0
TEXT
  5
F6
  8
0
  6
BYBLOCK
 62
    11
 10
11774.166667
 20
5031.094074
 30
0.0
 40
35.0
  1
300.00
  0
POINT
  5
F7
  8
DEFPOINTS
  6
BYBLOCK
 62
     0
 10
11700.0
 20
4805.0
 30
0.0
  0
POINT
  5
F8
  8
DEFPOINTS
  6
BYBLOCK
 62
     0
 10
12000.0
 20
5023.707822
 30
0.0
  0
POINT
  5
F9
  8
DEFPOINTS
  6
BYBLOCK
 62
     0
 10
12000.0
 20
5048.594074
 30
0.0
  0
ENDBLK
  5
FB
  8
0
  0
BLOCK
  8
0
  2
*D9
 70
     1
 10
0.0
 20
0.0
 30
0.0
  3
*D9
  1

  0
LINE
  5
9D
  8
0
  6
BYBLOCK
 62
     9
 10
12010.0
 20
4000.0
 30
0.0
 11
12540.05119
 21
4000.0
 31
0.0
  0
LINE
  5
9E
  8
0
  6
BYBLOCK
 62
     9
 10
12040.0
 20
4470.0
 30
0.0
 11
12540.05119
 21
4470.0
 31
0.0
  0
LINE
  5
9F
  8
0
  6
BYBLOCK
 62
     9
 10
12539.05119
 20
4020.0
 30
0.0
 11
12539.05119
 21
4149.25
 31
0.0
  0
LINE
  5
A0
  8
0
  6
BYBLOCK
 62
     9
 10
12539.05119
 20
4450.0
 30
0.0
 11
12539.05119
 21
4320.75
 31
0.0
  0
SOLID
  5
A1
  8
0
  6
BYBLOCK
 62
     9
 10
12535.717857
 20
4020.0
 30
0.0
 11
12542.384524
 21
4020.0
 31
0.0
 12
12539.05119
 22
4000.0
 32
0.0
 13
12539.05119
 23
4000.0
 33
0.0
  0
SOLID
  5
A2
  8
0
  6
BYBLOCK
 62
     9
 10
12535.717857
 20
4450.0
 30
0.0
 11
12542.384524
 21
4450.0
 31
0.0
 12
12539.05119
 22
4470.0
 32
0.0
 13
12539.05119
 23
4470.0
 33
0.0
  0
TEXT
  5
A3
  8
0
  6
BYBLOCK
 62
    11
 10
12556.55119
 20
4156.25
 30
0.0
 40
35.0
  1
470.00
 50
90.0
  0
POINT
  5
A4
  8
DEFPOINTS
  6
BYBLOCK
 62
     0
 10
12000.0
 20
4000.0
 30
0.0
  0
POINT
  5
A5
  8
DEFPOINTS
  6
BYBLOCK
 62
     0
 10
12030.0
 20
4470.0
 30
0.0
  0
POINT
  5
A6
  8
DEFPOINTS
  6
BYBLOCK
 62
     0
 10
12539.05119
 20
4470.0
 30
0.0
  0
ENDBLK
  5
A8
  8
0
  0
BLOCK
  8
0
  2
*D10
 70
     1
 10
0.0
 20
0.0
 30
0.0
  3
*D10
  1

  0
LINE
  5
101
  8
0
  6
BYBLOCK
 62
     9
 10
11923.5
 20
990.0
 30
0.0
 11
11923.5
 21
920.641685
 31
0.0
  0
LINE
  5
102
  8
0
  6
BYBLOCK
 62
     9
 10
12076.5
 20
990.0
 30
0.0
 11
12076.5
 21
920.641685
 31
0.0
  0
LINE
  5
103
  8
0
  6
BYBLOCK
 62
     9
 10
11943.5
 20
921.641685
 30
0.0
 11
12056.5
 21
921.641685
 31
0.0
  0
TEXT
  5
104
  8
0
  6
BYBLOCK
 62
    11
 10
11924.166667
 20
904.141685
 30
0.0
 40
35.0
  1
153.00
  0
SOLID
  5
105
  8
0
  6
BYBLOCK
 62
     9
 10
11943.5
 20
924.975019
 30
0.0
 11
11943.5
 21
918.308352
 31
0.0
 12
11923.5
 22
921.641685
 32
0.0
 13
11923.5
 23
921.641685
 33
0.0
  0
SOLID
  5
106
  8
0
  6
BYBLOCK
 62
     9
 10
12056.5
 20
924.975019
 30
0.0
 11
12056.5
 21
918.308352
 31
0.0
 12
12076.5
 22
921.641685
 32
0.0
 13
12076.5
 23
921.641685
 33
0.0
  0
POINT
  5
107
  8
DEFPOINTS
  6
BYBLOCK
 62
     0
 10
11923.5
 20
1000.0
 30
0.0
  0
POINT
  5
108
  8
DEFPOINTS
  6
BYBLOCK
 62
     0
 10
12076.5
 20
1000.0
 30
0.0
  0
POINT
  5
109
  8
DEFPOINTS
  6
BYBLOCK
 62
     0
 10
12076.5
 20
921.641685
 30
0.0
  0
ENDBLK
  5
10B
  8
0
  0
BLOCK
  8
0
  2
*D11
 70
     1
 10
0.0
 20
0.0
 30
0.0
  3
*D11
  1

  0
LINE
  5
DF
  8
0
  6
BYBLOCK
 62
     9
 10
12000.0
 20
5023.441665
 30
0.0
 11
12000.0
 21
5049.594074
 31
0.0
  0
LINE
  5
E0
  8
0
  6
BYBLOCK
 62
     9
 10
12300.0
 20
4815.0
 30
0.0
 11
12300.0
 21
5049.594074
 31
0.0
  0
LINE
  5
E1
  8
0
  6
BYBLOCK
 62
     9
 10
12020.0
 20
5048.594074
 30
0.0
 11
12067.166667
 21
5048.594074
 31
0.0
  0
LINE
  5
E2
  8
0
  6
BYBLOCK
 62
     9
 10
12280.0
 20
5048.594074
 30
0.0
 11
12232.833333
 21
5048.594074
 31
0.0
  0
SOLID
  5
E3
  8
0
  6
BYBLOCK
 62
     9
 10
12020.0
 20
5051.927407
 30
0.0
 11
12020.0
 21
5045.26074
 31
0.0
 12
12000.0
 22
5048.594074
 32
0.0
 13
12000.0
 23
5048.594074
 33
0.0
  0
SOLID
  5
E4
  8
0
  6
BYBLOCK
 62
     9
 10
12280.0
 20
5051.927407
 30
0.0
 11
12280.0
 21
5045.26074
 31
0.0
 12
12300.0
 22
5048.594074
 32
0.0
 13
12300.0
 23
5048.594074
 33
0.0
  0
TEXT
  5
E5
  8
0
  6
BYBLOCK
 62
    11
 10
12074.166667
 20
5031.094074
 30
0.0
 40
35.0
  1
300.00
  0
POINT
  5
E6
  8
DEFPOINTS
  6
BYBLOCK
 62
     0
 10
12000.0
 20
5013.441665
 30
0.0
  0
POINT
  5
E7
  8
DEFPOINTS
  6
BYBLOCK
 62
     0
 10
12300.0
 20
4805.0
 30
0.0
  0
POINT
  5
E8
  8
DEFPOINTS
  6
BYBLOCK
 62
     0
 10
12300.0
 20
5048.594074
 30
0.0
  0
ENDBLK
  5
EA
  8
0
  0
BLOCK
  8
0
  2
*D12
 70
     1
 10
0.0
 20
0.0
 30
0.0
  3
*D12
  1

  0
LINE
  5
D0
  8
0
  6
BYBLOCK
 62
     9
 10
11550.0
 20
4860.0
 30
0.0
 11
11550.0
 21
5095.334359
 31
0.0
  0
LINE
  5
D1
  8
0
  6
BYBLOCK
 62
     9
 10
12450.0
 20
4860.0
 30
0.0
 11
12450.0
 21
5095.334359
 31
0.0
  0
LINE
  5
D2
  8
0
  6
BYBLOCK
 62
     9
 10
11570.0
 20
5094.334359
 30
0.0
 11
11917.166667
 21
5094.334359
 31
0.0
  0
LINE
  5
D3
  8
0
  6
BYBLOCK
 62
     9
 10
12430.0
 20
5094.334359
 30
0.0
 11
12082.833333
 21
5094.334359
 31
0.0
  0
SOLID
  5
D4
  8
0
  6
BYBLOCK
 62
     9
 10
11570.0
 20
5097.667692
 30
0.0
 11
11570.0
 21
5091.001026
 31
0.0
 12
11550.0
 22
5094.334359
 32
0.0
 13
11550.0
 23
5094.334359
 33
0.0
  0
SOLID
  5
D5
  8
0
  6
BYBLOCK
 62
     9
 10
12430.0
 20
5097.667692
 30
0.0
 11
12430.0
 21
5091.001026
 31
0.0
 12
12450.0
 22
5094.334359
 32
0.0
 13
12450.0
 23
5094.334359
 33
0.0
  0
TEXT
  5
D6
  8
0
  6
BYBLOCK
 62
    11
 10
11924.166667
 20
5076.834359
 30
0.0
 40
35.0
  1
900.00
  0
POINT
  5
D7
  8
DEFPOINTS
  6
BYBLOCK
 62
     0
 10
11550.0
 20
4850.0
 30
0.0
  0
POINT
  5
D8
  8
DEFPOINTS
  6
BYBLOCK
 62
     0
 10
12450.0
 20
4850.0
 30
0.0
  0
POINT
  5
D9
  8
DEFPOINTS
  6
BYBLOCK
 62
     0
 10
12450.0
 20
5094.334359
 30
0.0
  0
ENDBLK
  5
DB
  8
0
  0
BLOCK
  8
0
  2
*D13
 70
     1
 10
0.0
 20
0.0
 30
0.0
  3
*D13
  1

  0
LINE
  5
90
  8
0
  6
BYBLOCK
 62
     9
 10
12075.262521
 20
4615.0
 30
0.0
 11
12540.05119
 21
4615.0
 31
0.0
  0
LINE
  5
91
  8
0
  6
BYBLOCK
 62
     9
 10
12040.0
 20
4550.0
 30
0.0
 11
12540.05119
 21
4550.0
 31
0.0
  0
LINE
  5
92
  8
0
  6
BYBLOCK
 62
     9
 10
12539.05119
 20
4595.0
 30
0.0
 11
12539.05119
 21
4570.0
 31
0.0
  0
TEXT
  5
93
  8
0
  6
BYBLOCK
 62
    11
 10
12556.55119
 20
4460.936989
 30
0.0
 40
35.0
  1
65.00
 50
90.0
  0
SOLID
  5
94
  8
0
  6
BYBLOCK
 62
     9
 10
12535.717857
 20
4595.0
 30
0.0
 11
12542.384524
 21
4595.0
 31
0.0
 12
12539.05119
 22
4615.0
 32
0.0
 13
12539.05119
 23
4615.0
 33
0.0
  0
SOLID
  5
95
  8
0
  6
BYBLOCK
 62
     9
 10
12535.717857
 20
4570.0
 30
0.0
 11
12542.384524
 21
4570.0
 31
0.0
 12
12539.05119
 22
4550.0
 32
0.0
 13
12539.05119
 23
4550.0
 33
0.0
  0
POINT
  5
96
  8
DEFPOINTS
  6
BYBLOCK
 62
     0
 10
12065.262521
 20
4615.0
 30
0.0
  0
POINT
  5
97
  8
DEFPOINTS
  6
BYBLOCK
 62
     0
 10
12030.0
 20
4550.0
 30
0.0
  0
POINT
  5
98
  8
DEFPOINTS
  6
BYBLOCK
 62
     0
 10
12539.05119
 20
4550.0
 30
0.0
  0
ENDBLK
  5
9A
  8
0
  0
ENDSEC
  0
SECTION
  2
ENTITIES
  0
LINE
  5
20
  8
TEAM-HIDE
 10
425.0
 20
690.0
 30
0.0
 11
425.0
 21
850.0
 31
0.0
  0
LINE
  5
23
  8
TEAM-BODY
 10
450.0
 20
685.0
 30
0.0
 11
450.0
 21
850.0
 31
0.0
  0
LINE
  5
25
  8
TEAM-HIDE
 10
-425.0
 20
850.0
 30
0.0
 11
-425.0
 21
690.0
 31
0.0
  0
LINE
  5
26
  8
TEAM-BODY
 10
-450.0
 20
850.0
 30
0.0
 11
-450.0
 21
685.0
 31
0.0
  0
LINE
  5
27
  8
TEAM-AXE
 10
0.0
 20
1023.707822
 30
0.0
 11
0.0
 21
375.0
 31
0.0
  0
DIMENSION
  5
2A
  8
TEAM-MAS
  2
*D6
 10
493.450662
 20
795.0
 30
0.0
 11
493.450662
 21
745.733333
 31
0.0
 12
-12000.0
 22
-4000.0
 32
0.0
 70
   128
 13
445.472342
 23
850.0
 33
0.0
 14
305.710615
 24
795.0
 34
0.0
 50
90.0
  0
DIMENSION
  5
38
  8
TEAM-MAS
  2
*D5
 10
583.052717
 20
470.0
 30
0.0
 11
583.052717
 21
660.0
 31
0.0
 12
-12000.0
 22
-4000.0
 32
0.0
 70
   128
 13
450.0
 23
850.0
 33
0.0
 14
0.0
 24
470.0
 34
0.0
 50
90.0
  0
DIMENSION
  5
46
  8
TEAM-MAS
  2
*D4
 10
630.253656
 20
850.0
 30
0.0
 11
630.253656
 21
395.0
 31
0.0
 12
-12000.0
 22
-4000.0
 32
0.0
 70
   128
 13
0.0
 23
0.0
 33
0.0
 14
450.0
 24
850.0
 34
0.0
 50
90.0
  0
DIMENSION
  5
54
  8
TEAM-MAS
  2
*D3
 10
719.857121
 20
1000.0
 30
0.0
 11
719.857121
 21
470.0
 31
0.0
 12
-12000.0
 22
-4000.0
 32
0.0
 70
   128
 13
0.0
 23
0.0
 33
0.0
 14
76.5
 24
1000.0
 34
0.0
 50
90.0
  0
DIMENSION
  5
62
  8
TEAM-MAS
  2
*D1
 10
674.255183
 20
850.0
 30
0.0
 11
674.255183
 21
395.0
 31
0.0
 12
-12000.0
 22
-4000.0
 32
0.0
 70
   128
  1
650-850
 13
0.0
 23
0.0
 33
0.0
 14
450.0
 24
850.0
 34
0.0
 50
90.0
  0
DIMENSION
  5
70
  8
TEAM-MAS
  2
*D0
 10
767.05806
 20
1000.0
 30
0.0
 11
767.05806
 21
470.0
 31
0.0
 12
-12000.0
 22
-4000.0
 32
0.0
 70
   128
  1
1050-1200
 13
0.0
 23
0.0
 33
0.0
 14
76.5
 24
1000.0
 34
0.0
 50
90.0
  0
DIMENSION
  5
7E
  8
TEAM-MAS
  2
*D7
 10
539.05119
 20
615.0
 30
0.0
 11
539.05119
 21
732.5
 31
0.0
 12
-12000.0
 22
-4000.0
 32
0.0
 13
450.0
 23
850.0
 33
0.0
 14
65.262521
 24
615.0
 34
0.0
 50
90.0
  0
LINE
  5
8C
  8
TEAM-BODY
 10
-420.0
 20
655.0
 30
0.0
 11
420.0
 21
655.0
 31
0.0
  0
LINE
  5
8D
  8
TEAM-HIDE
 10
-415.0
 20
680.0
 30
0.0
 11
415.0
 21
680.0
 31
0.0
  0
DIMENSION
  5
8E
  8
TEAM-MAS
  2
*D13
 10
539.05119
 20
550.0
 30
0.0
 11
539.05119
 21
525.103656
 31
0.0
 12
-12000.0
 22
-4000.0
 32
0.0
 70
   128
 13
65.262521
 23
615.0
 33
0.0
 14
30.0
 24
550.0
 34
0.0
 50
90.0
1001
ACAD
1000
DSTYLE
1002
{
1070
    40
1040
1.0
1002
}
  0
DIMENSION
  5
9B
  8
TEAM-MAS
  2
*D9
 10
539.05119
 20
470.0
 30
0.0
 11
539.05119
 21
235.0
 31
0.0
 12
-12000.0
 22
-4000.0
 32
0.0
 13
0.0
 23
0.0
 33
0.0
 14
30.0
 24
470.0
 34
0.0
 50
90.0
  0
DIMENSION
  5
A9
  8
TEAM-MAS
  2
*D2
 10
583.052717
 20
470.0
 30
0.0
 11
583.052717
 21
235.0
 31
0.0
 12
-12000.0
 22
-4000.0
 32
0.0
  1
310-510
 13
0.0
 23
0.0
 33
0.0
 14
30.0
 24
470.0
 34
0.0
 50
90.0
  0
ARC
  5
B7
  8
TEAM-HIDE
 10
-415.0
 20
690.0
 30
0.0
 40
10.0
 50
180.0
 51
270.0
  0
ARC
  5
B8
  8
TEAM-BODY
 10
-420.0
 20
685.0
 30
0.0
 40
30.0
 50
180.0
 51
270.0
  0
TEXT
  5
B9
  8
TEAM-TXT
 10
6.921532
 20
696.888189
 30
0.0
 40
30.0
  1
team 415005
 41
0.8
 51
15.0
  7
TEAM
  0
LINE
  5
BC
  8
TEAM-BODY
 10
-21.0
 20
525.0
 30
0.0
 11
21.0
 21
525.0
 31
0.0
  0
LINE
  5
BD
  8
TEAM-KAN
 10
0.0
 20
525.0
 30
0.0
 11
0.0
 21
615.0
 31
0.0
  0
LINE
  5
BF
  8
TEAM-BODY
 10
-30.0
 20
550.0
 30
0.0
 11
-30.0
 21
591.683481
 31
0.0
  0
LINE
  5
C0
  8
TEAM-BODY
 10
0.0
 20
550.0
 30
0.0
 11
-30.0
 21
550.0
 31
0.0
  0
LINE
  5
C1
  8
TEAM-BODY
 10
30.0
 20
550.0
 30
0.0
 11
30.0
 21
591.683481
 31
0.0
  0
LINE
  5
C2
  8
TEAM-BODY
 10
0.0
 20
550.0
 30
0.0
 11
30.0
 21
550.0
 31
0.0
  0
POLYLINE
  5
C3
  8
TEAM-BODY
 66
     1
 10
0.0
 20
0.0
 30
0.0
 70
     1
  0
VERTEX
  5
171
  8
TEAM-BODY
 10
45.146608
 20
615.0
 30
0.0
  0
VERTEX
  5
172
  8
TEAM-BODY
 10
-45.146608
 20
615.0
 30
0.0
  0
VERTEX
  5
173
  8
TEAM-BODY
 10
-45.146608
 20
591.683481
 30
0.0
  0
VERTEX
  5
174
  8
TEAM-BODY
 10
45.146608
 20
591.683481
 30
0.0
  0
SEQEND
  5
175
  8
TEAM-BODY
  0
POLYLINE
  5
C4
  8
TEAM-BODY
 66
     1
 10
0.0
 20
0.0
 30
0.0
 70
     1
  0
VERTEX
  5
176
  8
TEAM-BODY
 10
-62.258141
 20
615.0
 30
0.0
  0
VERTEX
  5
177
  8
TEAM-BODY
 10
65.262521
 20
615.0
 30
0.0
  0
VERTEX
  5
178
  8
TEAM-BODY
 10
65.262521
 20
655.0
 30
0.0
  0
VERTEX
  5
179
  8
TEAM-BODY
 10
-62.258141
 20
655.0
 30
0.0
  0
SEQEND
  5
17A
  8
TEAM-BODY
  0
CIRCLE
  5
C5
  8
TEAM-INSP
 10
0.0
 20
0.0
 30
0.0
 40
10.0
  0
LINE
  5
C7
  8
TEAM-BODY
 10
-21.0
 20
375.0
 30
0.0
 11
21.0
 21
375.0
 31
0.0
  0
LINE
  5
C8
  8
TEAM-AXE
 10
-30.0
 20
470.0
 30
0.0
 11
30.0
 21
470.0
 31
0.0
  0
LINE
  5
C9
  8
TEAM-BODY
 10
-21.0
 20
525.0
 30
0.0
 11
-21.0
 21
375.0
 31
0.0
  0
LINE
  5
CA
  8
TEAM-BODY
 10
21.0
 20
525.0
 30
0.0
 11
21.0
 21
375.0
 31
0.0
  0
CIRCLE
  5
CB
  8
TEAM-KAN
 10
0.0
 20
470.0
 30
0.0
 40
20.0
  0
ARC
  5
CC
  8
TEAM-HIDE
 10
415.0
 20
690.0
 30
0.0
 40
10.0
 50
270.0
 51
0.0
  0
ARC
  5
CD
  8
TEAM-BODY
 10
420.0
 20
685.0
 30
0.0
 40
30.0
 50
270.0
 51
0.0
  0
DIMENSION
  5
CE
  8
TEAM-MAS
  2
*D12
 10
450.0
 20
1094.334359
 30
0.0
 11
0.0
 21
1094.334359
 31
0.0
 12
-12000.0
 22
-4000.0
 32
0.0
 13
-450.0
 23
850.0
 33
0.0
 14
450.0
 24
850.0
 34
0.0
  0
LINE
  5
DC
  8
TEAM-BODY
 10
450.0
 20
850.0
 30
0.0
 11
-450.0
 21
850.0
 31
0.0
  0
DIMENSION
  5
DD
  8
TEAM-MAS
  2
*D11
 10
300.0
 20
1048.594074
 30
0.0
 11
150.0
 21
1048.594074
 31
0.0
 12
-12000.0
 22
-4000.0
 32
0.0
 13
0.0
 23
1013.441665
 33
0.0
 14
300.0
 24
805.0
 34
0.0
  0
LINE
  5
EB
  8
TEAM-AXE
 10
310.0
 20
795.0
 30
0.0
 11
290.0
 21
795.0
 31
0.0
  0
LINE
  5
EC
  8
TEAM-AXE
 10
300.0
 20
805.0
 30
0.0
 11
300.0
 21
785.0
 31
0.0
  0
CIRCLE
  5
ED
  8
TEAM-HIDE
 10
300.0
 20
795.0
 30
0.0
 40
5.0
  0
DIMENSION
  5
EE
  8
TEAM-MAS
  2
*D8
 10
0.0
 20
1048.594074
 30
0.0
 11
-150.0
 21
1048.594074
 31
0.0
 12
-12000.0
 22
-4000.0
 32
0.0
 13
-300.0
 23
805.0
 33
0.0
 14
0.0
 24
1023.707822
 34
0.0
  0
LINE
  5
FC
  8
TEAM-AXE
 10
-290.0
 20
795.0
 30
0.0
 11
-310.0
 21
795.0
 31
0.0
  0
LINE
  5
FD
  8
TEAM-AXE
 10
-300.0
 20
805.0
 30
0.0
 11
-300.0
 21
785.0
 31
0.0
  0
CIRCLE
  5
FE
  8
TEAM-HIDE
 10
-300.0
 20
795.0
 30
0.0
 40
5.0
  0
DIMENSION
  5
FF
  8
TEAM-MAS
  2
*D10
 10
76.5
 20
921.641685
 30
0.0
 11
0.0
 21
921.641685
 31
0.0
 12
-12000.0
 22
0.0
 32
0.0
 70
   128
 13
-76.5
 23
1000.0
 33
0.0
 14
76.5
 24
1000.0
 34
0.0
  0
LINE
  5
10C
  8
TEAM-AXE
 10
76.5
 20
980.0
 30
0.0
 11
76.5
 21
1020.0
 31
0.0
  0
CIRCLE
  5
10D
  8
TEAM-COLD
 10
76.5
 20
1000.0
 30
0.0
 40
15.0
  0
LINE
  5
10F
  8
TEAM-AXE
 10
0.0
 20
805.0
 30
0.0
 11
0.0
 21
785.0
 31
0.0
  0
CIRCLE
  5
110
  8
TEAM-HIDE
 10
0.0
 20
795.0
 30
0.0
 40
5.0
  0
LINE
  5
111
  8
TEAM-AXE
 10
-76.5
 20
980.0
 30
0.0
 11
-76.5
 21
1020.0
 31
0.0
  0
LINE
  5
112
  8
TEAM-AXE
 10
-96.5
 20
1000.0
 30
0.0
 11
-56.5
 21
1000.0
 31
0.0
  0
CIRCLE
  5
113
  8
TEAM-WARM
 10
-76.5
 20
1000.0
 30
0.0
 40
15.0
  0
LINE
  5
115
  8
TEAM-AXE
 10
10.0
 20
795.0
 30
0.0
 11
-10.0
 21
795.0
 31
0.0
  0
LINE
  5
116
  8
TEAM-AXE
 10
56.5
 20
1000.0
 30
0.0
 11
96.5
 21
1000.0
 31
0.0
  0
ENDSEC
  0
EOF
