  0
SECTION
  2
HEADER
  9
$ACADVER
  1
AC1009
  9
$INSBASE
 10
0.0
 20
0.0
 30
0.0
  9
$EXTMIN
 10
-295.720083
 20
-10.066477
 30
0.0
  9
$EXTMAX
 10
483.2424
 20
1020.046794
 30
0.000005
  9
$LIMMIN
 10
-295.720083
 20
-10.066477
  9
$LIMMAX
 10
483.2424
 20
1020.046794
  9
$ORTHOMODE
 70
     1
  9
$REGENMODE
 70
     1
  9
$FILLMODE
 70
     1
  9
$QTEXTMODE
 70
     0
  9
$MIRRTEXT
 70
     0
  9
$DRAGMODE
 70
     2
  9
$LTSCALE
 40
50.0
  9
$OSMODE
 70
     0
  9
$ATTMODE
 70
     1
  9
$TEXTSIZE
 40
200.0
  9
$TRACEWID
 40
1.0
  9
$TEXTSTYLE
  7
STANDARD
  9
$CLAYER
  8
TEAM-MAS
  9
$CELTYPE
  6
BYLAYER
  9
$CECOLOR
 62
   256
  9
$DIMSCALE
 40
0.0
  9
$DIMASZ
 40
20.0
  9
$DIMEXO
 40
10.0
  9
$DIMDLI
 40
1.0
  9
$DIMRND
 40
0.0
  9
$DIMDLE
 40
0.0
  9
$DIMEXE
 40
1.0
  9
$DIMTP
 40
0.0
  9
$DIMTM
 40
0.0
  9
$DIMTXT
 40
35.0
  9
$DIMCEN
 40
1.0
  9
$DIMTSZ
 40
0.0
  9
$DIMTOL
 70
     0
  9
$DIMLIM
 70
     0
  9
$DIMTIH
 70
     0
  9
$DIMTOH
 70
     0
  9
$DIMSE1
 70
     0
  9
$DIMSE2
 70
     0
  9
$DIMTAD
 70
     0
  9
$DIMZIN
 70
     0
  9
$DIMBLK
  1

  9
$DIMASO
 70
     1
  9
$DIMSHO
 70
     0
  9
$DIMPOST
  1

  9
$DIMAPOST
  1

  9
$DIMALT
 70
     0
  9
$DIMALTD
 70
     2
  9
$DIMALTF
 40
25.4
  9
$DIMLFAC
 40
1.0
  9
$DIMTOFL
 70
     0
  9
$DIMTVP
 40
0.0
  9
$DIMTIX
 70
     0
  9
$DIMSOXD
 70
     0
  9
$DIMSAH
 70
     0
  9
$DIMBLK1
  1

  9
$DIMBLK2
  1

  9
$DIMSTYLE
  2
TEAM
  9
$DIMCLRD
 70
     9
  9
$DIMCLRE
 70
     9
  9
$DIMCLRT
 70
    11
  9
$DIMTFAC
 40
1.0
  9
$DIMGAP
 40
7.0
  9
$LUNITS
 70
     2
  9
$LUPREC
 70
     1
  9
$SKETCHINC
 40
1.0
  9
$FILLETRAD
 40
50.0
  9
$AUNITS
 70
     0
  9
$AUPREC
 70
     0
  9
$MENU
  1
ROPLANS
  9
$ELEVATION
 40
0.0
  9
$PELEVATION
 40
0.0
  9
$THICKNESS
 40
0.0
  9
$LIMCHECK
 70
     0
  9
$BLIPMODE
 70
     1
  9
$CHAMFERA
 40
0.0
  9
$CHAMFERB
 40
0.0
  9
$SKPOLY
 70
     0
  9
$TDCREATE
 40
2450392.957851
  9
$TDUPDATE
 40
2456272.033233
  9
$TDINDWG
 40
2.315654
  9
$TDUSRTIMER
 40
2.315654
  9
$USRTIMER
 70
     1
  9
$ANGBASE
 50
0.0
  9
$ANGDIR
 70
     0
  9
$PDMODE
 70
     0
  9
$PDSIZE
 40
0.0
  9
$PLINEWID
 40
0.0
  9
$COORDS
 70
     2
  9
$SPLFRAME
 70
     0
  9
$SPLINETYPE
 70
     6
  9
$SPLINESEGS
 70
     8
  9
$ATTDIA
 70
     0
  9
$ATTREQ
 70
     0
  9
$HANDLING
 70
     1
  9
$HANDSEED
  5
EF
  9
$SURFTAB1
 70
    24
  9
$SURFTAB2
 70
    24
  9
$SURFTYPE
 70
     6
  9
$SURFU
 70
     6
  9
$SURFV
 70
     6
  9
$UCSNAME
  2

  9
$UCSORG
 10
0.0
 20
0.0
 30
0.0
  9
$UCSXDIR
 10
1.0
 20
0.0
 30
0.0
  9
$UCSYDIR
 10
0.0
 20
1.0
 30
0.0
  9
$PUCSNAME
  2

  9
$PUCSORG
 10
0.0
 20
0.0
 30
0.0
  9
$PUCSXDIR
 10
1.0
 20
0.0
 30
0.0
  9
$PUCSYDIR
 10
0.0
 20
1.0
 30
0.0
  9
$USERI1
 70
     0
  9
$USERI2
 70
     0
  9
$USERI3
 70
     0
  9
$USERI4
 70
     0
  9
$USERI5
 70
     0
  9
$USERR1
 40
0.0
  9
$USERR2
 40
0.0
  9
$USERR3
 40
0.0
  9
$USERR4
 40
0.0
  9
$USERR5
 40
0.0
  9
$WORLDVIEW
 70
     1
  9
$SHADEDGE
 70
     0
  9
$SHADEDIF
 70
    70
  9
$TILEMODE
 70
     1
  9
$MAXACTVP
 70
    16
  9
$PLIMCHECK
 70
     0
  9
$PEXTMIN
 10
-0.805942
 20
0.005011
 30
0.0
  9
$PEXTMAX
 10
20.250094
 20
11.356329
 30
0.0
  9
$PLIMMIN
 10
0.0
 20
0.0
  9
$PLIMMAX
 10
12.0
 20
9.0
  9
$UNITMODE
 70
     0
  9
$VISRETAIN
 70
     0
  9
$PLINEGEN
 70
     0
  9
$PSLTSCALE
 70
     0
  0
ENDSEC
  0
SECTION
  2
TABLES
  0
TABLE
  2
VPORT
 70
     2
  0
VPORT
  2
*ACTIVE
 70
     0
 10
0.0
 20
0.0
 11
1.0
 21
1.0
 12
93.761159
 22
504.990159
 13
0.0
 23
0.0
 14
1.0
 24
1.0
 15
50.0
 25
50.0
 16
0.0
 26
0.0
 36
1.0
 17
0.0
 27
0.0
 37
0.0
 40
1036.598769
 41
1.911765
 42
50.0
 43
0.0
 44
0.0
 50
0.0
 51
0.0
 71
     0
 72
   100
 73
     1
 74
     1
 75
     0
 76
     0
 77
     0
 78
     0
  0
ENDTAB
  0
TABLE
  2
LTYPE
 70
     2
  0
LTYPE
  2
CONTINUOUS
 70
     0
  3
Solid Line
 72
    65
 73
     0
 40
0.0
  0
LTYPE
  2
31
 70
     0
  3

 72
    65
 73
     4
 40
2.1
 49
1.5
 49
-0.3
 49
0.0
 49
-0.3
  0
ENDTAB
  0
TABLE
  2
LAYER
 70
    10
  0
LAYER
  2
0
 70
     0
 62
     7
  6
CONTINUOUS
  0
LAYER
  2
DEFPOINTS
 70
     0
 62
     7
  6
CONTINUOUS
  0
LAYER
  2
TEAM-BODY
 70
     0
 62
     2
  6
CONTINUOUS
  0
LAYER
  2
TEAM-AXE
 70
     0
 62
    10
  6
31
  0
LAYER
  2
TEAM-MAS
 70
     0
 62
     9
  6
CONTINUOUS
  0
LAYER
  2
TEAM-TXT
 70
     0
 62
    11
  6
CONTINUOUS
  0
LAYER
  2
TEAM-COLD
 70
     0
 62
     3
  6
CONTINUOUS
  0
LAYER
  2
TEAM-KAN
 70
     0
 62
     6
  6
CONTINUOUS
  0
LAYER
  2
TEAM-WARM
 70
     0
 62
     1
  6
CONTINUOUS
  0
LAYER
  2
TEAM-INSP
 70
     0
 62
     5
  6
CONTINUOUS
  0
ENDTAB
  0
TABLE
  2
STYLE
 70
     2
  0
STYLE
  2
STANDARD
 70
     0
 40
0.0
 41
1.0
 50
0.0
 71
     0
 42
200.0
  3
txt
  4

  0
STYLE
  2
TEAM
 70
     0
 40
0.0
 41
0.8
 50
15.0
 71
     0
 42
7.0
  3
ROMANS.shx
  4

  0
ENDTAB
  0
TABLE
  2
VIEW
 70
     0
  0
ENDTAB
  0
TABLE
  2
UCS
 70
     0
  0
ENDTAB
  0
TABLE
  2
APPID
 70
     1
  0
APPID
  2
ACAD
 70
     0
  0
ENDTAB
  0
TABLE
  2
DIMSTYLE
 70
     1
  0
DIMSTYLE
  2
TEAM
 70
     0
  3

  4

  5

  6

  7

 40
0.0
 41
20.0
 42
10.0
 43
1.0
 44
1.0
 45
0.0
 46
0.0
 47
0.0
 48
0.0
140
35.0
141
1.0
142
0.0
143
25.4
144
1.0
145
0.0
146
1.0
147
7.0
 71
     0
 72
     0
 73
     0
 74
     0
 75
     0
 76
     0
 77
     0
 78
     0
170
     0
171
     2
172
     0
173
     0
174
     0
175
     0
176
     9
177
     9
178
    11
  0
ENDTAB
  0
ENDSEC
  0
SECTION
  2
BLOCKS
  0
BLOCK
  8
0
  2
$MODEL_SPACE
 70
     0
 10
0.0
 20
0.0
 30
0.0
  3
$MODEL_SPACE
  1

  0
ENDBLK
  5
E8
  8
0
  0
BLOCK
 67
     1
  8
0
  2
$PAPER_SPACE
 70
     0
 10
0.0
 20
0.0
 30
0.0
  3
$PAPER_SPACE
  1

  0
ENDBLK
  5
E6
 67
     1
  8
0
  0
BLOCK
  8
0
  2
*D0
 70
     1
 10
0.0
 20
0.0
 30
0.0
  3
*D0
  1

  0
LINE
  5
31
  8
0
  6
BYBLOCK
 62
     9
 10
-10.0
 20
68850.0
 30
0.0
 11
-99.66658
 21
68850.0
 31
0.0
  0
LINE
  5
32
  8
0
  6
BYBLOCK
 62
     9
 10
-10.0
 20
68655.0
 30
0.0
 11
-99.66658
 21
68655.0
 31
0.0
  0
LINE
  5
33
  8
0
  6
BYBLOCK
 62
     9
 10
-98.66658
 20
68830.0
 30
0.0
 11
-98.66658
 21
68800.333333
 31
0.0
  0
LINE
  5
34
  8
0
  6
BYBLOCK
 62
     9
 10
-98.66658
 20
68675.0
 30
0.0
 11
-98.66658
 21
68704.666667
 31
0.0
  0
SOLID
  5
35
  8
0
  6
BYBLOCK
 62
     9
 10
-101.999914
 20
68830.0
 30
0.0
 11
-95.333247
 21
68830.0
 31
0.0
 12
-98.66658
 22
68850.0
 32
0.0
 13
-98.66658
 23
68850.0
 33
0.0
  0
SOLID
  5
36
  8
0
  6
BYBLOCK
 62
     9
 10
-101.999914
 20
68675.0
 30
0.0
 11
-95.333247
 21
68675.0
 31
0.0
 12
-98.66658
 22
68655.0
 32
0.0
 13
-98.66658
 23
68655.0
 33
0.0
  0
TEXT
  5
37
  8
0
  6
BYBLOCK
 62
    11
 10
-81.16658
 20
68711.666667
 30
0.0
 40
35.0
  1
195
 50
90.0
  0
POINT
  5
38
  8
DEFPOINTS
  6
BYBLOCK
 62
     0
 10
0.0
 20
68850.0
 30
0.0
  0
POINT
  5
39
  8
DEFPOINTS
  6
BYBLOCK
 62
     0
 10
0.0
 20
68655.0
 30
0.0
  0
POINT
  5
3A
  8
DEFPOINTS
  6
BYBLOCK
 62
     0
 10
-98.66658
 20
68655.0
 30
0.0
  0
ENDBLK
  5
3C
  8
0
  0
BLOCK
  8
0
  2
*D1
 70
     1
 10
0.0
 20
0.0
 30
0.0
  3
*D1
  1

  0
LINE
  5
3F
  8
0
  6
BYBLOCK
 62
     9
 10
-10.0
 20
68000.0
 30
0.0
 11
-99.66658
 21
68000.0
 31
0.0
  0
LINE
  5
40
  8
0
  6
BYBLOCK
 62
     9
 10
-10.0
 20
68510.0
 30
0.0
 11
-99.66658
 21
68510.0
 31
0.0
  0
LINE
  5
41
  8
0
  6
BYBLOCK
 62
     9
 10
-98.66658
 20
68020.0
 30
0.0
 11
-98.66658
 21
68137.166667
 31
0.0
  0
LINE
  5
42
  8
0
  6
BYBLOCK
 62
     9
 10
-98.66658
 20
68490.0
 30
0.0
 11
-98.66658
 21
68372.833333
 31
0.0
  0
SOLID
  5
43
  8
0
  6
BYBLOCK
 62
     9
 10
-101.999914
 20
68020.0
 30
0.0
 11
-95.333247
 21
68020.0
 31
0.0
 12
-98.66658
 22
68000.0
 32
0.0
 13
-98.66658
 23
68000.0
 33
0.0
  0
SOLID
  5
44
  8
0
  6
BYBLOCK
 62
     9
 10
-101.999914
 20
68490.0
 30
0.0
 11
-95.333247
 21
68490.0
 31
0.0
 12
-98.66658
 22
68510.0
 32
0.0
 13
-98.66658
 23
68510.0
 33
0.0
  0
TEXT
  5
45
  8
0
  6
BYBLOCK
 62
    11
 10
-81.16658
 20
68144.166667
 30
0.0
 40
35.0
  1
480-550
 50
90.0
  0
POINT
  5
46
  8
DEFPOINTS
  6
BYBLOCK
 62
     0
 10
0.0
 20
68000.0
 30
0.0
  0
POINT
  5
47
  8
DEFPOINTS
  6
BYBLOCK
 62
     0
 10
0.0
 20
68510.0
 30
0.0
  0
POINT
  5
48
  8
DEFPOINTS
  6
BYBLOCK
 62
     0
 10
-98.66658
 20
68510.0
 30
0.0
  0
ENDBLK
  5
4A
  8
0
  0
BLOCK
  8
0
  2
*D2
 70
     1
 10
0.0
 20
0.0
 30
0.0
  3
*D2
  1

  0
LINE
  5
4D
  8
0
  6
BYBLOCK
 62
     9
 10
-10.0
 20
68000.0
 30
0.0
 11
-57.180936
 21
68000.0
 31
0.0
  0
LINE
  5
4E
  8
0
  6
BYBLOCK
 62
     9
 10
-10.0
 20
68510.0
 30
0.0
 11
-57.180936
 21
68510.0
 31
0.0
  0
LINE
  5
4F
  8
0
  6
BYBLOCK
 62
     9
 10
-56.180936
 20
68020.0
 30
0.0
 11
-56.180936
 21
68210.083333
 31
0.0
  0
LINE
  5
50
  8
0
  6
BYBLOCK
 62
     9
 10
-56.180936
 20
68490.0
 30
0.0
 11
-56.180936
 21
68299.916667
 31
0.0
  0
SOLID
  5
51
  8
0
  6
BYBLOCK
 62
     9
 10
-59.514269
 20
68020.0
 30
0.0
 11
-52.847603
 21
68020.0
 31
0.0
 12
-56.180936
 22
68000.0
 32
0.0
 13
-56.180936
 23
68000.0
 33
0.0
  0
SOLID
  5
52
  8
0
  6
BYBLOCK
 62
     9
 10
-59.514269
 20
68490.0
 30
0.0
 11
-52.847603
 21
68490.0
 31
0.0
 12
-56.180936
 22
68510.0
 32
0.0
 13
-56.180936
 23
68510.0
 33
0.0
  0
TEXT
  5
53
  8
0
  6
BYBLOCK
 62
    11
 10
-38.680936
 20
68217.083333
 30
0.0
 40
35.0
  1
510
 50
90.0
  0
POINT
  5
54
  8
DEFPOINTS
  6
BYBLOCK
 62
     0
 10
0.0
 20
68000.0
 30
0.0
  0
POINT
  5
55
  8
DEFPOINTS
  6
BYBLOCK
 62
     0
 10
0.0
 20
68510.0
 30
0.0
  0
POINT
  5
56
  8
DEFPOINTS
  6
BYBLOCK
 62
     0
 10
-56.180936
 20
68510.0
 30
0.0
  0
ENDBLK
  5
58
  8
0
  0
BLOCK
  8
0
  2
*D3
 70
     1
 10
0.0
 20
0.0
 30
0.0
  3
*D3
  1

  0
LINE
  5
5B
  8
0
  6
BYBLOCK
 62
     9
 10
-10.0
 20
68000.0
 30
0.0
 11
-235.083304
 21
68000.0
 31
0.0
  0
LINE
  5
5C
  8
0
  6
BYBLOCK
 62
     9
 10
-10.0
 20
69000.0
 30
0.0
 11
-235.083304
 21
69000.0
 31
0.0
  0
LINE
  5
5D
  8
0
  6
BYBLOCK
 62
     9
 10
-234.083304
 20
68020.0
 30
0.0
 11
-234.083304
 21
68453.416667
 31
0.0
  0
LINE
  5
5E
  8
0
  6
BYBLOCK
 62
     9
 10
-234.083304
 20
68980.0
 30
0.0
 11
-234.083304
 21
68566.583333
 31
0.0
  0
TEXT
  5
5F
  8
0
  6
BYBLOCK
 62
    11
 10
-216.583304
 20
68460.416667
 30
0.0
 40
35.0
  1
1000
 50
90.0
  0
SOLID
  5
60
  8
0
  6
BYBLOCK
 62
     9
 10
-237.416637
 20
68020.0
 30
0.0
 11
-230.749971
 21
68020.0
 31
0.0
 12
-234.083304
 22
68000.0
 32
0.0
 13
-234.083304
 23
68000.0
 33
0.0
  0
SOLID
  5
61
  8
0
  6
BYBLOCK
 62
     9
 10
-237.416637
 20
68980.0
 30
0.0
 11
-230.749971
 21
68980.0
 31
0.0
 12
-234.083304
 22
69000.0
 32
0.0
 13
-234.083304
 23
69000.0
 33
0.0
  0
POINT
  5
62
  8
DEFPOINTS
  6
BYBLOCK
 62
     0
 10
0.0
 20
68000.0
 30
0.0
  0
POINT
  5
63
  8
DEFPOINTS
  6
BYBLOCK
 62
     0
 10
0.0
 20
69000.0
 30
0.0
  0
POINT
  5
64
  8
DEFPOINTS
  6
BYBLOCK
 62
     0
 10
-234.083304
 20
69000.0
 30
0.0
  0
ENDBLK
  5
66
  8
0
  0
BLOCK
  8
0
  2
*D4
 70
     1
 10
0.0
 20
0.0
 30
0.0
  3
*D4
  1

  0
LINE
  5
69
  8
0
  6
BYBLOCK
 62
     9
 10
-10.0
 20
68000.0
 30
0.0
 11
-143.744183
 21
68000.0
 31
0.0
  0
LINE
  5
6A
  8
0
  6
BYBLOCK
 62
     9
 10
-10.0
 20
68850.0
 30
0.0
 11
-143.744183
 21
68850.0
 31
0.0
  0
LINE
  5
6B
  8
0
  6
BYBLOCK
 62
     9
 10
-142.744183
 20
68020.0
 30
0.0
 11
-142.744183
 21
68384.25
 31
0.0
  0
LINE
  5
6C
  8
0
  6
BYBLOCK
 62
     9
 10
-142.744183
 20
68830.0
 30
0.0
 11
-142.744183
 21
68485.75
 31
0.0
  0
TEXT
  5
6D
  8
0
  6
BYBLOCK
 62
    11
 10
-125.244183
 20
68391.25
 30
0.0
 40
35.0
  1
850
 50
90.0
  0
SOLID
  5
6E
  8
0
  6
BYBLOCK
 62
     9
 10
-146.077516
 20
68020.0
 30
0.0
 11
-139.41085
 21
68020.0
 31
0.0
 12
-142.744183
 22
68000.0
 32
0.0
 13
-142.744183
 23
68000.0
 33
0.0
  0
SOLID
  5
6F
  8
0
  6
BYBLOCK
 62
     9
 10
-146.077516
 20
68830.0
 30
0.0
 11
-139.41085
 21
68830.0
 31
0.0
 12
-142.744183
 22
68850.0
 32
0.0
 13
-142.744183
 23
68850.0
 33
0.0
  0
POINT
  5
70
  8
DEFPOINTS
  6
BYBLOCK
 62
     0
 10
0.0
 20
68000.0
 30
0.0
  0
POINT
  5
71
  8
DEFPOINTS
  6
BYBLOCK
 62
     0
 10
0.0
 20
68850.0
 30
0.0
  0
POINT
  5
72
  8
DEFPOINTS
  6
BYBLOCK
 62
     0
 10
-142.744183
 20
68850.0
 30
0.0
  0
ENDBLK
  5
74
  8
0
  0
BLOCK
  8
0
  2
*D5
 70
     1
 10
0.0
 20
0.0
 30
0.0
  3
*D5
  1

  0
LINE
  5
77
  8
0
  6
BYBLOCK
 62
     9
 10
-10.0
 20
68000.0
 30
0.0
 11
-189.413743
 21
68000.0
 31
0.0
  0
LINE
  5
78
  8
0
  6
BYBLOCK
 62
     9
 10
-10.0
 20
68850.0
 30
0.0
 11
-189.413743
 21
68850.0
 31
0.0
  0
LINE
  5
79
  8
0
  6
BYBLOCK
 62
     9
 10
-188.413743
 20
68020.0
 30
0.0
 11
-188.413743
 21
68343.416667
 31
0.0
  0
LINE
  5
7A
  8
0
  6
BYBLOCK
 62
     9
 10
-188.413743
 20
68830.0
 30
0.0
 11
-188.413743
 21
68526.583333
 31
0.0
  0
TEXT
  5
7B
  8
0
  6
BYBLOCK
 62
    11
 10
-170.913743
 20
68350.416667
 30
0.0
 40
35.0
  1
ca.850
 50
90.0
  0
SOLID
  5
7C
  8
0
  6
BYBLOCK
 62
     9
 10
-191.747077
 20
68020.0
 30
0.0
 11
-185.08041
 21
68020.0
 31
0.0
 12
-188.413743
 22
68000.0
 32
0.0
 13
-188.413743
 23
68000.0
 33
0.0
  0
SOLID
  5
7D
  8
0
  6
BYBLOCK
 62
     9
 10
-191.747077
 20
68830.0
 30
0.0
 11
-185.08041
 21
68830.0
 31
0.0
 12
-188.413743
 22
68850.0
 32
0.0
 13
-188.413743
 23
68850.0
 33
0.0
  0
POINT
  5
7E
  8
DEFPOINTS
  6
BYBLOCK
 62
     0
 10
0.0
 20
68000.0
 30
0.0
  0
POINT
  5
7F
  8
DEFPOINTS
  6
BYBLOCK
 62
     0
 10
0.0
 20
68850.0
 30
0.0
  0
POINT
  5
80
  8
DEFPOINTS
  6
BYBLOCK
 62
     0
 10
-188.413743
 20
68850.0
 30
0.0
  0
ENDBLK
  5
82
  8
0
  0
BLOCK
  8
0
  2
*D6
 70
     1
 10
0.0
 20
0.0
 30
0.0
  3
*D6
  1

  0
LINE
  5
85
  8
0
  6
BYBLOCK
 62
     9
 10
-10.0
 20
68000.0
 30
0.0
 11
-279.160906
 21
68000.0
 31
0.0
  0
LINE
  5
86
  8
0
  6
BYBLOCK
 62
     9
 10
-2.420683
 20
69000.0
 30
0.0
 11
-279.160906
 21
69000.0
 31
0.0
  0
LINE
  5
87
  8
0
  6
BYBLOCK
 62
     9
 10
-278.160906
 20
68020.0
 30
0.0
 11
-278.160906
 21
68377.583333
 31
0.0
  0
LINE
  5
88
  8
0
  6
BYBLOCK
 62
     9
 10
-278.160906
 20
68980.0
 30
0.0
 11
-278.160906
 21
68642.416667
 31
0.0
  0
TEXT
  5
89
  8
0
  6
BYBLOCK
 62
    11
 10
-260.660906
 20
68384.583333
 30
0.0
 40
35.0
  1
1000-1050
 50
90.0
  0
SOLID
  5
8A
  8
0
  6
BYBLOCK
 62
     9
 10
-281.49424
 20
68020.0
 30
0.0
 11
-274.827573
 21
68020.0
 31
0.0
 12
-278.160906
 22
68000.0
 32
0.0
 13
-278.160906
 23
68000.0
 33
0.0
  0
SOLID
  5
8B
  8
0
  6
BYBLOCK
 62
     9
 10
-281.49424
 20
68980.0
 30
0.0
 11
-274.827573
 21
68980.0
 31
0.0
 12
-278.160906
 22
69000.0
 32
0.0
 13
-278.160906
 23
69000.0
 33
0.0
  0
POINT
  5
8C
  8
DEFPOINTS
  6
BYBLOCK
 62
     0
 10
0.0
 20
68000.0
 30
0.0
  0
POINT
  5
8D
  8
DEFPOINTS
  6
BYBLOCK
 62
     0
 10
7.579317
 20
69000.0
 30
0.0
  0
POINT
  5
8E
  8
DEFPOINTS
  6
BYBLOCK
 62
     0
 10
-278.160906
 20
69000.0
 30
0.0
  0
ENDBLK
  5
90
  8
0
  0
BLOCK
  8
0
  2
*D7
 70
     1
 10
0.0
 20
0.0
 30
0.0
  3
*D7
  1

  0
LINE
  5
22
  8
0
  6
BYBLOCK
 62
     9
 10
0.0
 20
68860.0
 30
0.0
 11
0.0
 21
68886.298319
 31
0.0
  0
LINE
  5
23
  8
0
  6
BYBLOCK
 62
     9
 10
477.0
 20
68860.0
 30
0.0
 11
477.0
 21
68886.298319
 31
0.0
  0
LINE
  5
24
  8
0
  6
BYBLOCK
 62
     9
 10
20.0
 20
68885.298319
 30
0.0
 11
184.833333
 21
68885.298319
 31
0.0
  0
LINE
  5
25
  8
0
  6
BYBLOCK
 62
     9
 10
457.0
 20
68885.298319
 30
0.0
 11
292.166667
 21
68885.298319
 31
0.0
  0
SOLID
  5
26
  8
0
  6
BYBLOCK
 62
     9
 10
20.0
 20
68888.631652
 30
0.0
 11
20.0
 21
68881.964985
 31
0.0
 12
0.0
 22
68885.298319
 32
0.0
 13
0.0
 23
68885.298319
 33
0.0
  0
SOLID
  5
27
  8
0
  6
BYBLOCK
 62
     9
 10
457.0
 20
68888.631652
 30
0.0
 11
457.0
 21
68881.964985
 31
0.0
 12
477.0
 22
68885.298319
 32
0.0
 13
477.0
 23
68885.298319
 33
0.0
  0
TEXT
  5
28
  8
0
  6
BYBLOCK
 62
    11
 10
191.833333
 20
68867.798319
 30
0.0
 40
35.0
  1
477
  0
POINT
  5
29
  8
DEFPOINTS
  6
BYBLOCK
 62
     0
 10
0.0
 20
68850.0
 30
0.0
  0
POINT
  5
2B
  8
DEFPOINTS
  6
BYBLOCK
 62
     0
 10
477.0
 20
68850.0
 30
0.0
  0
POINT
  5
2C
  8
DEFPOINTS
  6
BYBLOCK
 62
     0
 10
477.0
 20
68885.298319
 30
0.0
  0
ENDBLK
  5
2E
  8
0
  0
ENDSEC
  0
SECTION
  2
ENTITIES
  0
DIMENSION
  5
20
  8
TEAM-MAS
  2
*D7
 10
477.0
 20
885.298319
 30
0.0
 11
238.5
 21
885.298319
 31
0.0
 12
0.0
 22
-68000.0
 32
0.0
 13
0.0
 23
850.0
 33
0.0
 14
477.0
 24
850.0
 34
0.0
  0
DIMENSION
  5
2F
  8
TEAM-MAS
  2
*D0
 10
-98.66658
 20
655.0
 30
0.0
 11
-98.66658
 21
752.5
 31
0.0
 12
0.0
 22
-68000.0
 32
0.0
 13
0.0
 23
850.0
 33
0.0
 14
0.0
 24
655.0
 34
0.0
 50
90.0
  0
DIMENSION
  5
3D
  8
TEAM-MAS
  2
*D1
 10
-98.66658
 20
510.0
 30
0.0
 11
-98.66658
 21
255.0
 31
0.0
 12
0.0
 22
-68000.0
 32
0.0
  1
480-550
 13
0.0
 23
0.0
 33
0.0
 14
0.0
 24
510.0
 34
0.0
 50
90.0
  0
DIMENSION
  5
4B
  8
TEAM-MAS
  2
*D2
 10
-56.180936
 20
510.0
 30
0.0
 11
-56.180936
 21
255.0
 31
0.0
 12
0.0
 22
-68000.0
 32
0.0
 13
0.0
 23
0.0
 33
0.0
 14
0.0
 24
510.0
 34
0.0
 50
90.0
  0
DIMENSION
  5
59
  8
TEAM-MAS
  2
*D3
 10
-234.083304
 20
1000.0
 30
0.0
 11
-234.083304
 21
510.0
 31
0.0
 12
0.0
 22
-68000.0
 32
0.0
 70
   128
 13
0.0
 23
0.0
 33
0.0
 14
0.0
 24
1000.0
 34
0.0
 50
90.0
  0
DIMENSION
  5
67
  8
TEAM-MAS
  2
*D4
 10
-142.744183
 20
850.0
 30
0.0
 11
-142.744183
 21
435.0
 31
0.0
 12
0.0
 22
-68000.0
 32
0.0
 70
   128
 13
0.0
 23
0.0
 33
0.0
 14
0.0
 24
850.0
 34
0.0
 50
90.0
  0
DIMENSION
  5
75
  8
TEAM-MAS
  2
*D5
 10
-188.413743
 20
850.0
 30
0.0
 11
-188.413743
 21
435.0
 31
0.0
 12
0.0
 22
-68000.0
 32
0.0
 70
   128
  1
ca.850
 13
0.0
 23
0.0
 33
0.0
 14
0.0
 24
850.0
 34
0.0
 50
90.0
  0
DIMENSION
  5
83
  8
TEAM-MAS
  2
*D6
 10
-278.160906
 20
1000.0
 30
0.0
 11
-278.160906
 21
510.0
 31
0.0
 12
0.0
 22
-68000.0
 32
0.0
 70
   128
  1
1000-1050
 13
0.0
 23
0.0
 33
0.0
 14
7.579317
 24
1000.0
 34
0.0
 50
90.0
  0
TEXT
  5
91
  8
TEAM-TXT
 10
169.404234
 20
677.054946
 30
0.0
 40
30.0
  1
team 416101
 41
0.8
 51
15.0
  7
TEAM
  0
LINE
  5
94
  8
TEAM-BODY
 10
0.0
 20
655.0
 30
0.0
 11
447.0
 21
655.0
 31
0.0
  0
LINE
  5
96
  8
TEAM-BODY
 10
477.0
 20
850.0
 30
0.0
 11
0.0
 21
850.0
 31
0.0
  0
LINE
  5
97
  8
TEAM-AXE
 10
0.0
 20
980.0
 30
0.0
 11
0.0
 21
1020.0
 31
0.0
  0
CIRCLE
  5
9A
  8
TEAM-WARM
 10
0.0
 20
1000.0
 30
0.0
 40
15.0
  0
LINE
  5
9C
  8
TEAM-AXE
 10
7.579317
 20
980.0
 30
0.0
 11
7.579317
 21
1020.0
 31
0.0
  0
CIRCLE
  5
9D
  8
TEAM-COLD
 10
7.579317
 20
1000.0
 30
0.0
 40
15.0
  0
CIRCLE
  5
9F
  8
TEAM-INSP
 10
0.0
 20
0.0
 30
0.0
 40
10.0
  0
LINE
  5
A1
  8
TEAM-BODY
 10
0.0
 20
850.0
 30
0.0
 11
0.0
 21
655.0
 31
0.0
  0
LINE
  5
A2
  8
TEAM-BODY
 10
120.0
 20
565.0
 30
0.0
 11
120.0
 21
655.0
 31
0.0
  0
LINE
  5
A3
  8
TEAM-BODY
 10
99.0
 20
415.0
 30
0.0
 11
141.0
 21
415.0
 31
0.0
  0
LINE
  5
A4
  8
TEAM-BODY
 10
141.0
 20
565.0
 30
0.0
 11
141.0
 21
415.0
 31
0.0
  0
LINE
  5
A5
  8
TEAM-BODY
 10
99.0
 20
565.0
 30
0.0
 11
99.0
 21
415.0
 31
0.0
  0
LINE
  5
A6
  8
TEAM-BODY
 10
99.0
 20
565.0
 30
0.0
 11
141.0
 21
565.0
 31
0.0
  0
LINE
  5
A7
  8
TEAM-AXE
 10
90.0
 20
510.0
 30
0.0
 11
150.0
 21
510.0
 31
0.0
  0
CIRCLE
  5
A8
  8
TEAM-KAN
 10
120.0
 20
510.0
 30
0.0
 40
20.0
  0
LINE
  5
AA
  8
TEAM-AXE
 10
120.0
 20
850.0
 30
0.0
 11
120.0
 21
545.0
 31
0.0
  0
LINE
  5
AB
  8
TEAM-AXE
 10
-20.0
 20
1000.0
 30
0.0
 11
20.0
 21
1000.0
 31
0.0
  0
LINE
  5
AC
  8
TEAM-AXE
 10
-12.420683
 20
1000.0
 30
0.0
 11
27.579317
 21
1000.0
 31
0.0
  0
LINE
  5
AD
  8
TEAM-KAN
 10
-12.246246
 20
510.0
 30
0.0
 11
99.0
 21
510.0
 31
0.0
  0
ARC
  5
AE
  8
TEAM-BODY
 10
447.0
 20
685.0
 30
0.0
 40
30.0
 50
270.0
 51
0.0
  0
LINE
  5
AF
  8
TEAM-BODY
 10
477.0
 20
685.0
 30
0.0
 11
477.0
 21
850.0
 31
0.0
  0
ENDSEC
  0
EOF
