  0
SECTION
  2
HEADER
  9
$ACADVER
  1
AC1009
  9
$INSBASE
 10
0.0
 20
0.0
 30
0.0
  9
$EXTMIN
 10
-293.05573
 20
-10.066477
 30
0.0
  9
$EXTMAX
 10
483.25414
 20
1020.046794
 30
0.000005
  9
$LIMMIN
 10
-293.05573
 20
-10.066477
  9
$LIMMAX
 10
483.25414
 20
1020.046794
  9
$ORTHOMODE
 70
     1
  9
$REGENMODE
 70
     1
  9
$FILLMODE
 70
     1
  9
$QTEXTMODE
 70
     0
  9
$MIRRTEXT
 70
     0
  9
$DRAGMODE
 70
     2
  9
$LTSCALE
 40
50.0
  9
$OSMODE
 70
     0
  9
$ATTMODE
 70
     1
  9
$TEXTSIZE
 40
200.0
  9
$TRACEWID
 40
1.0
  9
$TEXTSTYLE
  7
STANDARD
  9
$CLAYER
  8
TEAM-MAS
  9
$CELTYPE
  6
BYLAYER
  9
$CECOLOR
 62
   256
  9
$DIMSCALE
 40
0.0
  9
$DIMASZ
 40
20.0
  9
$DIMEXO
 40
10.0
  9
$DIMDLI
 40
1.0
  9
$DIMRND
 40
0.0
  9
$DIMDLE
 40
0.0
  9
$DIMEXE
 40
1.0
  9
$DIMTP
 40
0.0
  9
$DIMTM
 40
0.0
  9
$DIMTXT
 40
35.0
  9
$DIMCEN
 40
1.0
  9
$DIMTSZ
 40
0.0
  9
$DIMTOL
 70
     0
  9
$DIMLIM
 70
     0
  9
$DIMTIH
 70
     0
  9
$DIMTOH
 70
     0
  9
$DIMSE1
 70
     0
  9
$DIMSE2
 70
     0
  9
$DIMTAD
 70
     0
  9
$DIMZIN
 70
     0
  9
$DIMBLK
  1

  9
$DIMASO
 70
     1
  9
$DIMSHO
 70
     0
  9
$DIMPOST
  1

  9
$DIMAPOST
  1

  9
$DIMALT
 70
     0
  9
$DIMALTD
 70
     2
  9
$DIMALTF
 40
25.4
  9
$DIMLFAC
 40
1.0
  9
$DIMTOFL
 70
     0
  9
$DIMTVP
 40
0.0
  9
$DIMTIX
 70
     0
  9
$DIMSOXD
 70
     0
  9
$DIMSAH
 70
     0
  9
$DIMBLK1
  1

  9
$DIMBLK2
  1

  9
$DIMSTYLE
  2
TEAM
  9
$DIMCLRD
 70
     9
  9
$DIMCLRE
 70
     9
  9
$DIMCLRT
 70
    11
  9
$DIMTFAC
 40
1.0
  9
$DIMGAP
 40
7.0
  9
$LUNITS
 70
     2
  9
$LUPREC
 70
     1
  9
$SKETCHINC
 40
1.0
  9
$FILLETRAD
 40
50.0
  9
$AUNITS
 70
     0
  9
$AUPREC
 70
     0
  9
$MENU
  1
ROPLANS
  9
$ELEVATION
 40
0.0
  9
$PELEVATION
 40
0.0
  9
$THICKNESS
 40
0.0
  9
$LIMCHECK
 70
     0
  9
$BLIPMODE
 70
     1
  9
$CHAMFERA
 40
0.0
  9
$CHAMFERB
 40
0.0
  9
$SKPOLY
 70
     0
  9
$TDCREATE
 40
2450392.957851
  9
$TDUPDATE
 40
2456272.033233
  9
$TDINDWG
 40
2.315654
  9
$TDUSRTIMER
 40
2.315654
  9
$USRTIMER
 70
     1
  9
$ANGBASE
 50
0.0
  9
$ANGDIR
 70
     0
  9
$PDMODE
 70
     0
  9
$PDSIZE
 40
0.0
  9
$PLINEWID
 40
0.0
  9
$COORDS
 70
     2
  9
$SPLFRAME
 70
     0
  9
$SPLINETYPE
 70
     6
  9
$SPLINESEGS
 70
     8
  9
$ATTDIA
 70
     0
  9
$ATTREQ
 70
     0
  9
$HANDLING
 70
     1
  9
$HANDSEED
  5
EF
  9
$SURFTAB1
 70
    24
  9
$SURFTAB2
 70
    24
  9
$SURFTYPE
 70
     6
  9
$SURFU
 70
     6
  9
$SURFV
 70
     6
  9
$UCSNAME
  2

  9
$UCSORG
 10
0.0
 20
0.0
 30
0.0
  9
$UCSXDIR
 10
1.0
 20
0.0
 30
0.0
  9
$UCSYDIR
 10
0.0
 20
1.0
 30
0.0
  9
$PUCSNAME
  2

  9
$PUCSORG
 10
0.0
 20
0.0
 30
0.0
  9
$PUCSXDIR
 10
1.0
 20
0.0
 30
0.0
  9
$PUCSYDIR
 10
0.0
 20
1.0
 30
0.0
  9
$USERI1
 70
     0
  9
$USERI2
 70
     0
  9
$USERI3
 70
     0
  9
$USERI4
 70
     0
  9
$USERI5
 70
     0
  9
$USERR1
 40
0.0
  9
$USERR2
 40
0.0
  9
$USERR3
 40
0.0
  9
$USERR4
 40
0.0
  9
$USERR5
 40
0.0
  9
$WORLDVIEW
 70
     1
  9
$SHADEDGE
 70
     0
  9
$SHADEDIF
 70
    70
  9
$TILEMODE
 70
     1
  9
$MAXACTVP
 70
    16
  9
$PLIMCHECK
 70
     0
  9
$PEXTMIN
 10
-0.805942
 20
0.005011
 30
0.0
  9
$PEXTMAX
 10
20.250094
 20
11.356329
 30
0.0
  9
$PLIMMIN
 10
0.0
 20
0.0
  9
$PLIMMAX
 10
12.0
 20
9.0
  9
$UNITMODE
 70
     0
  9
$VISRETAIN
 70
     0
  9
$PLINEGEN
 70
     0
  9
$PSLTSCALE
 70
     0
  0
ENDSEC
  0
SECTION
  2
TABLES
  0
TABLE
  2
VPORT
 70
     2
  0
VPORT
  2
*ACTIVE
 70
     0
 10
0.0
 20
0.0
 11
1.0
 21
1.0
 12
95.099205
 22
504.990159
 13
0.0
 23
0.0
 14
1.0
 24
1.0
 15
50.0
 25
50.0
 16
0.0
 26
0.0
 36
1.0
 17
0.0
 27
0.0
 37
0.0
 40
1036.598769
 41
1.911765
 42
50.0
 43
0.0
 44
0.0
 50
0.0
 51
0.0
 71
     0
 72
   100
 73
     1
 74
     1
 75
     0
 76
     0
 77
     0
 78
     0
  0
ENDTAB
  0
TABLE
  2
LTYPE
 70
     2
  0
LTYPE
  2
CONTINUOUS
 70
     0
  3
Solid Line
 72
    65
 73
     0
 40
0.0
  0
LTYPE
  2
31
 70
     0
  3

 72
    65
 73
     4
 40
2.1
 49
1.5
 49
-0.3
 49
0.0
 49
-0.3
  0
ENDTAB
  0
TABLE
  2
LAYER
 70
    10
  0
LAYER
  2
0
 70
     0
 62
     7
  6
CONTINUOUS
  0
LAYER
  2
DEFPOINTS
 70
     0
 62
     7
  6
CONTINUOUS
  0
LAYER
  2
TEAM-BODY
 70
     0
 62
     2
  6
CONTINUOUS
  0
LAYER
  2
TEAM-AXE
 70
     0
 62
    10
  6
31
  0
LAYER
  2
TEAM-MAS
 70
     0
 62
     9
  6
CONTINUOUS
  0
LAYER
  2
TEAM-TXT
 70
     0
 62
    11
  6
CONTINUOUS
  0
LAYER
  2
TEAM-COLD
 70
     0
 62
     3
  6
CONTINUOUS
  0
LAYER
  2
TEAM-KAN
 70
     0
 62
     6
  6
CONTINUOUS
  0
LAYER
  2
TEAM-WARM
 70
     0
 62
     1
  6
CONTINUOUS
  0
LAYER
  2
TEAM-INSP
 70
     0
 62
     5
  6
CONTINUOUS
  0
ENDTAB
  0
TABLE
  2
STYLE
 70
     2
  0
STYLE
  2
STANDARD
 70
     0
 40
0.0
 41
1.0
 50
0.0
 71
     0
 42
200.0
  3
txt
  4

  0
STYLE
  2
TEAM
 70
     0
 40
0.0
 41
0.8
 50
15.0
 71
     0
 42
7.0
  3
ROMANS.shx
  4

  0
ENDTAB
  0
TABLE
  2
VIEW
 70
     0
  0
ENDTAB
  0
TABLE
  2
UCS
 70
     0
  0
ENDTAB
  0
TABLE
  2
APPID
 70
     1
  0
APPID
  2
ACAD
 70
     0
  0
ENDTAB
  0
TABLE
  2
DIMSTYLE
 70
     1
  0
DIMSTYLE
  2
TEAM
 70
     0
  3

  4

  5

  6

  7

 40
0.0
 41
20.0
 42
10.0
 43
1.0
 44
1.0
 45
0.0
 46
0.0
 47
0.0
 48
0.0
140
35.0
141
1.0
142
0.0
143
25.4
144
1.0
145
0.0
146
1.0
147
7.0
 71
     0
 72
     0
 73
     0
 74
     0
 75
     0
 76
     0
 77
     0
 78
     0
170
     0
171
     2
172
     0
173
     0
174
     0
175
     0
176
     9
177
     9
178
    11
  0
ENDTAB
  0
ENDSEC
  0
SECTION
  2
BLOCKS
  0
BLOCK
  8
0
  2
$MODEL_SPACE
 70
     0
 10
0.0
 20
0.0
 30
0.0
  3
$MODEL_SPACE
  1

  0
ENDBLK
  5
E8
  8
0
  0
BLOCK
 67
     1
  8
0
  2
$PAPER_SPACE
 70
     0
 10
0.0
 20
0.0
 30
0.0
  3
$PAPER_SPACE
  1

  0
ENDBLK
  5
E6
 67
     1
  8
0
  0
BLOCK
  8
0
  2
*D0
 70
     1
 10
0.0
 20
0.0
 30
0.0
  3
*D0
  1

  0
LINE
  5
9B
  8
0
  6
BYBLOCK
 62
     9
 10
4000.0
 20
76860.0
 30
0.0
 11
4000.0
 21
76892.331404
 31
0.0
  0
LINE
  5
9C
  8
0
  6
BYBLOCK
 62
     9
 10
4477.0
 20
76860.0
 30
0.0
 11
4477.0
 21
76892.331404
 31
0.0
  0
LINE
  5
9D
  8
0
  6
BYBLOCK
 62
     9
 10
4020.0
 20
76891.331404
 30
0.0
 11
4184.833333
 21
76891.331404
 31
0.0
  0
LINE
  5
9E
  8
0
  6
BYBLOCK
 62
     9
 10
4457.0
 20
76891.331404
 30
0.0
 11
4292.166667
 21
76891.331404
 31
0.0
  0
SOLID
  5
9F
  8
0
  6
BYBLOCK
 62
     9
 10
4020.0
 20
76894.664737
 30
0.0
 11
4020.0
 21
76887.99807
 31
0.0
 12
4000.0
 22
76891.331404
 32
0.0
 13
4000.0
 23
76891.331404
 33
0.0
  0
SOLID
  5
A0
  8
0
  6
BYBLOCK
 62
     9
 10
4457.0
 20
76894.664737
 30
0.0
 11
4457.0
 21
76887.99807
 31
0.0
 12
4477.0
 22
76891.331404
 32
0.0
 13
4477.0
 23
76891.331404
 33
0.0
  0
TEXT
  5
A1
  8
0
  6
BYBLOCK
 62
    11
 10
4191.833333
 20
76873.831404
 30
0.0
 40
35.0
  1
477
  0
POINT
  5
A2
  8
DEFPOINTS
  6
BYBLOCK
 62
     0
 10
4000.0
 20
76850.0
 30
0.0
  0
POINT
  5
A3
  8
DEFPOINTS
  6
BYBLOCK
 62
     0
 10
4477.0
 20
76850.0
 30
0.0
  0
POINT
  5
A4
  8
DEFPOINTS
  6
BYBLOCK
 62
     0
 10
4477.0
 20
76891.331404
 30
0.0
  0
ENDBLK
  5
A6
  8
0
  0
BLOCK
  8
0
  2
*D1
 70
     1
 10
0.0
 20
0.0
 30
0.0
  3
*D1
  1

  0
LINE
  5
22
  8
0
  6
BYBLOCK
 62
     9
 10
3990.0
 20
76850.0
 30
0.0
 11
3903.869539
 21
76850.0
 31
0.0
  0
LINE
  5
23
  8
0
  6
BYBLOCK
 62
     9
 10
3990.0
 20
76655.0
 30
0.0
 11
3903.869539
 21
76655.0
 31
0.0
  0
LINE
  5
24
  8
0
  6
BYBLOCK
 62
     9
 10
3904.869539
 20
76830.0
 30
0.0
 11
3904.869539
 21
76800.333333
 31
0.0
  0
LINE
  5
25
  8
0
  6
BYBLOCK
 62
     9
 10
3904.869539
 20
76675.0
 30
0.0
 11
3904.869539
 21
76704.666667
 31
0.0
  0
SOLID
  5
26
  8
0
  6
BYBLOCK
 62
     9
 10
3901.536205
 20
76830.0
 30
0.0
 11
3908.202872
 21
76830.0
 31
0.0
 12
3904.869539
 22
76850.0
 32
0.0
 13
3904.869539
 23
76850.0
 33
0.0
  0
SOLID
  5
27
  8
0
  6
BYBLOCK
 62
     9
 10
3901.536205
 20
76675.0
 30
0.0
 11
3908.202872
 21
76675.0
 31
0.0
 12
3904.869539
 22
76655.0
 32
0.0
 13
3904.869539
 23
76655.0
 33
0.0
  0
TEXT
  5
28
  8
0
  6
BYBLOCK
 62
    11
 10
3922.369539
 20
76711.666667
 30
0.0
 40
35.0
  1
195
 50
90.0
  0
POINT
  5
29
  8
DEFPOINTS
  6
BYBLOCK
 62
     0
 10
4000.0
 20
76850.0
 30
0.0
  0
POINT
  5
2B
  8
DEFPOINTS
  6
BYBLOCK
 62
     0
 10
4000.0
 20
76655.0
 30
0.0
  0
POINT
  5
2C
  8
DEFPOINTS
  6
BYBLOCK
 62
     0
 10
3904.869539
 20
76655.0
 30
0.0
  0
ENDBLK
  5
2E
  8
0
  0
BLOCK
  8
0
  2
*D2
 70
     1
 10
0.0
 20
0.0
 30
0.0
  3
*D2
  1

  0
LINE
  5
6F
  8
0
  6
BYBLOCK
 62
     9
 10
3990.0
 20
76000.0
 30
0.0
 11
3903.869539
 21
76000.0
 31
0.0
  0
LINE
  5
70
  8
0
  6
BYBLOCK
 62
     9
 10
3990.0
 20
76510.0
 30
0.0
 11
3903.869539
 21
76510.0
 31
0.0
  0
LINE
  5
71
  8
0
  6
BYBLOCK
 62
     9
 10
3904.869539
 20
76020.0
 30
0.0
 11
3904.869539
 21
76137.166667
 31
0.0
  0
LINE
  5
72
  8
0
  6
BYBLOCK
 62
     9
 10
3904.869539
 20
76490.0
 30
0.0
 11
3904.869539
 21
76372.833333
 31
0.0
  0
SOLID
  5
73
  8
0
  6
BYBLOCK
 62
     9
 10
3901.536205
 20
76020.0
 30
0.0
 11
3908.202872
 21
76020.0
 31
0.0
 12
3904.869539
 22
76000.0
 32
0.0
 13
3904.869539
 23
76000.0
 33
0.0
  0
SOLID
  5
74
  8
0
  6
BYBLOCK
 62
     9
 10
3901.536205
 20
76490.0
 30
0.0
 11
3908.202872
 21
76490.0
 31
0.0
 12
3904.869539
 22
76510.0
 32
0.0
 13
3904.869539
 23
76510.0
 33
0.0
  0
TEXT
  5
75
  8
0
  6
BYBLOCK
 62
    11
 10
3922.369539
 20
76144.166667
 30
0.0
 40
35.0
  1
480-550
 50
90.0
  0
POINT
  5
76
  8
DEFPOINTS
  6
BYBLOCK
 62
     0
 10
4000.0
 20
76000.0
 30
0.0
  0
POINT
  5
77
  8
DEFPOINTS
  6
BYBLOCK
 62
     0
 10
4000.0
 20
76510.0
 30
0.0
  0
POINT
  5
78
  8
DEFPOINTS
  6
BYBLOCK
 62
     0
 10
3904.869539
 20
76510.0
 30
0.0
  0
ENDBLK
  5
7A
  8
0
  0
BLOCK
  8
0
  2
*D3
 70
     1
 10
0.0
 20
0.0
 30
0.0
  3
*D3
  1

  0
LINE
  5
7D
  8
0
  6
BYBLOCK
 62
     9
 10
3990.0
 20
76000.0
 30
0.0
 11
3948.975574
 21
76000.0
 31
0.0
  0
LINE
  5
7E
  8
0
  6
BYBLOCK
 62
     9
 10
3990.0
 20
76510.0
 30
0.0
 11
3948.975574
 21
76510.0
 31
0.0
  0
LINE
  5
7F
  8
0
  6
BYBLOCK
 62
     9
 10
3949.975574
 20
76020.0
 30
0.0
 11
3949.975574
 21
76210.083333
 31
0.0
  0
LINE
  5
80
  8
0
  6
BYBLOCK
 62
     9
 10
3949.975574
 20
76490.0
 30
0.0
 11
3949.975574
 21
76299.916667
 31
0.0
  0
SOLID
  5
81
  8
0
  6
BYBLOCK
 62
     9
 10
3946.642241
 20
76020.0
 30
0.0
 11
3953.308907
 21
76020.0
 31
0.0
 12
3949.975574
 22
76000.0
 32
0.0
 13
3949.975574
 23
76000.0
 33
0.0
  0
SOLID
  5
82
  8
0
  6
BYBLOCK
 62
     9
 10
3946.642241
 20
76490.0
 30
0.0
 11
3953.308907
 21
76490.0
 31
0.0
 12
3949.975574
 22
76510.0
 32
0.0
 13
3949.975574
 23
76510.0
 33
0.0
  0
TEXT
  5
83
  8
0
  6
BYBLOCK
 62
    11
 10
3967.475574
 20
76217.083333
 30
0.0
 40
35.0
  1
510
 50
90.0
  0
POINT
  5
84
  8
DEFPOINTS
  6
BYBLOCK
 62
     0
 10
4000.0
 20
76000.0
 30
0.0
  0
POINT
  5
85
  8
DEFPOINTS
  6
BYBLOCK
 62
     0
 10
4000.0
 20
76510.0
 30
0.0
  0
POINT
  5
86
  8
DEFPOINTS
  6
BYBLOCK
 62
     0
 10
3949.975574
 20
76510.0
 30
0.0
  0
ENDBLK
  5
88
  8
0
  0
BLOCK
  8
0
  2
*D4
 70
     1
 10
0.0
 20
0.0
 30
0.0
  3
*D4
  1

  0
LINE
  5
31
  8
0
  6
BYBLOCK
 62
     9
 10
3990.0
 20
76000.0
 30
0.0
 11
3768.551432
 21
76000.0
 31
0.0
  0
LINE
  5
32
  8
0
  6
BYBLOCK
 62
     9
 10
3990.0
 20
77000.0
 30
0.0
 11
3768.551432
 21
77000.0
 31
0.0
  0
LINE
  5
33
  8
0
  6
BYBLOCK
 62
     9
 10
3769.551432
 20
76020.0
 30
0.0
 11
3769.551432
 21
76453.416667
 31
0.0
  0
LINE
  5
34
  8
0
  6
BYBLOCK
 62
     9
 10
3769.551432
 20
76980.0
 30
0.0
 11
3769.551432
 21
76566.583333
 31
0.0
  0
TEXT
  5
35
  8
0
  6
BYBLOCK
 62
    11
 10
3787.051432
 20
76460.416667
 30
0.0
 40
35.0
  1
1000
 50
90.0
  0
SOLID
  5
36
  8
0
  6
BYBLOCK
 62
     9
 10
3766.218099
 20
76020.0
 30
0.0
 11
3772.884765
 21
76020.0
 31
0.0
 12
3769.551432
 22
76000.0
 32
0.0
 13
3769.551432
 23
76000.0
 33
0.0
  0
SOLID
  5
37
  8
0
  6
BYBLOCK
 62
     9
 10
3766.218099
 20
76980.0
 30
0.0
 11
3772.884765
 21
76980.0
 31
0.0
 12
3769.551432
 22
77000.0
 32
0.0
 13
3769.551432
 23
77000.0
 33
0.0
  0
POINT
  5
38
  8
DEFPOINTS
  6
BYBLOCK
 62
     0
 10
4000.0
 20
76000.0
 30
0.0
  0
POINT
  5
39
  8
DEFPOINTS
  6
BYBLOCK
 62
     0
 10
4000.0
 20
77000.0
 30
0.0
  0
POINT
  5
3A
  8
DEFPOINTS
  6
BYBLOCK
 62
     0
 10
3769.551432
 20
77000.0
 30
0.0
  0
ENDBLK
  5
3C
  8
0
  0
BLOCK
  8
0
  2
*D5
 70
     1
 10
0.0
 20
0.0
 30
0.0
  3
*D5
  1

  0
LINE
  5
3F
  8
0
  6
BYBLOCK
 62
     9
 10
3990.0
 20
76000.0
 30
0.0
 11
3858.763503
 21
76000.0
 31
0.0
  0
LINE
  5
40
  8
0
  6
BYBLOCK
 62
     9
 10
3990.0
 20
76850.0
 30
0.0
 11
3858.763503
 21
76850.0
 31
0.0
  0
LINE
  5
41
  8
0
  6
BYBLOCK
 62
     9
 10
3859.763503
 20
76020.0
 30
0.0
 11
3859.763503
 21
76384.25
 31
0.0
  0
LINE
  5
42
  8
0
  6
BYBLOCK
 62
     9
 10
3859.763503
 20
76830.0
 30
0.0
 11
3859.763503
 21
76485.75
 31
0.0
  0
TEXT
  5
43
  8
0
  6
BYBLOCK
 62
    11
 10
3877.263503
 20
76391.25
 30
0.0
 40
35.0
  1
850
 50
90.0
  0
SOLID
  5
44
  8
0
  6
BYBLOCK
 62
     9
 10
3856.43017
 20
76020.0
 30
0.0
 11
3863.096836
 21
76020.0
 31
0.0
 12
3859.763503
 22
76000.0
 32
0.0
 13
3859.763503
 23
76000.0
 33
0.0
  0
SOLID
  5
45
  8
0
  6
BYBLOCK
 62
     9
 10
3856.43017
 20
76830.0
 30
0.0
 11
3863.096836
 21
76830.0
 31
0.0
 12
3859.763503
 22
76850.0
 32
0.0
 13
3859.763503
 23
76850.0
 33
0.0
  0
POINT
  5
46
  8
DEFPOINTS
  6
BYBLOCK
 62
     0
 10
4000.0
 20
76000.0
 30
0.0
  0
POINT
  5
47
  8
DEFPOINTS
  6
BYBLOCK
 62
     0
 10
4000.0
 20
76850.0
 30
0.0
  0
POINT
  5
48
  8
DEFPOINTS
  6
BYBLOCK
 62
     0
 10
3859.763503
 20
76850.0
 30
0.0
  0
ENDBLK
  5
4A
  8
0
  0
BLOCK
  8
0
  2
*D6
 70
     1
 10
0.0
 20
0.0
 30
0.0
  3
*D6
  1

  0
LINE
  5
4D
  8
0
  6
BYBLOCK
 62
     9
 10
3990.0
 20
76000.0
 30
0.0
 11
3812.168353
 21
76000.0
 31
0.0
  0
LINE
  5
4E
  8
0
  6
BYBLOCK
 62
     9
 10
3990.0
 20
76850.0
 30
0.0
 11
3812.168353
 21
76850.0
 31
0.0
  0
LINE
  5
4F
  8
0
  6
BYBLOCK
 62
     9
 10
3813.168353
 20
76020.0
 30
0.0
 11
3813.168353
 21
76343.416667
 31
0.0
  0
LINE
  5
50
  8
0
  6
BYBLOCK
 62
     9
 10
3813.168353
 20
76830.0
 30
0.0
 11
3813.168353
 21
76526.583333
 31
0.0
  0
TEXT
  5
51
  8
0
  6
BYBLOCK
 62
    11
 10
3830.668353
 20
76350.416667
 30
0.0
 40
35.0
  1
ca.850
 50
90.0
  0
SOLID
  5
52
  8
0
  6
BYBLOCK
 62
     9
 10
3809.83502
 20
76020.0
 30
0.0
 11
3816.501686
 21
76020.0
 31
0.0
 12
3813.168353
 22
76000.0
 32
0.0
 13
3813.168353
 23
76000.0
 33
0.0
  0
SOLID
  5
53
  8
0
  6
BYBLOCK
 62
     9
 10
3809.83502
 20
76830.0
 30
0.0
 11
3816.501686
 21
76830.0
 31
0.0
 12
3813.168353
 22
76850.0
 32
0.0
 13
3813.168353
 23
76850.0
 33
0.0
  0
POINT
  5
54
  8
DEFPOINTS
  6
BYBLOCK
 62
     0
 10
4000.0
 20
76000.0
 30
0.0
  0
POINT
  5
55
  8
DEFPOINTS
  6
BYBLOCK
 62
     0
 10
4000.0
 20
76850.0
 30
0.0
  0
POINT
  5
56
  8
DEFPOINTS
  6
BYBLOCK
 62
     0
 10
3813.168353
 20
76850.0
 30
0.0
  0
ENDBLK
  5
58
  8
0
  0
BLOCK
  8
0
  2
*D7
 70
     1
 10
0.0
 20
0.0
 30
0.0
  3
*D7
  1

  0
LINE
  5
5B
  8
0
  6
BYBLOCK
 62
     9
 10
3990.0
 20
76000.0
 30
0.0
 11
3723.445397
 21
76000.0
 31
0.0
  0
LINE
  5
5C
  8
0
  6
BYBLOCK
 62
     9
 10
3997.579317
 20
77000.0
 30
0.0
 11
3723.445397
 21
77000.0
 31
0.0
  0
LINE
  5
5D
  8
0
  6
BYBLOCK
 62
     9
 10
3724.445397
 20
76020.0
 30
0.0
 11
3724.445397
 21
76377.583333
 31
0.0
  0
LINE
  5
5E
  8
0
  6
BYBLOCK
 62
     9
 10
3724.445397
 20
76980.0
 30
0.0
 11
3724.445397
 21
76642.416667
 31
0.0
  0
TEXT
  5
5F
  8
0
  6
BYBLOCK
 62
    11
 10
3741.945397
 20
76384.583333
 30
0.0
 40
35.0
  1
1000-1050
 50
90.0
  0
SOLID
  5
60
  8
0
  6
BYBLOCK
 62
     9
 10
3721.112063
 20
76020.0
 30
0.0
 11
3727.77873
 21
76020.0
 31
0.0
 12
3724.445397
 22
76000.0
 32
0.0
 13
3724.445397
 23
76000.0
 33
0.0
  0
SOLID
  5
61
  8
0
  6
BYBLOCK
 62
     9
 10
3721.112063
 20
76980.0
 30
0.0
 11
3727.77873
 21
76980.0
 31
0.0
 12
3724.445397
 22
77000.0
 32
0.0
 13
3724.445397
 23
77000.0
 33
0.0
  0
POINT
  5
62
  8
DEFPOINTS
  6
BYBLOCK
 62
     0
 10
4000.0
 20
76000.0
 30
0.0
  0
POINT
  5
63
  8
DEFPOINTS
  6
BYBLOCK
 62
     0
 10
4007.579317
 20
77000.0
 30
0.0
  0
POINT
  5
64
  8
DEFPOINTS
  6
BYBLOCK
 62
     0
 10
3724.445397
 20
77000.0
 30
0.0
  0
ENDBLK
  5
66
  8
0
  0
ENDSEC
  0
SECTION
  2
ENTITIES
  0
DIMENSION
  5
20
  8
TEAM-MAS
  2
*D1
 10
-95.130461
 20
655.0
 30
0.0
 11
-95.130461
 21
752.5
 31
0.0
 12
-4000.0
 22
-76000.0
 32
0.0
 13
0.0
 23
850.0
 33
0.0
 14
0.0
 24
655.0
 34
0.0
 50
90.0
  0
DIMENSION
  5
2F
  8
TEAM-MAS
  2
*D4
 10
-230.448568
 20
1000.0
 30
0.0
 11
-230.448568
 21
510.0
 31
0.0
 12
-4000.0
 22
-76000.0
 32
0.0
 70
   128
 13
0.0
 23
0.0
 33
0.0
 14
0.0
 24
1000.0
 34
0.0
 50
90.0
  0
DIMENSION
  5
3D
  8
TEAM-MAS
  2
*D5
 10
-140.236497
 20
850.0
 30
0.0
 11
-140.236497
 21
435.0
 31
0.0
 12
-4000.0
 22
-76000.0
 32
0.0
 70
   128
 13
0.0
 23
0.0
 33
0.0
 14
0.0
 24
850.0
 34
0.0
 50
90.0
  0
DIMENSION
  5
4B
  8
TEAM-MAS
  2
*D6
 10
-186.831647
 20
850.0
 30
0.0
 11
-186.831647
 21
435.0
 31
0.0
 12
-4000.0
 22
-76000.0
 32
0.0
 70
   128
  1
ca.850
 13
0.0
 23
0.0
 33
0.0
 14
0.0
 24
850.0
 34
0.0
 50
90.0
  0
DIMENSION
  5
59
  8
TEAM-MAS
  2
*D7
 10
-275.554603
 20
1000.0
 30
0.0
 11
-275.554603
 21
510.0
 31
0.0
 12
-4000.0
 22
-76000.0
 32
0.0
 70
   128
  1
1000-1050
 13
0.0
 23
0.0
 33
0.0
 14
7.579317
 24
1000.0
 34
0.0
 50
90.0
  0
LINE
  5
67
  8
TEAM-BODY
 10
0.0
 20
850.0
 30
0.0
 11
0.0
 21
655.0
 31
0.0
  0
LINE
  5
69
  8
TEAM-AXE
 10
120.0
 20
850.0
 30
0.0
 11
120.0
 21
545.0
 31
0.0
  0
LINE
  5
6C
  8
TEAM-BODY
 10
477.0
 20
685.0
 30
0.0
 11
477.0
 21
850.0
 31
0.0
  0
DIMENSION
  5
6D
  8
TEAM-MAS
  2
*D2
 10
-95.130461
 20
510.0
 30
0.0
 11
-95.130461
 21
255.0
 31
0.0
 12
-4000.0
 22
-76000.0
 32
0.0
  1
480-550
 13
0.0
 23
0.0
 33
0.0
 14
0.0
 24
510.0
 34
0.0
 50
90.0
  0
DIMENSION
  5
7B
  8
TEAM-MAS
  2
*D3
 10
-50.024426
 20
510.0
 30
0.0
 11
-50.024426
 21
255.0
 31
0.0
 12
-4000.0
 22
-76000.0
 32
0.0
 13
0.0
 23
0.0
 33
0.0
 14
0.0
 24
510.0
 34
0.0
 50
90.0
  0
TEXT
  5
89
  8
TEAM-TXT
 10
169.404234
 20
677.054946
 30
0.0
 40
30.0
  1
team 416105
 41
0.8
 51
15.0
  7
TEAM
  0
LINE
  5
8C
  8
TEAM-BODY
 10
0.0
 20
655.0
 30
0.0
 11
447.0
 21
655.0
 31
0.0
  0
CIRCLE
  5
8D
  8
TEAM-INSP
 10
0.0
 20
0.0
 30
0.0
 40
10.0
  0
LINE
  5
8F
  8
TEAM-BODY
 10
120.0
 20
565.0
 30
0.0
 11
120.0
 21
655.0
 31
0.0
  0
LINE
  5
90
  8
TEAM-BODY
 10
99.0
 20
415.0
 30
0.0
 11
141.0
 21
415.0
 31
0.0
  0
LINE
  5
91
  8
TEAM-BODY
 10
141.0
 20
565.0
 30
0.0
 11
141.0
 21
415.0
 31
0.0
  0
LINE
  5
92
  8
TEAM-BODY
 10
99.0
 20
565.0
 30
0.0
 11
99.0
 21
415.0
 31
0.0
  0
LINE
  5
93
  8
TEAM-BODY
 10
99.0
 20
565.0
 30
0.0
 11
141.0
 21
565.0
 31
0.0
  0
LINE
  5
94
  8
TEAM-AXE
 10
90.0
 20
510.0
 30
0.0
 11
150.0
 21
510.0
 31
0.0
  0
CIRCLE
  5
95
  8
TEAM-KAN
 10
120.0
 20
510.0
 30
0.0
 40
20.0
  0
LINE
  5
97
  8
TEAM-KAN
 10
-12.246246
 20
510.0
 30
0.0
 11
99.0
 21
510.0
 31
0.0
  0
ARC
  5
98
  8
TEAM-BODY
 10
447.0
 20
685.0
 30
0.0
 40
30.0
 50
270.0
 51
0.0
  0
DIMENSION
  5
99
  8
TEAM-MAS
  2
*D0
 10
477.0
 20
891.331404
 30
0.0
 11
238.5
 21
891.331404
 31
0.0
 12
-4000.0
 22
-76000.0
 32
0.0
 13
0.0
 23
850.0
 33
0.0
 14
477.0
 24
850.0
 34
0.0
  0
LINE
  5
A7
  8
TEAM-BODY
 10
477.0
 20
850.0
 30
0.0
 11
0.0
 21
850.0
 31
0.0
  0
LINE
  5
A8
  8
TEAM-AXE
 10
0.0
 20
980.0
 30
0.0
 11
0.0
 21
1020.0
 31
0.0
  0
CIRCLE
  5
A9
  8
TEAM-WARM
 10
0.0
 20
1000.0
 30
0.0
 40
15.0
  0
LINE
  5
AB
  8
TEAM-AXE
 10
7.579317
 20
980.0
 30
0.0
 11
7.579317
 21
1020.0
 31
0.0
  0
CIRCLE
  5
AC
  8
TEAM-COLD
 10
7.579317
 20
1000.0
 30
0.0
 40
15.0
  0
LINE
  5
AE
  8
TEAM-AXE
 10
-20.0
 20
1000.0
 30
0.0
 11
20.0
 21
1000.0
 31
0.0
  0
LINE
  5
AF
  8
TEAM-AXE
 10
-12.420683
 20
1000.0
 30
0.0
 11
27.579317
 21
1000.0
 31
0.0
  0
ENDSEC
  0
EOF
