  0
SECTION
  2
HEADER
  9
$ACADVER
  1
AC1009
  9
$INSBASE
 10
0.0
 20
0.0
 30
0.0
  9
$EXTMIN
 10
-456.287518
 20
-10.062079
 30
0.0
  9
$EXTMAX
 10
777.786399
 20
1113.317319
 30
0.000005
  9
$LIMMIN
 10
-456.287518
 20
-10.062079
  9
$LIMMAX
 10
777.786399
 20
1113.317319
  9
$ORTHOMODE
 70
     1
  9
$REGENMODE
 70
     1
  9
$FILLMODE
 70
     1
  9
$QTEXTMODE
 70
     0
  9
$MIRRTEXT
 70
     0
  9
$DRAGMODE
 70
     2
  9
$LTSCALE
 40
50.0
  9
$OSMODE
 70
     0
  9
$ATTMODE
 70
     1
  9
$TEXTSIZE
 40
200.0
  9
$TRACEWID
 40
1.0
  9
$TEXTSTYLE
  7
STANDARD
  9
$CLAYER
  8
TEAM-MAS
  9
$CELTYPE
  6
BYLAYER
  9
$CECOLOR
 62
   256
  9
$DIMSCALE
 40
0.0
  9
$DIMASZ
 40
20.0
  9
$DIMEXO
 40
10.0
  9
$DIMDLI
 40
1.0
  9
$DIMRND
 40
0.0
  9
$DIMDLE
 40
0.0
  9
$DIMEXE
 40
1.0
  9
$DIMTP
 40
0.0
  9
$DIMTM
 40
0.0
  9
$DIMTXT
 40
35.0
  9
$DIMCEN
 40
1.0
  9
$DIMTSZ
 40
0.0
  9
$DIMTOL
 70
     0
  9
$DIMLIM
 70
     0
  9
$DIMTIH
 70
     0
  9
$DIMTOH
 70
     0
  9
$DIMSE1
 70
     0
  9
$DIMSE2
 70
     0
  9
$DIMTAD
 70
     0
  9
$DIMZIN
 70
     0
  9
$DIMBLK
  1

  9
$DIMASO
 70
     1
  9
$DIMSHO
 70
     0
  9
$DIMPOST
  1

  9
$DIMAPOST
  1

  9
$DIMALT
 70
     0
  9
$DIMALTD
 70
     2
  9
$DIMALTF
 40
25.4
  9
$DIMLFAC
 40
1.0
  9
$DIMTOFL
 70
     0
  9
$DIMTVP
 40
0.0
  9
$DIMTIX
 70
     0
  9
$DIMSOXD
 70
     0
  9
$DIMSAH
 70
     0
  9
$DIMBLK1
  1

  9
$DIMBLK2
  1

  9
$DIMSTYLE
  2
TEAM
  9
$DIMCLRD
 70
     9
  9
$DIMCLRE
 70
     9
  9
$DIMCLRT
 70
    11
  9
$DIMTFAC
 40
1.0
  9
$DIMGAP
 40
7.0
  9
$LUNITS
 70
     2
  9
$LUPREC
 70
     1
  9
$SKETCHINC
 40
1.0
  9
$FILLETRAD
 40
50.0
  9
$AUNITS
 70
     0
  9
$AUPREC
 70
     0
  9
$MENU
  1
ROPLANS
  9
$ELEVATION
 40
0.0
  9
$PELEVATION
 40
0.0
  9
$THICKNESS
 40
0.0
  9
$LIMCHECK
 70
     0
  9
$BLIPMODE
 70
     1
  9
$CHAMFERA
 40
0.0
  9
$CHAMFERB
 40
0.0
  9
$SKPOLY
 70
     0
  9
$TDCREATE
 40
2450392.957851
  9
$TDUPDATE
 40
2456272.033233
  9
$TDINDWG
 40
2.315654
  9
$TDUSRTIMER
 40
2.315654
  9
$USRTIMER
 70
     1
  9
$ANGBASE
 50
0.0
  9
$ANGDIR
 70
     0
  9
$PDMODE
 70
     0
  9
$PDSIZE
 40
0.0
  9
$PLINEWID
 40
0.0
  9
$COORDS
 70
     2
  9
$SPLFRAME
 70
     0
  9
$SPLINETYPE
 70
     6
  9
$SPLINESEGS
 70
     8
  9
$ATTDIA
 70
     0
  9
$ATTREQ
 70
     0
  9
$HANDLING
 70
     1
  9
$HANDSEED
  5
148
  9
$SURFTAB1
 70
    24
  9
$SURFTAB2
 70
    24
  9
$SURFTYPE
 70
     6
  9
$SURFU
 70
     6
  9
$SURFV
 70
     6
  9
$UCSNAME
  2

  9
$UCSORG
 10
0.0
 20
0.0
 30
0.0
  9
$UCSXDIR
 10
1.0
 20
0.0
 30
0.0
  9
$UCSYDIR
 10
0.0
 20
1.0
 30
0.0
  9
$PUCSNAME
  2

  9
$PUCSORG
 10
0.0
 20
0.0
 30
0.0
  9
$PUCSXDIR
 10
1.0
 20
0.0
 30
0.0
  9
$PUCSYDIR
 10
0.0
 20
1.0
 30
0.0
  9
$USERI1
 70
     0
  9
$USERI2
 70
     0
  9
$USERI3
 70
     0
  9
$USERI4
 70
     0
  9
$USERI5
 70
     0
  9
$USERR1
 40
0.0
  9
$USERR2
 40
0.0
  9
$USERR3
 40
0.0
  9
$USERR4
 40
0.0
  9
$USERR5
 40
0.0
  9
$WORLDVIEW
 70
     1
  9
$SHADEDGE
 70
     0
  9
$SHADEDIF
 70
    70
  9
$TILEMODE
 70
     1
  9
$MAXACTVP
 70
    16
  9
$PLIMCHECK
 70
     0
  9
$PEXTMIN
 10
-0.805942
 20
0.005011
 30
0.0
  9
$PEXTMAX
 10
20.250094
 20
11.356329
 30
0.0
  9
$PLIMMIN
 10
0.0
 20
0.0
  9
$PLIMMAX
 10
12.0
 20
9.0
  9
$UNITMODE
 70
     0
  9
$VISRETAIN
 70
     0
  9
$PLINEGEN
 70
     0
  9
$PSLTSCALE
 70
     0
  0
ENDSEC
  0
SECTION
  2
TABLES
  0
TABLE
  2
VPORT
 70
     2
  0
VPORT
  2
*ACTIVE
 70
     0
 10
0.0
 20
0.0
 11
1.0
 21
1.0
 12
160.749441
 22
551.62762
 13
0.0
 23
0.0
 14
1.0
 24
1.0
 15
50.0
 25
50.0
 16
0.0
 26
0.0
 36
1.0
 17
0.0
 27
0.0
 37
0.0
 40
1130.452091
 41
1.911765
 42
50.0
 43
0.0
 44
0.0
 50
0.0
 51
0.0
 71
     0
 72
   100
 73
     1
 74
     1
 75
     0
 76
     0
 77
     0
 78
     0
  0
ENDTAB
  0
TABLE
  2
LTYPE
 70
     3
  0
LTYPE
  2
CONTINUOUS
 70
     0
  3
Solid Line
 72
    65
 73
     0
 40
0.0
  0
LTYPE
  2
31
 70
     0
  3

 72
    65
 73
     4
 40
2.1
 49
1.5
 49
-0.3
 49
0.0
 49
-0.3
  0
LTYPE
  2
22
 70
     0
  3

 72
    65
 73
     2
 40
1.4
 49
1.2
 49
-0.2
  0
ENDTAB
  0
TABLE
  2
LAYER
 70
    11
  0
LAYER
  2
0
 70
     0
 62
     7
  6
CONTINUOUS
  0
LAYER
  2
DEFPOINTS
 70
     0
 62
     7
  6
CONTINUOUS
  0
LAYER
  2
TEAM-BODY
 70
     0
 62
     2
  6
CONTINUOUS
  0
LAYER
  2
TEAM-AXE
 70
     0
 62
    10
  6
31
  0
LAYER
  2
TEAM-MAS
 70
     0
 62
     9
  6
CONTINUOUS
  0
LAYER
  2
TEAM-TXT
 70
     0
 62
    11
  6
CONTINUOUS
  0
LAYER
  2
TEAM-COLD
 70
     0
 62
     3
  6
CONTINUOUS
  0
LAYER
  2
TEAM-HIDE
 70
     0
 62
     8
  6
22
  0
LAYER
  2
TEAM-KAN
 70
     0
 62
     6
  6
CONTINUOUS
  0
LAYER
  2
TEAM-WARM
 70
     0
 62
     1
  6
CONTINUOUS
  0
LAYER
  2
TEAM-INSP
 70
     0
 62
     5
  6
CONTINUOUS
  0
ENDTAB
  0
TABLE
  2
STYLE
 70
     2
  0
STYLE
  2
STANDARD
 70
     0
 40
0.0
 41
1.0
 50
0.0
 71
     0
 42
200.0
  3
txt
  4

  0
STYLE
  2
TEAM
 70
     0
 40
0.0
 41
0.8
 50
15.0
 71
     0
 42
7.0
  3
ROMANS.shx
  4

  0
ENDTAB
  0
TABLE
  2
VIEW
 70
     0
  0
ENDTAB
  0
TABLE
  2
UCS
 70
     0
  0
ENDTAB
  0
TABLE
  2
APPID
 70
     1
  0
APPID
  2
ACAD
 70
     0
  0
ENDTAB
  0
TABLE
  2
DIMSTYLE
 70
     1
  0
DIMSTYLE
  2
TEAM
 70
     0
  3

  4

  5

  6

  7

 40
0.0
 41
20.0
 42
10.0
 43
1.0
 44
1.0
 45
0.0
 46
0.0
 47
0.0
 48
0.0
140
35.0
141
1.0
142
0.0
143
25.4
144
1.0
145
0.0
146
1.0
147
7.0
 71
     0
 72
     0
 73
     0
 74
     0
 75
     0
 76
     0
 77
     0
 78
     0
170
     0
171
     2
172
     0
173
     0
174
     0
175
     0
176
     9
177
     9
178
    11
  0
ENDTAB
  0
ENDSEC
  0
SECTION
  2
BLOCKS
  0
BLOCK
  8
0
  2
$MODEL_SPACE
 70
     0
 10
0.0
 20
0.0
 30
0.0
  3
$MODEL_SPACE
  1

  0
ENDBLK
  5
141
  8
0
  0
BLOCK
 67
     1
  8
0
  2
$PAPER_SPACE
 70
     0
 10
0.0
 20
0.0
 30
0.0
  3
$PAPER_SPACE
  1

  0
ENDBLK
  5
13F
 67
     1
  8
0
  0
BLOCK
  8
0
  2
*D0
 70
     1
 10
0.0
 20
0.0
 30
0.0
  3
*D0
  1

  0
LINE
  5
5C
  8
0
  6
BYBLOCK
 62
     9
 10
8010.0
 20
76000.0
 30
0.0
 11
8673.732257
 21
76000.0
 31
0.0
  0
LINE
  5
5D
  8
0
  6
BYBLOCK
 62
     9
 10
8460.0
 20
76850.0
 30
0.0
 11
8673.732257
 21
76850.0
 31
0.0
  0
LINE
  5
5E
  8
0
  6
BYBLOCK
 62
     9
 10
8672.732257
 20
76020.0
 30
0.0
 11
8672.732257
 21
76343.416667
 31
0.0
  0
LINE
  5
5F
  8
0
  6
BYBLOCK
 62
     9
 10
8672.732257
 20
76830.0
 30
0.0
 11
8672.732257
 21
76526.583333
 31
0.0
  0
TEXT
  5
60
  8
0
  6
BYBLOCK
 62
    11
 10
8690.232257
 20
76350.416667
 30
0.0
 40
35.0
  1
ca.850
 50
90.0
  0
SOLID
  5
61
  8
0
  6
BYBLOCK
 62
     9
 10
8669.398924
 20
76020.0
 30
0.0
 11
8676.06559
 21
76020.0
 31
0.0
 12
8672.732257
 22
76000.0
 32
0.0
 13
8672.732257
 23
76000.0
 33
0.0
  0
SOLID
  5
62
  8
0
  6
BYBLOCK
 62
     9
 10
8669.398924
 20
76830.0
 30
0.0
 11
8676.06559
 21
76830.0
 31
0.0
 12
8672.732257
 22
76850.0
 32
0.0
 13
8672.732257
 23
76850.0
 33
0.0
  0
POINT
  5
63
  8
DEFPOINTS
  6
BYBLOCK
 62
     0
 10
8000.0
 20
76000.0
 30
0.0
  0
POINT
  5
64
  8
DEFPOINTS
  6
BYBLOCK
 62
     0
 10
8450.0
 20
76850.0
 30
0.0
  0
POINT
  5
65
  8
DEFPOINTS
  6
BYBLOCK
 62
     0
 10
8672.732257
 20
76850.0
 30
0.0
  0
ENDBLK
  5
67
  8
0
  0
BLOCK
  8
0
  2
*D1
 70
     1
 10
0.0
 20
0.0
 30
0.0
  3
*D1
  1

  0
LINE
  5
6A
  8
0
  6
BYBLOCK
 62
     9
 10
8010.0
 20
76000.0
 30
0.0
 11
8761.211232
 21
76000.0
 31
0.0
  0
LINE
  5
6B
  8
0
  6
BYBLOCK
 62
     9
 10
8086.5
 20
77000.0
 30
0.0
 11
8761.211232
 21
77000.0
 31
0.0
  0
LINE
  5
6C
  8
0
  6
BYBLOCK
 62
     9
 10
8760.211232
 20
76020.0
 30
0.0
 11
8760.211232
 21
76377.583333
 31
0.0
  0
LINE
  5
6D
  8
0
  6
BYBLOCK
 62
     9
 10
8760.211232
 20
76980.0
 30
0.0
 11
8760.211232
 21
76642.416667
 31
0.0
  0
TEXT
  5
6E
  8
0
  6
BYBLOCK
 62
    11
 10
8777.711232
 20
76384.583333
 30
0.0
 40
35.0
  1
1000-1050
 50
90.0
  0
SOLID
  5
6F
  8
0
  6
BYBLOCK
 62
     9
 10
8756.877899
 20
76020.0
 30
0.0
 11
8763.544565
 21
76020.0
 31
0.0
 12
8760.211232
 22
76000.0
 32
0.0
 13
8760.211232
 23
76000.0
 33
0.0
  0
SOLID
  5
70
  8
0
  6
BYBLOCK
 62
     9
 10
8756.877899
 20
76980.0
 30
0.0
 11
8763.544565
 21
76980.0
 31
0.0
 12
8760.211232
 22
77000.0
 32
0.0
 13
8760.211232
 23
77000.0
 33
0.0
  0
POINT
  5
71
  8
DEFPOINTS
  6
BYBLOCK
 62
     0
 10
8000.0
 20
76000.0
 30
0.0
  0
POINT
  5
72
  8
DEFPOINTS
  6
BYBLOCK
 62
     0
 10
8076.5
 20
77000.0
 30
0.0
  0
POINT
  5
73
  8
DEFPOINTS
  6
BYBLOCK
 62
     0
 10
8760.211232
 20
77000.0
 30
0.0
  0
ENDBLK
  5
75
  8
0
  0
BLOCK
  8
0
  2
*D2
 70
     1
 10
0.0
 20
0.0
 30
0.0
  3
*D2
  1

  0
LINE
  5
78
  8
0
  6
BYBLOCK
 62
     9
 10
8010.0
 20
76000.0
 30
0.0
 11
8717.471744
 21
76000.0
 31
0.0
  0
LINE
  5
79
  8
0
  6
BYBLOCK
 62
     9
 10
8086.5
 20
77000.0
 30
0.0
 11
8717.471744
 21
77000.0
 31
0.0
  0
LINE
  5
7A
  8
0
  6
BYBLOCK
 62
     9
 10
8716.471744
 20
76020.0
 30
0.0
 11
8716.471744
 21
76453.416667
 31
0.0
  0
LINE
  5
7B
  8
0
  6
BYBLOCK
 62
     9
 10
8716.471744
 20
76980.0
 30
0.0
 11
8716.471744
 21
76566.583333
 31
0.0
  0
TEXT
  5
7C
  8
0
  6
BYBLOCK
 62
    11
 10
8733.971744
 20
76460.416667
 30
0.0
 40
35.0
  1
1000
 50
90.0
  0
SOLID
  5
7D
  8
0
  6
BYBLOCK
 62
     9
 10
8713.138411
 20
76020.0
 30
0.0
 11
8719.805078
 21
76020.0
 31
0.0
 12
8716.471744
 22
76000.0
 32
0.0
 13
8716.471744
 23
76000.0
 33
0.0
  0
SOLID
  5
7E
  8
0
  6
BYBLOCK
 62
     9
 10
8713.138411
 20
76980.0
 30
0.0
 11
8719.805078
 21
76980.0
 31
0.0
 12
8716.471744
 22
77000.0
 32
0.0
 13
8716.471744
 23
77000.0
 33
0.0
  0
POINT
  5
7F
  8
DEFPOINTS
  6
BYBLOCK
 62
     0
 10
8000.0
 20
76000.0
 30
0.0
  0
POINT
  5
80
  8
DEFPOINTS
  6
BYBLOCK
 62
     0
 10
8076.5
 20
77000.0
 30
0.0
  0
POINT
  5
81
  8
DEFPOINTS
  6
BYBLOCK
 62
     0
 10
8716.471744
 20
77000.0
 30
0.0
  0
ENDBLK
  5
83
  8
0
  0
BLOCK
  8
0
  2
*D3
 70
     1
 10
0.0
 20
0.0
 30
0.0
  3
*D3
  1

  0
LINE
  5
22
  8
0
  6
BYBLOCK
 62
     9
 10
8455.472342
 20
76850.0
 30
0.0
 11
8490.645459
 21
76850.0
 31
0.0
  0
LINE
  5
23
  8
0
  6
BYBLOCK
 62
     9
 10
8315.710615
 20
76798.0
 30
0.0
 11
8490.645459
 21
76798.0
 31
0.0
  0
LINE
  5
24
  8
0
  6
BYBLOCK
 62
     9
 10
8489.645459
 20
76870.0
 30
0.0
 11
8489.645459
 21
76890.0
 31
0.0
  0
LINE
  5
25
  8
0
  6
BYBLOCK
 62
     9
 10
8489.645459
 20
76778.0
 30
0.0
 11
8489.645459
 21
76758.0
 31
0.0
  0
TEXT
  5
26
  8
0
  6
BYBLOCK
 62
    11
 10
8507.145459
 20
76716.566667
 30
0.0
 40
35.0
  1
52
 50
90.0
  0
LINE
  5
27
  8
0
  6
BYBLOCK
 62
     9
 10
8489.645459
 20
76850.0
 30
0.0
 11
8489.645459
 21
76798.0
 31
0.0
  0
SOLID
  5
28
  8
0
  6
BYBLOCK
 62
     9
 10
8486.312126
 20
76870.0
 30
0.0
 11
8492.978793
 21
76870.0
 31
0.0
 12
8489.645459
 22
76850.0
 32
0.0
 13
8489.645459
 23
76850.0
 33
0.0
  0
SOLID
  5
29
  8
0
  6
BYBLOCK
 62
     9
 10
8486.312126
 20
76778.0
 30
0.0
 11
8492.978793
 21
76778.0
 31
0.0
 12
8489.645459
 22
76798.0
 32
0.0
 13
8489.645459
 23
76798.0
 33
0.0
  0
POINT
  5
2A
  8
DEFPOINTS
  6
BYBLOCK
 62
     0
 10
8445.472342
 20
76850.0
 30
0.0
  0
POINT
  5
2C
  8
DEFPOINTS
  6
BYBLOCK
 62
     0
 10
8305.710615
 20
76798.0
 30
0.0
  0
POINT
  5
2D
  8
DEFPOINTS
  6
BYBLOCK
 62
     0
 10
8489.645459
 20
76798.0
 30
0.0
  0
ENDBLK
  5
2F
  8
0
  0
BLOCK
  8
0
  2
*D4
 70
     1
 10
0.0
 20
0.0
 30
0.0
  3
*D4
  1

  0
LINE
  5
32
  8
0
  6
BYBLOCK
 62
     9
 10
8460.0
 20
76850.0
 30
0.0
 11
8536.010716
 21
76850.0
 31
0.0
  0
LINE
  5
33
  8
0
  6
BYBLOCK
 62
     9
 10
8430.0
 20
76655.0
 30
0.0
 11
8536.010716
 21
76655.0
 31
0.0
  0
LINE
  5
34
  8
0
  6
BYBLOCK
 62
     9
 10
8535.010716
 20
76830.0
 30
0.0
 11
8535.010716
 21
76800.333333
 31
0.0
  0
LINE
  5
35
  8
0
  6
BYBLOCK
 62
     9
 10
8535.010716
 20
76675.0
 30
0.0
 11
8535.010716
 21
76704.666667
 31
0.0
  0
SOLID
  5
36
  8
0
  6
BYBLOCK
 62
     9
 10
8531.677383
 20
76830.0
 30
0.0
 11
8538.34405
 21
76830.0
 31
0.0
 12
8535.010716
 22
76850.0
 32
0.0
 13
8535.010716
 23
76850.0
 33
0.0
  0
SOLID
  5
37
  8
0
  6
BYBLOCK
 62
     9
 10
8531.677383
 20
76675.0
 30
0.0
 11
8538.34405
 21
76675.0
 31
0.0
 12
8535.010716
 22
76655.0
 32
0.0
 13
8535.010716
 23
76655.0
 33
0.0
  0
TEXT
  5
38
  8
0
  6
BYBLOCK
 62
    11
 10
8552.510716
 20
76711.666667
 30
0.0
 40
35.0
  1
195
 50
90.0
  0
POINT
  5
39
  8
DEFPOINTS
  6
BYBLOCK
 62
     0
 10
8450.0
 20
76850.0
 30
0.0
  0
POINT
  5
3A
  8
DEFPOINTS
  6
BYBLOCK
 62
     0
 10
8420.0
 20
76655.0
 30
0.0
  0
POINT
  5
3B
  8
DEFPOINTS
  6
BYBLOCK
 62
     0
 10
8535.010716
 20
76655.0
 30
0.0
  0
ENDBLK
  5
3D
  8
0
  0
BLOCK
  8
0
  2
*D5
 70
     1
 10
0.0
 20
0.0
 30
0.0
  3
*D5
  1

  0
LINE
  5
40
  8
0
  6
BYBLOCK
 62
     9
 10
7700.0
 20
76828.932236
 30
0.0
 11
7700.0
 21
77048.019787
 31
0.0
  0
LINE
  5
41
  8
0
  6
BYBLOCK
 62
     9
 10
8000.0
 20
77021.867378
 30
0.0
 11
8000.0
 21
77048.019787
 31
0.0
  0
LINE
  5
42
  8
0
  6
BYBLOCK
 62
     9
 10
7720.0
 20
77047.019787
 30
0.0
 11
7802.166667
 21
77047.019787
 31
0.0
  0
LINE
  5
43
  8
0
  6
BYBLOCK
 62
     9
 10
7980.0
 20
77047.019787
 30
0.0
 11
7897.833333
 21
77047.019787
 31
0.0
  0
SOLID
  5
44
  8
0
  6
BYBLOCK
 62
     9
 10
7720.0
 20
77050.35312
 30
0.0
 11
7720.0
 21
77043.686453
 31
0.0
 12
7700.0
 22
77047.019787
 32
0.0
 13
7700.0
 23
77047.019787
 33
0.0
  0
SOLID
  5
45
  8
0
  6
BYBLOCK
 62
     9
 10
7980.0
 20
77050.35312
 30
0.0
 11
7980.0
 21
77043.686453
 31
0.0
 12
8000.0
 22
77047.019787
 32
0.0
 13
8000.0
 23
77047.019787
 33
0.0
  0
TEXT
  5
46
  8
0
  6
BYBLOCK
 62
    11
 10
7809.166667
 20
77029.519787
 30
0.0
 40
35.0
  1
300
  0
POINT
  5
47
  8
DEFPOINTS
  6
BYBLOCK
 62
     0
 10
7700.0
 20
76818.932236
 30
0.0
  0
POINT
  5
48
  8
DEFPOINTS
  6
BYBLOCK
 62
     0
 10
8000.0
 20
77011.867378
 30
0.0
  0
POINT
  5
49
  8
DEFPOINTS
  6
BYBLOCK
 62
     0
 10
8000.0
 20
77047.019787
 30
0.0
  0
ENDBLK
  5
4B
  8
0
  0
BLOCK
  8
0
  2
*D6
 70
     1
 10
0.0
 20
0.0
 30
0.0
  3
*D6
  1

  0
LINE
  5
4E
  8
0
  6
BYBLOCK
 62
     9
 10
8010.0
 20
76000.0
 30
0.0
 11
8628.367
 21
76000.0
 31
0.0
  0
LINE
  5
4F
  8
0
  6
BYBLOCK
 62
     9
 10
8460.0
 20
76850.0
 30
0.0
 11
8628.367
 21
76850.0
 31
0.0
  0
LINE
  5
50
  8
0
  6
BYBLOCK
 62
     9
 10
8627.367
 20
76020.0
 30
0.0
 11
8627.367
 21
76384.25
 31
0.0
  0
LINE
  5
51
  8
0
  6
BYBLOCK
 62
     9
 10
8627.367
 20
76830.0
 30
0.0
 11
8627.367
 21
76485.75
 31
0.0
  0
TEXT
  5
52
  8
0
  6
BYBLOCK
 62
    11
 10
8644.867
 20
76391.25
 30
0.0
 40
35.0
  1
850
 50
90.0
  0
SOLID
  5
53
  8
0
  6
BYBLOCK
 62
     9
 10
8624.033667
 20
76020.0
 30
0.0
 11
8630.700333
 21
76020.0
 31
0.0
 12
8627.367
 22
76000.0
 32
0.0
 13
8627.367
 23
76000.0
 33
0.0
  0
SOLID
  5
54
  8
0
  6
BYBLOCK
 62
     9
 10
8624.033667
 20
76830.0
 30
0.0
 11
8630.700333
 21
76830.0
 31
0.0
 12
8627.367
 22
76850.0
 32
0.0
 13
8627.367
 23
76850.0
 33
0.0
  0
POINT
  5
55
  8
DEFPOINTS
  6
BYBLOCK
 62
     0
 10
8000.0
 20
76000.0
 30
0.0
  0
POINT
  5
56
  8
DEFPOINTS
  6
BYBLOCK
 62
     0
 10
8450.0
 20
76850.0
 30
0.0
  0
POINT
  5
57
  8
DEFPOINTS
  6
BYBLOCK
 62
     0
 10
8627.367
 20
76850.0
 30
0.0
  0
ENDBLK
  5
59
  8
0
  0
BLOCK
  8
0
  2
*D7
 70
     1
 10
0.0
 20
0.0
 30
0.0
  3
*D7
  1

  0
LINE
  5
86
  8
0
  6
BYBLOCK
 62
     9
 10
8000.0
 20
77021.867378
 30
0.0
 11
8000.0
 21
77048.019787
 31
0.0
  0
LINE
  5
87
  8
0
  6
BYBLOCK
 62
     9
 10
8300.0
 20
76815.475705
 30
0.0
 11
8300.0
 21
77048.019787
 31
0.0
  0
LINE
  5
88
  8
0
  6
BYBLOCK
 62
     9
 10
8020.0
 20
77047.019787
 30
0.0
 11
8102.166667
 21
77047.019787
 31
0.0
  0
LINE
  5
89
  8
0
  6
BYBLOCK
 62
     9
 10
8280.0
 20
77047.019787
 30
0.0
 11
8197.833333
 21
77047.019787
 31
0.0
  0
SOLID
  5
8A
  8
0
  6
BYBLOCK
 62
     9
 10
8020.0
 20
77050.35312
 30
0.0
 11
8020.0
 21
77043.686453
 31
0.0
 12
8000.0
 22
77047.019787
 32
0.0
 13
8000.0
 23
77047.019787
 33
0.0
  0
SOLID
  5
8B
  8
0
  6
BYBLOCK
 62
     9
 10
8280.0
 20
77050.35312
 30
0.0
 11
8280.0
 21
77043.686453
 31
0.0
 12
8300.0
 22
77047.019787
 32
0.0
 13
8300.0
 23
77047.019787
 33
0.0
  0
TEXT
  5
8C
  8
0
  6
BYBLOCK
 62
    11
 10
8109.166667
 20
77029.519787
 30
0.0
 40
35.0
  1
300
  0
POINT
  5
8D
  8
DEFPOINTS
  6
BYBLOCK
 62
     0
 10
8000.0
 20
77011.867378
 30
0.0
  0
POINT
  5
8E
  8
DEFPOINTS
  6
BYBLOCK
 62
     0
 10
8300.0
 20
76805.475705
 30
0.0
  0
POINT
  5
8F
  8
DEFPOINTS
  6
BYBLOCK
 62
     0
 10
8300.0
 20
77047.019787
 30
0.0
  0
ENDBLK
  5
91
  8
0
  0
BLOCK
  8
0
  2
*D8
 70
     1
 10
0.0
 20
0.0
 30
0.0
  3
*D8
  1

  0
LINE
  5
DF
  8
0
  6
BYBLOCK
 62
     9
 10
7923.5
 20
76990.0
 30
0.0
 11
7923.5
 21
76934.269528
 31
0.0
  0
LINE
  5
E0
  8
0
  6
BYBLOCK
 62
     9
 10
8076.5
 20
76990.0
 30
0.0
 11
8076.5
 21
76934.269528
 31
0.0
  0
LINE
  5
E1
  8
0
  6
BYBLOCK
 62
     9
 10
7943.5
 20
76935.269528
 30
0.0
 11
7952.166667
 21
76935.269528
 31
0.0
  0
LINE
  5
E2
  8
0
  6
BYBLOCK
 62
     9
 10
8056.5
 20
76935.269528
 30
0.0
 11
8047.833333
 21
76935.269528
 31
0.0
  0
TEXT
  5
E3
  8
0
  6
BYBLOCK
 62
    11
 10
7959.166667
 20
76917.769528
 30
0.0
 40
35.0
  1
153
  0
SOLID
  5
E4
  8
0
  6
BYBLOCK
 62
     9
 10
7943.5
 20
76938.602861
 30
0.0
 11
7943.5
 21
76931.936195
 31
0.0
 12
7923.5
 22
76935.269528
 32
0.0
 13
7923.5
 23
76935.269528
 33
0.0
  0
SOLID
  5
E5
  8
0
  6
BYBLOCK
 62
     9
 10
8056.5
 20
76938.602861
 30
0.0
 11
8056.5
 21
76931.936195
 31
0.0
 12
8076.5
 22
76935.269528
 32
0.0
 13
8076.5
 23
76935.269528
 33
0.0
  0
POINT
  5
E6
  8
DEFPOINTS
  6
BYBLOCK
 62
     0
 10
7923.5
 20
77000.0
 30
0.0
  0
POINT
  5
E7
  8
DEFPOINTS
  6
BYBLOCK
 62
     0
 10
8076.5
 20
77000.0
 30
0.0
  0
POINT
  5
E8
  8
DEFPOINTS
  6
BYBLOCK
 62
     0
 10
8076.5
 20
76935.269528
 30
0.0
  0
ENDBLK
  5
EA
  8
0
  0
BLOCK
  8
0
  2
*D9
 70
     1
 10
0.0
 20
0.0
 30
0.0
  3
*D9
  1

  0
LINE
  5
ED
  8
0
  6
BYBLOCK
 62
     9
 10
7550.0
 20
76860.0
 30
0.0
 11
7550.0
 21
77096.774933
 31
0.0
  0
LINE
  5
EE
  8
0
  6
BYBLOCK
 62
     9
 10
8450.0
 20
76860.0
 30
0.0
 11
8450.0
 21
77096.774933
 31
0.0
  0
LINE
  5
EF
  8
0
  6
BYBLOCK
 62
     9
 10
7570.0
 20
77095.774933
 30
0.0
 11
7952.166667
 21
77095.774933
 31
0.0
  0
LINE
  5
F0
  8
0
  6
BYBLOCK
 62
     9
 10
8430.0
 20
77095.774933
 30
0.0
 11
8047.833333
 21
77095.774933
 31
0.0
  0
SOLID
  5
F1
  8
0
  6
BYBLOCK
 62
     9
 10
7570.0
 20
77099.108266
 30
0.0
 11
7570.0
 21
77092.441599
 31
0.0
 12
7550.0
 22
77095.774933
 32
0.0
 13
7550.0
 23
77095.774933
 33
0.0
  0
SOLID
  5
F2
  8
0
  6
BYBLOCK
 62
     9
 10
8430.0
 20
77099.108266
 30
0.0
 11
8430.0
 21
77092.441599
 31
0.0
 12
8450.0
 22
77095.774933
 32
0.0
 13
8450.0
 23
77095.774933
 33
0.0
  0
TEXT
  5
F3
  8
0
  6
BYBLOCK
 62
    11
 10
7959.166667
 20
77078.274933
 30
0.0
 40
35.0
  1
900
  0
POINT
  5
F4
  8
DEFPOINTS
  6
BYBLOCK
 62
     0
 10
7550.0
 20
76850.0
 30
0.0
  0
POINT
  5
F5
  8
DEFPOINTS
  6
BYBLOCK
 62
     0
 10
8450.0
 20
76850.0
 30
0.0
  0
POINT
  5
F6
  8
DEFPOINTS
  6
BYBLOCK
 62
     0
 10
8450.0
 20
77095.774933
 30
0.0
  0
ENDBLK
  5
F8
  8
0
  0
BLOCK
  8
0
  2
*D10
 70
     1
 10
0.0
 20
0.0
 30
0.0
  3
*D10
  1

  0
LINE
  5
94
  8
0
  6
BYBLOCK
 62
     9
 10
8460.0
 20
76850.0
 30
0.0
 11
8581.375973
 21
76850.0
 31
0.0
  0
LINE
  5
95
  8
0
  6
BYBLOCK
 62
     9
 10
8010.0
 20
76510.0
 30
0.0
 11
8581.375973
 21
76510.0
 31
0.0
  0
LINE
  5
96
  8
0
  6
BYBLOCK
 62
     9
 10
8580.375973
 20
76830.0
 30
0.0
 11
8580.375973
 21
76745.75
 31
0.0
  0
LINE
  5
97
  8
0
  6
BYBLOCK
 62
     9
 10
8580.375973
 20
76530.0
 30
0.0
 11
8580.375973
 21
76644.25
 31
0.0
  0
TEXT
  5
98
  8
0
  6
BYBLOCK
 62
    11
 10
8597.875973
 20
76651.25
 30
0.0
 40
35.0
  1
340
 50
90.0
  0
SOLID
  5
99
  8
0
  6
BYBLOCK
 62
     9
 10
8577.04264
 20
76830.0
 30
0.0
 11
8583.709307
 21
76830.0
 31
0.0
 12
8580.375973
 22
76850.0
 32
0.0
 13
8580.375973
 23
76850.0
 33
0.0
  0
SOLID
  5
9A
  8
0
  6
BYBLOCK
 62
     9
 10
8577.04264
 20
76530.0
 30
0.0
 11
8583.709307
 21
76530.0
 31
0.0
 12
8580.375973
 22
76510.0
 32
0.0
 13
8580.375973
 23
76510.0
 33
0.0
  0
POINT
  5
9B
  8
DEFPOINTS
  6
BYBLOCK
 62
     0
 10
8450.0
 20
76850.0
 30
0.0
  0
POINT
  5
9C
  8
DEFPOINTS
  6
BYBLOCK
 62
     0
 10
8000.0
 20
76510.0
 30
0.0
  0
POINT
  5
9D
  8
DEFPOINTS
  6
BYBLOCK
 62
     0
 10
8580.375973
 20
76510.0
 30
0.0
  0
ENDBLK
  5
9F
  8
0
  0
BLOCK
  8
0
  2
*D11
 70
     1
 10
0.0
 20
0.0
 30
0.0
  3
*D11
  1

  0
LINE
  5
A8
  8
0
  6
BYBLOCK
 62
     9
 10
8010.0
 20
76000.0
 30
0.0
 11
8581.375973
 21
76000.0
 31
0.0
  0
LINE
  5
A9
  8
0
  6
BYBLOCK
 62
     9
 10
8040.0
 20
76510.0
 30
0.0
 11
8581.375973
 21
76510.0
 31
0.0
  0
LINE
  5
AA
  8
0
  6
BYBLOCK
 62
     9
 10
8580.375973
 20
76020.0
 30
0.0
 11
8580.375973
 21
76137.166667
 31
0.0
  0
LINE
  5
AB
  8
0
  6
BYBLOCK
 62
     9
 10
8580.375973
 20
76490.0
 30
0.0
 11
8580.375973
 21
76372.833333
 31
0.0
  0
SOLID
  5
AC
  8
0
  6
BYBLOCK
 62
     9
 10
8577.04264
 20
76020.0
 30
0.0
 11
8583.709307
 21
76020.0
 31
0.0
 12
8580.375973
 22
76000.0
 32
0.0
 13
8580.375973
 23
76000.0
 33
0.0
  0
SOLID
  5
AD
  8
0
  6
BYBLOCK
 62
     9
 10
8577.04264
 20
76490.0
 30
0.0
 11
8583.709307
 21
76490.0
 31
0.0
 12
8580.375973
 22
76510.0
 32
0.0
 13
8580.375973
 23
76510.0
 33
0.0
  0
TEXT
  5
AE
  8
0
  6
BYBLOCK
 62
    11
 10
8597.875973
 20
76144.166667
 30
0.0
 40
35.0
  1
480-550
 50
90.0
  0
POINT
  5
AF
  8
DEFPOINTS
  6
BYBLOCK
 62
     0
 10
8000.0
 20
76000.0
 30
0.0
  0
POINT
  5
B0
  8
DEFPOINTS
  6
BYBLOCK
 62
     0
 10
8030.0
 20
76510.0
 30
0.0
  0
POINT
  5
B1
  8
DEFPOINTS
  6
BYBLOCK
 62
     0
 10
8580.375973
 20
76510.0
 30
0.0
  0
ENDBLK
  5
B3
  8
0
  0
BLOCK
  8
0
  2
*D12
 70
     1
 10
0.0
 20
0.0
 30
0.0
  3
*D12
  1

  0
LINE
  5
B6
  8
0
  6
BYBLOCK
 62
     9
 10
8010.0
 20
76000.0
 30
0.0
 11
8536.010716
 21
76000.0
 31
0.0
  0
LINE
  5
B7
  8
0
  6
BYBLOCK
 62
     9
 10
8040.0
 20
76510.0
 30
0.0
 11
8536.010716
 21
76510.0
 31
0.0
  0
LINE
  5
B8
  8
0
  6
BYBLOCK
 62
     9
 10
8535.010716
 20
76020.0
 30
0.0
 11
8535.010716
 21
76210.083333
 31
0.0
  0
LINE
  5
B9
  8
0
  6
BYBLOCK
 62
     9
 10
8535.010716
 20
76490.0
 30
0.0
 11
8535.010716
 21
76299.916667
 31
0.0
  0
SOLID
  5
BA
  8
0
  6
BYBLOCK
 62
     9
 10
8531.677383
 20
76020.0
 30
0.0
 11
8538.34405
 21
76020.0
 31
0.0
 12
8535.010716
 22
76000.0
 32
0.0
 13
8535.010716
 23
76000.0
 33
0.0
  0
SOLID
  5
BB
  8
0
  6
BYBLOCK
 62
     9
 10
8531.677383
 20
76490.0
 30
0.0
 11
8538.34405
 21
76490.0
 31
0.0
 12
8535.010716
 22
76510.0
 32
0.0
 13
8535.010716
 23
76510.0
 33
0.0
  0
TEXT
  5
BC
  8
0
  6
BYBLOCK
 62
    11
 10
8552.510716
 20
76217.083333
 30
0.0
 40
35.0
  1
510
 50
90.0
  0
POINT
  5
BD
  8
DEFPOINTS
  6
BYBLOCK
 62
     0
 10
8000.0
 20
76000.0
 30
0.0
  0
POINT
  5
BE
  8
DEFPOINTS
  6
BYBLOCK
 62
     0
 10
8030.0
 20
76510.0
 30
0.0
  0
POINT
  5
BF
  8
DEFPOINTS
  6
BYBLOCK
 62
     0
 10
8535.010716
 20
76510.0
 30
0.0
  0
ENDBLK
  5
C1
  8
0
  0
ENDSEC
  0
SECTION
  2
ENTITIES
  0
DIMENSION
  5
20
  8
TEAM-MAS
  2
*D3
 10
489.645459
 20
798.0
 30
0.0
 11
489.645459
 21
745.733333
 31
0.0
 12
-8000.0
 22
-76000.0
 32
0.0
 70
   128
 13
445.472342
 23
850.0
 33
0.0
 14
305.710615
 24
798.0
 34
0.0
 50
90.0
  0
DIMENSION
  5
30
  8
TEAM-MAS
  2
*D4
 10
535.010716
 20
655.0
 30
0.0
 11
535.010716
 21
752.5
 31
0.0
 12
-8000.0
 22
-76000.0
 32
0.0
 13
450.0
 23
850.0
 33
0.0
 14
420.0
 24
655.0
 34
0.0
 50
90.0
  0
DIMENSION
  5
3E
  8
TEAM-MAS
  2
*D5
 10
0.0
 20
1047.019787
 30
0.0
 11
-150.0
 21
1047.019787
 31
0.0
 12
-8000.0
 22
-76000.0
 32
0.0
 13
-300.0
 23
818.932236
 33
0.0
 14
0.0
 24
1011.867378
 34
0.0
  0
DIMENSION
  5
4C
  8
TEAM-MAS
  2
*D6
 10
627.367
 20
850.0
 30
0.0
 11
627.367
 21
435.0
 31
0.0
 12
-8000.0
 22
-76000.0
 32
0.0
 70
   128
 13
0.0
 23
0.0
 33
0.0
 14
450.0
 24
850.0
 34
0.0
 50
90.0
  0
DIMENSION
  5
5A
  8
TEAM-MAS
  2
*D0
 10
672.732257
 20
850.0
 30
0.0
 11
672.732257
 21
435.0
 31
0.0
 12
-8000.0
 22
-76000.0
 32
0.0
 70
   128
  1
ca.850
 13
0.0
 23
0.0
 33
0.0
 14
450.0
 24
850.0
 34
0.0
 50
90.0
  0
DIMENSION
  5
68
  8
TEAM-MAS
  2
*D1
 10
760.211232
 20
1000.0
 30
0.0
 11
760.211232
 21
510.0
 31
0.0
 12
-8000.0
 22
-76000.0
 32
0.0
 70
   128
  1
1000-1050
 13
0.0
 23
0.0
 33
0.0
 14
76.5
 24
1000.0
 34
0.0
 50
90.0
  0
DIMENSION
  5
76
  8
TEAM-MAS
  2
*D2
 10
716.471744
 20
1000.0
 30
0.0
 11
716.471744
 21
510.0
 31
0.0
 12
-8000.0
 22
-76000.0
 32
0.0
 70
   128
 13
0.0
 23
0.0
 33
0.0
 14
76.5
 24
1000.0
 34
0.0
 50
90.0
  0
DIMENSION
  5
84
  8
TEAM-MAS
  2
*D7
 10
300.0
 20
1047.019787
 30
0.0
 11
150.0
 21
1047.019787
 31
0.0
 12
-8000.0
 22
-76000.0
 32
0.0
 13
0.0
 23
1011.867378
 33
0.0
 14
300.0
 24
805.475705
 34
0.0
  0
DIMENSION
  5
92
  8
TEAM-MAS
  2
*D10
 10
580.375973
 20
510.0
 30
0.0
 11
580.375973
 21
695.0
 31
0.0
 12
-8000.0
 22
-76000.0
 32
0.0
 70
   128
 13
450.0
 23
850.0
 33
0.0
 14
0.0
 24
510.0
 34
0.0
 50
90.0
  0
LINE
  5
A0
  8
TEAM-BODY
 10
450.0
 20
685.0
 30
0.0
 11
450.0
 21
850.0
 31
0.0
  0
LINE
  5
A2
  8
TEAM-AXE
 10
0.0
 20
1023.707822
 30
0.0
 11
0.0
 21
415.0
 31
0.0
  0
LINE
  5
A5
  8
TEAM-BODY
 10
-450.0
 20
850.0
 30
0.0
 11
-450.0
 21
685.0
 31
0.0
  0
DIMENSION
  5
A6
  8
TEAM-MAS
  2
*D11
 10
580.375973
 20
510.0
 30
0.0
 11
580.375973
 21
255.0
 31
0.0
 12
-8000.0
 22
-76000.0
 32
0.0
  1
480-550
 13
0.0
 23
0.0
 33
0.0
 14
30.0
 24
510.0
 34
0.0
 50
90.0
  0
DIMENSION
  5
B4
  8
TEAM-MAS
  2
*D12
 10
535.010716
 20
510.0
 30
0.0
 11
535.010716
 21
255.0
 31
0.0
 12
-8000.0
 22
-76000.0
 32
0.0
 13
0.0
 23
0.0
 33
0.0
 14
30.0
 24
510.0
 34
0.0
 50
90.0
  0
LINE
  5
C2
  8
TEAM-AXE
 10
310.0
 20
798.0
 30
0.0
 11
290.0
 21
798.0
 31
0.0
  0
CIRCLE
  5
C3
  8
TEAM-HIDE
 10
300.0
 20
798.0
 30
0.0
 40
5.0
  0
LINE
  5
C6
  8
TEAM-AXE
 10
300.0
 20
808.0
 30
0.0
 11
300.0
 21
788.0
 31
0.0
  0
ARC
  5
C7
  8
TEAM-BODY
 10
420.0
 20
685.0
 30
0.0
 40
30.0
 50
270.0
 51
0.0
  0
LINE
  5
C8
  8
TEAM-AXE
 10
-290.0
 20
798.0
 30
0.0
 11
-310.0
 21
798.0
 31
0.0
  0
LINE
  5
C9
  8
TEAM-AXE
 10
-300.0
 20
808.0
 30
0.0
 11
-300.0
 21
788.0
 31
0.0
  0
CIRCLE
  5
CA
  8
TEAM-HIDE
 10
-300.0
 20
798.0
 30
0.0
 40
5.0
  0
ARC
  5
CB
  8
TEAM-BODY
 10
-420.0
 20
685.0
 30
0.0
 40
30.0
 50
180.0
 51
270.0
  0
CIRCLE
  5
CC
  8
TEAM-INSP
 10
0.0
 20
0.0
 30
0.0
 40
10.0
  0
LINE
  5
CE
  8
TEAM-AXE
 10
10.0
 20
798.0
 30
0.0
 11
-10.0
 21
798.0
 31
0.0
  0
LINE
  5
CF
  8
TEAM-AXE
 10
0.0
 20
808.0
 30
0.0
 11
0.0
 21
788.0
 31
0.0
  0
CIRCLE
  5
D0
  8
TEAM-HIDE
 10
0.0
 20
798.0
 30
0.0
 40
5.0
  0
LINE
  5
D1
  8
TEAM-BODY
 10
0.0
 20
565.0
 30
0.0
 11
0.0
 21
655.0
 31
0.0
  0
CIRCLE
  5
D2
  8
TEAM-KAN
 10
0.0
 20
510.0
 30
0.0
 40
20.0
  0
LINE
  5
D4
  8
TEAM-AXE
 10
-30.0
 20
510.0
 30
0.0
 11
30.0
 21
510.0
 31
0.0
  0
LINE
  5
D5
  8
TEAM-BODY
 10
-21.0
 20
565.0
 30
0.0
 11
21.0
 21
565.0
 31
0.0
  0
LINE
  5
D6
  8
TEAM-BODY
 10
-21.0
 20
565.0
 30
0.0
 11
-21.0
 21
415.0
 31
0.0
  0
LINE
  5
D7
  8
TEAM-BODY
 10
21.0
 20
565.0
 30
0.0
 11
21.0
 21
415.0
 31
0.0
  0
LINE
  5
D8
  8
TEAM-BODY
 10
-21.0
 20
415.0
 30
0.0
 11
21.0
 21
415.0
 31
0.0
  0
LINE
  5
D9
  8
TEAM-BODY
 10
-420.0
 20
655.0
 30
0.0
 11
420.0
 21
655.0
 31
0.0
  0
TEXT
  5
DA
  8
TEAM-TXT
 10
-53.427831
 20
677.054946
 30
0.0
 40
30.0
  1
team 416105
 41
0.8
 51
15.0
  7
TEAM
  0
DIMENSION
  5
DD
  8
TEAM-MAS
  2
*D8
 10
76.5
 20
935.269528
 30
0.0
 11
0.0
 21
935.269528
 31
0.0
 12
-8000.0
 22
-76000.0
 32
0.0
 70
   128
 13
-76.5
 23
1000.0
 33
0.0
 14
76.5
 24
1000.0
 34
0.0
  0
DIMENSION
  5
EB
  8
TEAM-MAS
  2
*D9
 10
450.0
 20
1095.774933
 30
0.0
 11
0.0
 21
1095.774933
 31
0.0
 12
-8000.0
 22
-76000.0
 32
0.0
 13
-450.0
 23
850.0
 33
0.0
 14
450.0
 24
850.0
 34
0.0
  0
CIRCLE
  5
F9
  8
TEAM-COLD
 10
76.5
 20
1000.0
 30
0.0
 40
15.0
  0
LINE
  5
FB
  8
TEAM-AXE
 10
76.5
 20
980.0
 30
0.0
 11
76.5
 21
1020.0
 31
0.0
  0
CIRCLE
  5
FC
  8
TEAM-WARM
 10
-76.5
 20
1000.0
 30
0.0
 40
15.0
  0
LINE
  5
FE
  8
TEAM-AXE
 10
-76.5
 20
980.0
 30
0.0
 11
-76.5
 21
1020.0
 31
0.0
  0
LINE
  5
FF
  8
TEAM-AXE
 10
-96.5
 20
1000.0
 30
0.0
 11
-56.5
 21
1000.0
 31
0.0
  0
LINE
  5
100
  8
TEAM-BODY
 10
450.0
 20
850.0
 30
0.0
 11
-450.0
 21
850.0
 31
0.0
  0
LINE
  5
101
  8
TEAM-AXE
 10
56.5
 20
1000.0
 30
0.0
 11
96.5
 21
1000.0
 31
0.0
  0
ENDSEC
  0
EOF
