  0
SECTION
  2
HEADER
  9
$ACADVER
  1
AC1009
  9
$INSBASE
 10
0.0
 20
0.0
 30
0.0
  9
$EXTMIN
 10
-500.086659
 20
-10.062079
 30
0.0
  9
$EXTMAX
 10
915.818086
 20
1121.990054
 30
0.000005
  9
$LIMMIN
 10
-500.086659
 20
-10.062079
  9
$LIMMAX
 10
915.818086
 20
1121.990054
  9
$ORTHOMODE
 70
     1
  9
$REGENMODE
 70
     1
  9
$FILLMODE
 70
     1
  9
$QTEXTMODE
 70
     0
  9
$MIRRTEXT
 70
     0
  9
$DRAGMODE
 70
     2
  9
$LTSCALE
 40
50.0
  9
$OSMODE
 70
     0
  9
$ATTMODE
 70
     1
  9
$TEXTSIZE
 40
200.0
  9
$TRACEWID
 40
1.0
  9
$TEXTSTYLE
  7
STANDARD
  9
$CLAYER
  8
TEAM-MAS
  9
$CELTYPE
  6
BYLAYER
  9
$CECOLOR
 62
   256
  9
$DIMSCALE
 40
0.0
  9
$DIMASZ
 40
20.0
  9
$DIMEXO
 40
10.0
  9
$DIMDLI
 40
1.0
  9
$DIMRND
 40
0.0
  9
$DIMDLE
 40
0.0
  9
$DIMEXE
 40
1.0
  9
$DIMTP
 40
0.0
  9
$DIMTM
 40
0.0
  9
$DIMTXT
 40
35.0
  9
$DIMCEN
 40
1.0
  9
$DIMTSZ
 40
0.0
  9
$DIMTOL
 70
     0
  9
$DIMLIM
 70
     0
  9
$DIMTIH
 70
     0
  9
$DIMTOH
 70
     0
  9
$DIMSE1
 70
     0
  9
$DIMSE2
 70
     0
  9
$DIMTAD
 70
     0
  9
$DIMZIN
 70
     0
  9
$DIMBLK
  1

  9
$DIMASO
 70
     1
  9
$DIMSHO
 70
     0
  9
$DIMPOST
  1

  9
$DIMAPOST
  1

  9
$DIMALT
 70
     0
  9
$DIMALTD
 70
     2
  9
$DIMALTF
 40
25.4
  9
$DIMLFAC
 40
1.0
  9
$DIMTOFL
 70
     0
  9
$DIMTVP
 40
0.0
  9
$DIMTIX
 70
     0
  9
$DIMSOXD
 70
     0
  9
$DIMSAH
 70
     0
  9
$DIMBLK1
  1

  9
$DIMBLK2
  1

  9
$DIMSTYLE
  2
TEAM
  9
$DIMCLRD
 70
     9
  9
$DIMCLRE
 70
     9
  9
$DIMCLRT
 70
    11
  9
$DIMTFAC
 40
1.0
  9
$DIMGAP
 40
7.0
  9
$LUNITS
 70
     2
  9
$LUPREC
 70
     1
  9
$SKETCHINC
 40
1.0
  9
$FILLETRAD
 40
50.0
  9
$AUNITS
 70
     0
  9
$AUPREC
 70
     0
  9
$MENU
  1
ROPLANS
  9
$ELEVATION
 40
0.0
  9
$PELEVATION
 40
0.0
  9
$THICKNESS
 40
0.0
  9
$LIMCHECK
 70
     0
  9
$BLIPMODE
 70
     1
  9
$CHAMFERA
 40
0.0
  9
$CHAMFERB
 40
0.0
  9
$SKPOLY
 70
     0
  9
$TDCREATE
 40
2450392.957851
  9
$TDUPDATE
 40
2456272.033233
  9
$TDINDWG
 40
2.315654
  9
$TDUSRTIMER
 40
2.315654
  9
$USRTIMER
 70
     1
  9
$ANGBASE
 50
0.0
  9
$ANGDIR
 70
     0
  9
$PDMODE
 70
     0
  9
$PDSIZE
 40
0.0
  9
$PLINEWID
 40
0.0
  9
$COORDS
 70
     2
  9
$SPLFRAME
 70
     0
  9
$SPLINETYPE
 70
     6
  9
$SPLINESEGS
 70
     8
  9
$ATTDIA
 70
     0
  9
$ATTREQ
 70
     0
  9
$HANDLING
 70
     1
  9
$HANDSEED
  5
1E2
  9
$SURFTAB1
 70
    24
  9
$SURFTAB2
 70
    24
  9
$SURFTYPE
 70
     6
  9
$SURFU
 70
     6
  9
$SURFV
 70
     6
  9
$UCSNAME
  2

  9
$UCSORG
 10
0.0
 20
0.0
 30
0.0
  9
$UCSXDIR
 10
1.0
 20
0.0
 30
0.0
  9
$UCSYDIR
 10
0.0
 20
1.0
 30
0.0
  9
$PUCSNAME
  2

  9
$PUCSORG
 10
0.0
 20
0.0
 30
0.0
  9
$PUCSXDIR
 10
1.0
 20
0.0
 30
0.0
  9
$PUCSYDIR
 10
0.0
 20
1.0
 30
0.0
  9
$USERI1
 70
     0
  9
$USERI2
 70
     0
  9
$USERI3
 70
     0
  9
$USERI4
 70
     0
  9
$USERI5
 70
     0
  9
$USERR1
 40
0.0
  9
$USERR2
 40
0.0
  9
$USERR3
 40
0.0
  9
$USERR4
 40
0.0
  9
$USERR5
 40
0.0
  9
$WORLDVIEW
 70
     1
  9
$SHADEDGE
 70
     0
  9
$SHADEDIF
 70
    70
  9
$TILEMODE
 70
     1
  9
$MAXACTVP
 70
    16
  9
$PLIMCHECK
 70
     0
  9
$PEXTMIN
 10
-0.805942
 20
0.005011
 30
0.0
  9
$PEXTMAX
 10
20.250094
 20
11.356329
 30
0.0
  9
$PLIMMIN
 10
0.0
 20
0.0
  9
$PLIMMAX
 10
12.0
 20
9.0
  9
$UNITMODE
 70
     0
  9
$VISRETAIN
 70
     0
  9
$PLINEGEN
 70
     0
  9
$PSLTSCALE
 70
     0
  0
ENDSEC
  0
SECTION
  2
TABLES
  0
TABLE
  2
VPORT
 70
     2
  0
VPORT
  2
*ACTIVE
 70
     0
 10
0.0
 20
0.0
 11
1.0
 21
1.0
 12
207.865713
 22
555.963987
 13
0.0
 23
0.0
 14
1.0
 24
1.0
 15
50.0
 25
50.0
 16
0.0
 26
0.0
 36
1.0
 17
0.0
 27
0.0
 37
0.0
 40
1139.179429
 41
1.911765
 42
50.0
 43
0.0
 44
0.0
 50
0.0
 51
0.0
 71
     0
 72
   100
 73
     1
 74
     1
 75
     0
 76
     0
 77
     0
 78
     0
  0
ENDTAB
  0
TABLE
  2
LTYPE
 70
     3
  0
LTYPE
  2
CONTINUOUS
 70
     0
  3
Solid Line
 72
    65
 73
     0
 40
0.0
  0
LTYPE
  2
31
 70
     0
  3

 72
    65
 73
     4
 40
2.1
 49
1.5
 49
-0.3
 49
0.0
 49
-0.3
  0
LTYPE
  2
22
 70
     0
  3

 72
    65
 73
     2
 40
1.4
 49
1.2
 49
-0.2
  0
ENDTAB
  0
TABLE
  2
LAYER
 70
    12
  0
LAYER
  2
0
 70
     0
 62
     7
  6
CONTINUOUS
  0
LAYER
  2
DEFPOINTS
 70
     0
 62
     7
  6
CONTINUOUS
  0
LAYER
  2
TEAM-BODY
 70
     0
 62
     2
  6
CONTINUOUS
  0
LAYER
  2
TEAM-AXE
 70
     0
 62
    10
  6
31
  0
LAYER
  2
TEAM-MAS
 70
     0
 62
     9
  6
CONTINUOUS
  0
LAYER
  2
TEAM-TXT
 70
     0
 62
    11
  6
CONTINUOUS
  0
LAYER
  2
TEAM-DET1
 70
     0
 62
     4
  6
CONTINUOUS
  0
LAYER
  2
TEAM-COLD
 70
     0
 62
     3
  6
CONTINUOUS
  0
LAYER
  2
TEAM-HIDE
 70
     0
 62
     8
  6
22
  0
LAYER
  2
TEAM-KAN
 70
     0
 62
     6
  6
CONTINUOUS
  0
LAYER
  2
TEAM-WARM
 70
     0
 62
     1
  6
CONTINUOUS
  0
LAYER
  2
TEAM-INSP
 70
     0
 62
     5
  6
CONTINUOUS
  0
ENDTAB
  0
TABLE
  2
STYLE
 70
     2
  0
STYLE
  2
STANDARD
 70
     0
 40
0.0
 41
1.0
 50
0.0
 71
     0
 42
200.0
  3
txt
  4

  0
STYLE
  2
TEAM
 70
     0
 40
0.0
 41
0.8
 50
15.0
 71
     0
 42
7.0
  3
ROMANS.shx
  4

  0
ENDTAB
  0
TABLE
  2
VIEW
 70
     0
  0
ENDTAB
  0
TABLE
  2
UCS
 70
     0
  0
ENDTAB
  0
TABLE
  2
APPID
 70
     1
  0
APPID
  2
ACAD
 70
     0
  0
ENDTAB
  0
TABLE
  2
DIMSTYLE
 70
     1
  0
DIMSTYLE
  2
TEAM
 70
     0
  3

  4

  5

  6

  7

 40
0.0
 41
20.0
 42
10.0
 43
1.0
 44
1.0
 45
0.0
 46
0.0
 47
0.0
 48
0.0
140
35.0
141
1.0
142
0.0
143
25.4
144
1.0
145
0.0
146
1.0
147
7.0
 71
     0
 72
     0
 73
     0
 74
     0
 75
     0
 76
     0
 77
     0
 78
     0
170
     0
171
     2
172
     0
173
     0
174
     0
175
     0
176
     9
177
     9
178
    11
  0
ENDTAB
  0
ENDSEC
  0
SECTION
  2
BLOCKS
  0
BLOCK
  8
0
  2
$MODEL_SPACE
 70
     0
 10
0.0
 20
0.0
 30
0.0
  3
$MODEL_SPACE
  1

  0
ENDBLK
  5
1D6
  8
0
  0
BLOCK
 67
     1
  8
0
  2
$PAPER_SPACE
 70
     0
 10
0.0
 20
0.0
 30
0.0
  3
$PAPER_SPACE
  1

  0
ENDBLK
  5
1D4
 67
     1
  8
0
  0
BLOCK
  8
0
  2
*D0
 70
     1
 10
0.0
 20
0.0
 30
0.0
  3
*D0
  1

  0
LINE
  5
152
  8
0
  6
BYBLOCK
 62
     9
 10
4000.967761
 20
80000.0
 30
0.0
 11
4806.092105
 21
80000.0
 31
0.0
  0
LINE
  5
153
  8
0
  6
BYBLOCK
 62
     9
 10
4497.534952
 20
80800.0
 30
0.0
 11
4806.092105
 21
80800.0
 31
0.0
  0
LINE
  5
154
  8
0
  6
BYBLOCK
 62
     9
 10
4805.092105
 20
80020.0
 30
0.0
 11
4805.092105
 21
80285.083333
 31
0.0
  0
LINE
  5
155
  8
0
  6
BYBLOCK
 62
     9
 10
4805.092105
 20
80780.0
 30
0.0
 11
4805.092105
 21
80514.916667
 31
0.0
  0
SOLID
  5
156
  8
0
  6
BYBLOCK
 62
     9
 10
4801.758772
 20
80020.0
 30
0.0
 11
4808.425439
 21
80020.0
 31
0.0
 12
4805.092105
 22
80000.0
 32
0.0
 13
4805.092105
 23
80000.0
 33
0.0
  0
SOLID
  5
157
  8
0
  6
BYBLOCK
 62
     9
 10
4801.758772
 20
80780.0
 30
0.0
 11
4808.425439
 21
80780.0
 31
0.0
 12
4805.092105
 22
80800.0
 32
0.0
 13
4805.092105
 23
80800.0
 33
0.0
  0
TEXT
  5
158
  8
0
  6
BYBLOCK
 62
    11
 10
4822.592105
 20
80292.083333
 30
0.0
 40
35.0
  1
600-850
 50
90.0
  0
POINT
  5
159
  8
DEFPOINTS
  6
BYBLOCK
 62
     0
 10
3990.967761
 20
80000.0
 30
0.0
  0
POINT
  5
15A
  8
DEFPOINTS
  6
BYBLOCK
 62
     0
 10
4487.534952
 20
80800.0
 30
0.0
  0
POINT
  5
15B
  8
DEFPOINTS
  6
BYBLOCK
 62
     0
 10
4805.092105
 20
80800.0
 30
0.0
  0
ENDBLK
  5
15D
  8
0
  0
BLOCK
  8
0
  2
*D1
 70
     1
 10
0.0
 20
0.0
 30
0.0
  3
*D1
  1

  0
LINE
  5
144
  8
0
  6
BYBLOCK
 62
     9
 10
4000.967761
 20
80000.0
 30
0.0
 11
4851.619376
 21
80000.0
 31
0.0
  0
LINE
  5
145
  8
0
  6
BYBLOCK
 62
     9
 10
4336.5
 20
81020.0
 30
0.0
 11
4851.619376
 21
81020.0
 31
0.0
  0
LINE
  5
146
  8
0
  6
BYBLOCK
 62
     9
 10
4850.619376
 20
80020.0
 30
0.0
 11
4850.619376
 21
80490.5
 31
0.0
  0
LINE
  5
147
  8
0
  6
BYBLOCK
 62
     9
 10
4850.619376
 20
81000.0
 30
0.0
 11
4850.619376
 21
80609.5
 31
0.0
  0
TEXT
  5
148
  8
0
  6
BYBLOCK
 62
    11
 10
4868.119376
 20
80497.5
 30
0.0
 40
35.0
  1
1020
 50
90.0
  0
SOLID
  5
149
  8
0
  6
BYBLOCK
 62
     9
 10
4847.286043
 20
80020.0
 30
0.0
 11
4853.952709
 21
80020.0
 31
0.0
 12
4850.619376
 22
80000.0
 32
0.0
 13
4850.619376
 23
80000.0
 33
0.0
  0
SOLID
  5
14A
  8
0
  6
BYBLOCK
 62
     9
 10
4847.286043
 20
81000.0
 30
0.0
 11
4853.952709
 21
81000.0
 31
0.0
 12
4850.619376
 22
81020.0
 32
0.0
 13
4850.619376
 23
81020.0
 33
0.0
  0
POINT
  5
14B
  8
DEFPOINTS
  6
BYBLOCK
 62
     0
 10
3990.967761
 20
80000.0
 30
0.0
  0
POINT
  5
14C
  8
DEFPOINTS
  6
BYBLOCK
 62
     0
 10
4326.5
 20
81020.0
 30
0.0
  0
POINT
  5
14D
  8
DEFPOINTS
  6
BYBLOCK
 62
     0
 10
4850.619376
 20
81020.0
 30
0.0
  0
ENDBLK
  5
14F
  8
0
  0
BLOCK
  8
0
  2
*D2
 70
     1
 10
0.0
 20
0.0
 30
0.0
  3
*D2
  1

  0
LINE
  5
136
  8
0
  6
BYBLOCK
 62
     9
 10
4507.534952
 20
80800.0
 30
0.0
 11
4669.511703
 21
80800.0
 31
0.0
  0
LINE
  5
137
  8
0
  6
BYBLOCK
 62
     9
 10
4000.967761
 20
80592.0
 30
0.0
 11
4669.511703
 21
80592.0
 31
0.0
  0
LINE
  5
138
  8
0
  6
BYBLOCK
 62
     9
 10
4668.511703
 20
80780.0
 30
0.0
 11
4668.511703
 21
80752.25
 31
0.0
  0
LINE
  5
139
  8
0
  6
BYBLOCK
 62
     9
 10
4668.511703
 20
80612.0
 30
0.0
 11
4668.511703
 21
80650.75
 31
0.0
  0
TEXT
  5
13A
  8
0
  6
BYBLOCK
 62
    11
 10
4666.320632
 20
80657.75
 30
0.0
 40
35.0
  1
208
 50
90.0
  0
SOLID
  5
13B
  8
0
  6
BYBLOCK
 62
     9
 10
4665.17837
 20
80780.0
 30
0.0
 11
4671.845036
 21
80780.0
 31
0.0
 12
4668.511703
 22
80800.0
 32
0.0
 13
4668.511703
 23
80800.0
 33
0.0
  0
SOLID
  5
13C
  8
0
  6
BYBLOCK
 62
     9
 10
4665.17837
 20
80612.0
 30
0.0
 11
4671.845036
 21
80612.0
 31
0.0
 12
4668.511703
 22
80592.0
 32
0.0
 13
4668.511703
 23
80592.0
 33
0.0
  0
POINT
  5
13D
  8
DEFPOINTS
  6
BYBLOCK
 62
     0
 10
4497.534952
 20
80800.0
 30
0.0
  0
POINT
  5
13E
  8
DEFPOINTS
  6
BYBLOCK
 62
     0
 10
3990.967761
 20
80592.0
 30
0.0
  0
POINT
  5
13F
  8
DEFPOINTS
  6
BYBLOCK
 62
     0
 10
4668.511703
 20
80592.0
 30
0.0
  0
ENDBLK
  5
141
  8
0
  0
BLOCK
  8
0
  2
*D3
 70
     1
 10
0.0
 20
0.0
 30
0.0
  3
*D3
  1

  0
LINE
  5
5B
  8
0
  6
BYBLOCK
 62
     9
 10
3750.0
 20
81050.0
 30
0.0
 11
3750.0
 21
81058.842428
 31
0.0
  0
LINE
  5
5C
  8
0
  6
BYBLOCK
 62
     9
 10
4250.0
 20
81050.0
 30
0.0
 11
4250.0
 21
81058.842428
 31
0.0
  0
LINE
  5
5D
  8
0
  6
BYBLOCK
 62
     9
 10
3770.0
 20
81057.842428
 30
0.0
 11
3952.166667
 21
81057.842428
 31
0.0
  0
LINE
  5
5E
  8
0
  6
BYBLOCK
 62
     9
 10
4230.0
 20
81057.842428
 30
0.0
 11
4047.833333
 21
81057.842428
 31
0.0
  0
SOLID
  5
5F
  8
0
  6
BYBLOCK
 62
     9
 10
3770.0
 20
81061.175762
 30
0.0
 11
3770.0
 21
81054.509095
 31
0.0
 12
3750.0
 22
81057.842428
 32
0.0
 13
3750.0
 23
81057.842428
 33
0.0
  0
SOLID
  5
60
  8
0
  6
BYBLOCK
 62
     9
 10
4230.0
 20
81061.175762
 30
0.0
 11
4230.0
 21
81054.509095
 31
0.0
 12
4250.0
 22
81057.842428
 32
0.0
 13
4250.0
 23
81057.842428
 33
0.0
  0
TEXT
  5
61
  8
0
  6
BYBLOCK
 62
    11
 10
3959.166667
 20
81040.342428
 30
0.0
 40
35.0
  1
500
  0
POINT
  5
62
  8
DEFPOINTS
  6
BYBLOCK
 62
     0
 10
3750.0
 20
81040.0
 30
0.0
  0
POINT
  5
63
  8
DEFPOINTS
  6
BYBLOCK
 62
     0
 10
4250.0
 20
81040.0
 30
0.0
  0
POINT
  5
64
  8
DEFPOINTS
  6
BYBLOCK
 62
     0
 10
4250.0
 20
81057.842428
 30
0.0
  0
ENDBLK
  5
66
  8
0
  0
BLOCK
  8
0
  2
*D4
 70
     1
 10
0.0
 20
0.0
 30
0.0
  3
*D4
  1

  0
LINE
  5
4D
  8
0
  6
BYBLOCK
 62
     9
 10
3500.0
 20
80852.003237
 30
0.0
 11
3500.0
 21
81105.432706
 31
0.0
  0
LINE
  5
4E
  8
0
  6
BYBLOCK
 62
     9
 10
4500.0
 20
80852.003237
 30
0.0
 11
4500.0
 21
81105.432706
 31
0.0
  0
LINE
  5
4F
  8
0
  6
BYBLOCK
 62
     9
 10
3520.0
 20
81104.432706
 30
0.0
 11
3943.416667
 21
81104.432706
 31
0.0
  0
LINE
  5
50
  8
0
  6
BYBLOCK
 62
     9
 10
4480.0
 20
81104.432706
 30
0.0
 11
4056.583333
 21
81104.432706
 31
0.0
  0
SOLID
  5
51
  8
0
  6
BYBLOCK
 62
     9
 10
3520.0
 20
81107.766039
 30
0.0
 11
3520.0
 21
81101.099373
 31
0.0
 12
3500.0
 22
81104.432706
 32
0.0
 13
3500.0
 23
81104.432706
 33
0.0
  0
SOLID
  5
52
  8
0
  6
BYBLOCK
 62
     9
 10
4480.0
 20
81107.766039
 30
0.0
 11
4480.0
 21
81101.099373
 31
0.0
 12
4500.0
 22
81104.432706
 32
0.0
 13
4500.0
 23
81104.432706
 33
0.0
  0
TEXT
  5
53
  8
0
  6
BYBLOCK
 62
    11
 10
3950.416667
 20
81086.932706
 30
0.0
 40
35.0
  1
1000
  0
POINT
  5
54
  8
DEFPOINTS
  6
BYBLOCK
 62
     0
 10
3500.0
 20
80842.003237
 30
0.0
  0
POINT
  5
55
  8
DEFPOINTS
  6
BYBLOCK
 62
     0
 10
4500.0
 20
80842.003237
 30
0.0
  0
POINT
  5
56
  8
DEFPOINTS
  6
BYBLOCK
 62
     0
 10
4500.0
 20
81104.432706
 30
0.0
  0
ENDBLK
  5
58
  8
0
  0
BLOCK
  8
0
  2
*D5
 70
     1
 10
0.0
 20
0.0
 30
0.0
  3
*D5
  1

  0
LINE
  5
128
  8
0
  6
BYBLOCK
 62
     9
 10
4360.0
 20
80766.0
 30
0.0
 11
4360.0
 21
80883.444865
 31
0.0
  0
LINE
  5
129
  8
0
  6
BYBLOCK
 62
     9
 10
4000.0
 20
80836.576435
 30
0.0
 11
4000.0
 21
80883.444865
 31
0.0
  0
LINE
  5
12A
  8
0
  6
BYBLOCK
 62
     9
 10
4340.0
 20
80882.444865
 30
0.0
 11
4230.75
 21
80882.444865
 31
0.0
  0
LINE
  5
12B
  8
0
  6
BYBLOCK
 62
     9
 10
4020.0
 20
80882.444865
 30
0.0
 11
4129.25
 21
80882.444865
 31
0.0
  0
SOLID
  5
12C
  8
0
  6
BYBLOCK
 62
     9
 10
4340.0
 20
80885.778198
 30
0.0
 11
4340.0
 21
80879.111532
 31
0.0
 12
4360.0
 22
80882.444865
 32
0.0
 13
4360.0
 23
80882.444865
 33
0.0
  0
SOLID
  5
12D
  8
0
  6
BYBLOCK
 62
     9
 10
4020.0
 20
80885.778198
 30
0.0
 11
4020.0
 21
80879.111532
 31
0.0
 12
4000.0
 22
80882.444865
 32
0.0
 13
4000.0
 23
80882.444865
 33
0.0
  0
TEXT
  5
12E
  8
0
  6
BYBLOCK
 62
    11
 10
4136.25
 20
80864.944865
 30
0.0
 40
35.0
  1
360
  0
POINT
  5
12F
  8
DEFPOINTS
  6
BYBLOCK
 62
     0
 10
4360.0
 20
80756.0
 30
0.0
  0
POINT
  5
130
  8
DEFPOINTS
  6
BYBLOCK
 62
     0
 10
4000.0
 20
80826.576435
 30
0.0
  0
POINT
  5
131
  8
DEFPOINTS
  6
BYBLOCK
 62
     0
 10
4000.0
 20
80882.444865
 30
0.0
  0
ENDBLK
  5
133
  8
0
  0
BLOCK
  8
0
  2
*D6
 70
     1
 10
0.0
 20
0.0
 30
0.0
  3
*D6
  1

  0
LINE
  5
11A
  8
0
  6
BYBLOCK
 62
     9
 10
4000.967761
 20
80000.0
 30
0.0
 11
4717.105701
 21
80000.0
 31
0.0
  0
LINE
  5
11B
  8
0
  6
BYBLOCK
 62
     9
 10
4000.967761
 20
80460.0
 30
0.0
 11
4717.105701
 21
80460.0
 31
0.0
  0
LINE
  5
11C
  8
0
  6
BYBLOCK
 62
     9
 10
4716.105701
 20
80020.0
 30
0.0
 11
4716.105701
 21
80118.0
 31
0.0
  0
LINE
  5
11D
  8
0
  6
BYBLOCK
 62
     9
 10
4716.105701
 20
80440.0
 30
0.0
 11
4716.105701
 21
80342.0
 31
0.0
  0
SOLID
  5
11E
  8
0
  6
BYBLOCK
 62
     9
 10
4712.772368
 20
80020.0
 30
0.0
 11
4719.439035
 21
80020.0
 31
0.0
 12
4716.105701
 22
80000.0
 32
0.0
 13
4716.105701
 23
80000.0
 33
0.0
  0
SOLID
  5
11F
  8
0
  6
BYBLOCK
 62
     9
 10
4712.772368
 20
80440.0
 30
0.0
 11
4719.439035
 21
80440.0
 31
0.0
 12
4716.105701
 22
80460.0
 32
0.0
 13
4716.105701
 23
80460.0
 33
0.0
  0
TEXT
  5
120
  8
0
  6
BYBLOCK
 62
    11
 10
4733.605701
 20
80125.0
 30
0.0
 40
35.0
  1
300-500
 50
90.0
  0
POINT
  5
121
  8
DEFPOINTS
  6
BYBLOCK
 62
     0
 10
3990.967761
 20
80000.0
 30
0.0
  0
POINT
  5
122
  8
DEFPOINTS
  6
BYBLOCK
 62
     0
 10
3990.967761
 20
80460.0
 30
0.0
  0
POINT
  5
123
  8
DEFPOINTS
  6
BYBLOCK
 62
     0
 10
4716.105701
 20
80460.0
 30
0.0
  0
ENDBLK
  5
125
  8
0
  0
BLOCK
  8
0
  2
*D7
 70
     1
 10
0.0
 20
0.0
 30
0.0
  3
*D7
  1

  0
LINE
  5
10C
  8
0
  6
BYBLOCK
 62
     9
 10
4000.967761
 20
80000.0
 30
0.0
 11
4669.511703
 21
80000.0
 31
0.0
  0
LINE
  5
10D
  8
0
  6
BYBLOCK
 62
     9
 10
4000.967761
 20
80460.0
 30
0.0
 11
4669.511703
 21
80460.0
 31
0.0
  0
LINE
  5
10E
  8
0
  6
BYBLOCK
 62
     9
 10
4668.511703
 20
80020.0
 30
0.0
 11
4668.511703
 21
80179.25
 31
0.0
  0
LINE
  5
10F
  8
0
  6
BYBLOCK
 62
     9
 10
4668.511703
 20
80440.0
 30
0.0
 11
4668.511703
 21
80280.75
 31
0.0
  0
SOLID
  5
110
  8
0
  6
BYBLOCK
 62
     9
 10
4665.17837
 20
80020.0
 30
0.0
 11
4671.845036
 21
80020.0
 31
0.0
 12
4668.511703
 22
80000.0
 32
0.0
 13
4668.511703
 23
80000.0
 33
0.0
  0
SOLID
  5
111
  8
0
  6
BYBLOCK
 62
     9
 10
4665.17837
 20
80440.0
 30
0.0
 11
4671.845036
 21
80440.0
 31
0.0
 12
4668.511703
 22
80460.0
 32
0.0
 13
4668.511703
 23
80460.0
 33
0.0
  0
TEXT
  5
112
  8
0
  6
BYBLOCK
 62
    11
 10
4686.011703
 20
80186.25
 30
0.0
 40
35.0
  1
460
 50
90.0
  0
POINT
  5
113
  8
DEFPOINTS
  6
BYBLOCK
 62
     0
 10
3990.967761
 20
80000.0
 30
0.0
  0
POINT
  5
114
  8
DEFPOINTS
  6
BYBLOCK
 62
     0
 10
3990.967761
 20
80460.0
 30
0.0
  0
POINT
  5
115
  8
DEFPOINTS
  6
BYBLOCK
 62
     0
 10
4668.511703
 20
80460.0
 30
0.0
  0
ENDBLK
  5
117
  8
0
  0
BLOCK
  8
0
  2
*D8
 70
     1
 10
0.0
 20
0.0
 30
0.0
  3
*D8
  1

  0
LINE
  5
3F
  8
0
  6
BYBLOCK
 62
     9
 10
3900.0
 20
80545.0
 30
0.0
 11
3900.0
 21
80257.30533
 31
0.0
  0
LINE
  5
40
  8
0
  6
BYBLOCK
 62
     9
 10
4100.0
 20
80545.0
 30
0.0
 11
4100.0
 21
80257.30533
 31
0.0
  0
LINE
  5
41
  8
0
  6
BYBLOCK
 62
     9
 10
3920.0
 20
80258.30533
 30
0.0
 11
3952.166667
 21
80258.30533
 31
0.0
  0
LINE
  5
42
  8
0
  6
BYBLOCK
 62
     9
 10
4080.0
 20
80258.30533
 30
0.0
 11
4047.833333
 21
80258.30533
 31
0.0
  0
SOLID
  5
43
  8
0
  6
BYBLOCK
 62
     9
 10
3920.0
 20
80261.638663
 30
0.0
 11
3920.0
 21
80254.971996
 31
0.0
 12
3900.0
 22
80258.30533
 32
0.0
 13
3900.0
 23
80258.30533
 33
0.0
  0
SOLID
  5
44
  8
0
  6
BYBLOCK
 62
     9
 10
4080.0
 20
80261.638663
 30
0.0
 11
4080.0
 21
80254.971996
 31
0.0
 12
4100.0
 22
80258.30533
 32
0.0
 13
4100.0
 23
80258.30533
 33
0.0
  0
TEXT
  5
45
  8
0
  6
BYBLOCK
 62
    11
 10
3959.166667
 20
80240.80533
 30
0.0
 40
35.0
  1
200
  0
POINT
  5
46
  8
DEFPOINTS
  6
BYBLOCK
 62
     0
 10
3900.0
 20
80555.0
 30
0.0
  0
POINT
  5
47
  8
DEFPOINTS
  6
BYBLOCK
 62
     0
 10
4100.0
 20
80555.0
 30
0.0
  0
POINT
  5
48
  8
DEFPOINTS
  6
BYBLOCK
 62
     0
 10
4100.0
 20
80258.30533
 30
0.0
  0
ENDBLK
  5
4A
  8
0
  0
BLOCK
  8
0
  2
*D9
 70
     1
 10
0.0
 20
0.0
 30
0.0
  3
*D9
  1

  0
LINE
  5
FE
  8
0
  6
BYBLOCK
 62
     9
 10
4480.990976
 20
80800.0
 30
0.0
 11
4717.105701
 21
80800.0
 31
0.0
  0
LINE
  5
FF
  8
0
  6
BYBLOCK
 62
     9
 10
4000.967761
 20
80460.0
 30
0.0
 11
4717.105701
 21
80460.0
 31
0.0
  0
LINE
  5
100
  8
0
  6
BYBLOCK
 62
     9
 10
4716.105701
 20
80780.0
 30
0.0
 11
4716.105701
 21
80696.25
 31
0.0
  0
LINE
  5
101
  8
0
  6
BYBLOCK
 62
     9
 10
4716.105701
 20
80480.0
 30
0.0
 11
4716.105701
 21
80594.75
 31
0.0
  0
TEXT
  5
102
  8
0
  6
BYBLOCK
 62
    11
 10
4733.605701
 20
80601.75
 30
0.0
 40
35.0
  1
340
 50
90.0
  0
SOLID
  5
103
  8
0
  6
BYBLOCK
 62
     9
 10
4712.772368
 20
80780.0
 30
0.0
 11
4719.439035
 21
80780.0
 31
0.0
 12
4716.105701
 22
80800.0
 32
0.0
 13
4716.105701
 23
80800.0
 33
0.0
  0
SOLID
  5
104
  8
0
  6
BYBLOCK
 62
     9
 10
4712.772368
 20
80480.0
 30
0.0
 11
4719.439035
 21
80480.0
 31
0.0
 12
4716.105701
 22
80460.0
 32
0.0
 13
4716.105701
 23
80460.0
 33
0.0
  0
POINT
  5
105
  8
DEFPOINTS
  6
BYBLOCK
 62
     0
 10
4470.990976
 20
80800.0
 30
0.0
  0
POINT
  5
106
  8
DEFPOINTS
  6
BYBLOCK
 62
     0
 10
3990.967761
 20
80460.0
 30
0.0
  0
POINT
  5
107
  8
DEFPOINTS
  6
BYBLOCK
 62
     0
 10
4716.105701
 20
80460.0
 30
0.0
  0
ENDBLK
  5
109
  8
0
  0
BLOCK
  8
0
  2
*D10
 70
     1
 10
0.0
 20
0.0
 30
0.0
  3
*D10
  1

  0
LINE
  5
F0
  8
0
  6
BYBLOCK
 62
     9
 10
4000.967761
 20
80000.0
 30
0.0
 11
4760.564835
 21
80000.0
 31
0.0
  0
LINE
  5
F1
  8
0
  6
BYBLOCK
 62
     9
 10
4497.534952
 20
80800.0
 30
0.0
 11
4760.564835
 21
80800.0
 31
0.0
  0
LINE
  5
F2
  8
0
  6
BYBLOCK
 62
     9
 10
4759.564835
 20
80020.0
 30
0.0
 11
4759.564835
 21
80352.166667
 31
0.0
  0
LINE
  5
F3
  8
0
  6
BYBLOCK
 62
     9
 10
4759.564835
 20
80780.0
 30
0.0
 11
4759.564835
 21
80447.833333
 31
0.0
  0
SOLID
  5
F4
  8
0
  6
BYBLOCK
 62
     9
 10
4756.231502
 20
80020.0
 30
0.0
 11
4762.898168
 21
80020.0
 31
0.0
 12
4759.564835
 22
80000.0
 32
0.0
 13
4759.564835
 23
80000.0
 33
0.0
  0
SOLID
  5
F5
  8
0
  6
BYBLOCK
 62
     9
 10
4756.231502
 20
80780.0
 30
0.0
 11
4762.898168
 21
80780.0
 31
0.0
 12
4759.564835
 22
80800.0
 32
0.0
 13
4759.564835
 23
80800.0
 33
0.0
  0
TEXT
  5
F6
  8
0
  6
BYBLOCK
 62
    11
 10
4777.064835
 20
80359.166667
 30
0.0
 40
35.0
  1
800
 50
90.0
  0
POINT
  5
F7
  8
DEFPOINTS
  6
BYBLOCK
 62
     0
 10
3990.967761
 20
80000.0
 30
0.0
  0
POINT
  5
F8
  8
DEFPOINTS
  6
BYBLOCK
 62
     0
 10
4487.534952
 20
80800.0
 30
0.0
  0
POINT
  5
F9
  8
DEFPOINTS
  6
BYBLOCK
 62
     0
 10
4759.564835
 20
80800.0
 30
0.0
  0
ENDBLK
  5
FB
  8
0
  0
BLOCK
  8
0
  2
*D11
 70
     1
 10
0.0
 20
0.0
 30
0.0
  3
*D11
  1

  0
LINE
  5
E2
  8
0
  6
BYBLOCK
 62
     9
 10
4300.0
 20
80542.0
 30
0.0
 11
4300.0
 21
80320.707486
 31
0.0
  0
LINE
  5
E3
  8
0
  6
BYBLOCK
 62
     9
 10
4000.0
 20
80420.0
 30
0.0
 11
4000.0
 21
80320.707486
 31
0.0
  0
LINE
  5
E4
  8
0
  6
BYBLOCK
 62
     9
 10
4280.0
 20
80321.707486
 30
0.0
 11
4197.833333
 21
80321.707486
 31
0.0
  0
LINE
  5
E5
  8
0
  6
BYBLOCK
 62
     9
 10
4020.0
 20
80321.707486
 30
0.0
 11
4102.166667
 21
80321.707486
 31
0.0
  0
SOLID
  5
E6
  8
0
  6
BYBLOCK
 62
     9
 10
4280.0
 20
80325.04082
 30
0.0
 11
4280.0
 21
80318.374153
 31
0.0
 12
4300.0
 22
80321.707486
 32
0.0
 13
4300.0
 23
80321.707486
 33
0.0
  0
SOLID
  5
E7
  8
0
  6
BYBLOCK
 62
     9
 10
4020.0
 20
80325.04082
 30
0.0
 11
4020.0
 21
80318.374153
 31
0.0
 12
4000.0
 22
80321.707486
 32
0.0
 13
4000.0
 23
80321.707486
 33
0.0
  0
TEXT
  5
E8
  8
0
  6
BYBLOCK
 62
    11
 10
4109.166667
 20
80304.207486
 30
0.0
 40
35.0
  1
300
  0
POINT
  5
E9
  8
DEFPOINTS
  6
BYBLOCK
 62
     0
 10
4300.0
 20
80552.0
 30
0.0
  0
POINT
  5
EA
  8
DEFPOINTS
  6
BYBLOCK
 62
     0
 10
4000.0
 20
80430.0
 30
0.0
  0
POINT
  5
EB
  8
DEFPOINTS
  6
BYBLOCK
 62
     0
 10
4000.0
 20
80321.707486
 30
0.0
  0
ENDBLK
  5
ED
  8
0
  0
BLOCK
  8
0
  2
*D12
 70
     1
 10
0.0
 20
0.0
 30
0.0
  3
*D12
  1

  0
LINE
  5
D4
  8
0
  6
BYBLOCK
 62
     9
 10
4000.967761
 20
80000.0
 30
0.0
 11
4899.214783
 21
80000.0
 31
0.0
  0
LINE
  5
D5
  8
0
  6
BYBLOCK
 62
     9
 10
4336.5
 20
81020.0
 30
0.0
 11
4899.214783
 21
81020.0
 31
0.0
  0
LINE
  5
D6
  8
0
  6
BYBLOCK
 62
     9
 10
4898.214783
 20
80020.0
 30
0.0
 11
4898.214783
 21
80423.416667
 31
0.0
  0
LINE
  5
D7
  8
0
  6
BYBLOCK
 62
     9
 10
4898.214783
 20
81000.0
 30
0.0
 11
4898.214783
 21
80676.583333
 31
0.0
  0
TEXT
  5
D8
  8
0
  6
BYBLOCK
 62
    11
 10
4915.714783
 20
80430.416667
 30
0.0
 40
35.0
  1
950-1200
 50
90.0
  0
SOLID
  5
D9
  8
0
  6
BYBLOCK
 62
     9
 10
4894.88145
 20
80020.0
 30
0.0
 11
4901.548116
 21
80020.0
 31
0.0
 12
4898.214783
 22
80000.0
 32
0.0
 13
4898.214783
 23
80000.0
 33
0.0
  0
SOLID
  5
DA
  8
0
  6
BYBLOCK
 62
     9
 10
4894.88145
 20
81000.0
 30
0.0
 11
4901.548116
 21
81000.0
 31
0.0
 12
4898.214783
 22
81020.0
 32
0.0
 13
4898.214783
 23
81020.0
 33
0.0
  0
POINT
  5
DB
  8
DEFPOINTS
  6
BYBLOCK
 62
     0
 10
3990.967761
 20
80000.0
 30
0.0
  0
POINT
  5
DC
  8
DEFPOINTS
  6
BYBLOCK
 62
     0
 10
4326.5
 20
81020.0
 30
0.0
  0
POINT
  5
DD
  8
DEFPOINTS
  6
BYBLOCK
 62
     0
 10
4898.214783
 20
81020.0
 30
0.0
  0
ENDBLK
  5
DF
  8
0
  0
BLOCK
  8
0
  2
*D13
 70
     1
 10
0.0
 20
0.0
 30
0.0
  3
*D13
  1

  0
LINE
  5
71
  8
0
  6
BYBLOCK
 62
     9
 10
3673.5
 20
81010.0
 30
0.0
 11
3673.5
 21
80950.546271
 31
0.0
  0
LINE
  5
72
  8
0
  6
BYBLOCK
 62
     9
 10
3826.5
 20
81010.0
 30
0.0
 11
3826.5
 21
80950.546271
 31
0.0
  0
LINE
  5
73
  8
0
  6
BYBLOCK
 62
     9
 10
3693.5
 20
80951.546271
 30
0.0
 11
3702.166667
 21
80951.546271
 31
0.0
  0
LINE
  5
74
  8
0
  6
BYBLOCK
 62
     9
 10
3806.5
 20
80951.546271
 30
0.0
 11
3797.833333
 21
80951.546271
 31
0.0
  0
SOLID
  5
75
  8
0
  6
BYBLOCK
 62
     9
 10
3693.5
 20
80954.879604
 30
0.0
 11
3693.5
 21
80948.212938
 31
0.0
 12
3673.5
 22
80951.546271
 32
0.0
 13
3673.5
 23
80951.546271
 33
0.0
  0
SOLID
  5
76
  8
0
  6
BYBLOCK
 62
     9
 10
3806.5
 20
80954.879604
 30
0.0
 11
3806.5
 21
80948.212938
 31
0.0
 12
3826.5
 22
80951.546271
 32
0.0
 13
3826.5
 23
80951.546271
 33
0.0
  0
TEXT
  5
77
  8
0
  6
BYBLOCK
 62
    11
 10
3709.166667
 20
80934.046271
 30
0.0
 40
35.0
  1
153
  0
POINT
  5
78
  8
DEFPOINTS
  6
BYBLOCK
 62
     0
 10
3673.5
 20
81020.0
 30
0.0
  0
POINT
  5
79
  8
DEFPOINTS
  6
BYBLOCK
 62
     0
 10
3826.5
 20
81020.0
 30
0.0
  0
POINT
  5
7A
  8
DEFPOINTS
  6
BYBLOCK
 62
     0
 10
3826.5
 20
80951.546271
 30
0.0
  0
ENDBLK
  5
7C
  8
0
  0
BLOCK
  8
0
  2
*D14
 70
     1
 10
0.0
 20
0.0
 30
0.0
  3
*D14
  1

  0
LINE
  5
31
  8
0
  6
BYBLOCK
 62
     9
 10
3640.0
 20
80766.0
 30
0.0
 11
3640.0
 21
80883.444865
 31
0.0
  0
LINE
  5
32
  8
0
  6
BYBLOCK
 62
     9
 10
4000.0
 20
80836.576435
 30
0.0
 11
4000.0
 21
80883.444865
 31
0.0
  0
LINE
  5
33
  8
0
  6
BYBLOCK
 62
     9
 10
3660.0
 20
80882.444865
 30
0.0
 11
3769.25
 21
80882.444865
 31
0.0
  0
LINE
  5
34
  8
0
  6
BYBLOCK
 62
     9
 10
3980.0
 20
80882.444865
 30
0.0
 11
3870.75
 21
80882.444865
 31
0.0
  0
SOLID
  5
35
  8
0
  6
BYBLOCK
 62
     9
 10
3660.0
 20
80885.778198
 30
0.0
 11
3660.0
 21
80879.111532
 31
0.0
 12
3640.0
 22
80882.444865
 32
0.0
 13
3640.0
 23
80882.444865
 33
0.0
  0
SOLID
  5
36
  8
0
  6
BYBLOCK
 62
     9
 10
3980.0
 20
80885.778198
 30
0.0
 11
3980.0
 21
80879.111532
 31
0.0
 12
4000.0
 22
80882.444865
 32
0.0
 13
4000.0
 23
80882.444865
 33
0.0
  0
TEXT
  5
37
  8
0
  6
BYBLOCK
 62
    11
 10
3776.25
 20
80864.944865
 30
0.0
 40
35.0
  1
360
  0
POINT
  5
38
  8
DEFPOINTS
  6
BYBLOCK
 62
     0
 10
3640.0
 20
80756.0
 30
0.0
  0
POINT
  5
39
  8
DEFPOINTS
  6
BYBLOCK
 62
     0
 10
4000.0
 20
80826.576435
 30
0.0
  0
POINT
  5
3A
  8
DEFPOINTS
  6
BYBLOCK
 62
     0
 10
4000.0
 20
80882.444865
 30
0.0
  0
ENDBLK
  5
3C
  8
0
  0
BLOCK
  8
0
  2
*D15
 70
     1
 10
0.0
 20
0.0
 30
0.0
  3
*D15
  1

  0
LINE
  5
22
  8
0
  6
BYBLOCK
 62
     9
 10
4000.0
 20
80420.0
 30
0.0
 11
4000.0
 21
80320.707486
 31
0.0
  0
LINE
  5
23
  8
0
  6
BYBLOCK
 62
     9
 10
3700.0
 20
80542.0
 30
0.0
 11
3700.0
 21
80320.707486
 31
0.0
  0
LINE
  5
24
  8
0
  6
BYBLOCK
 62
     9
 10
3980.0
 20
80321.707486
 30
0.0
 11
3897.833333
 21
80321.707486
 31
0.0
  0
LINE
  5
25
  8
0
  6
BYBLOCK
 62
     9
 10
3720.0
 20
80321.707486
 30
0.0
 11
3802.166667
 21
80321.707486
 31
0.0
  0
SOLID
  5
26
  8
0
  6
BYBLOCK
 62
     9
 10
3980.0
 20
80325.04082
 30
0.0
 11
3980.0
 21
80318.374153
 31
0.0
 12
4000.0
 22
80321.707486
 32
0.0
 13
4000.0
 23
80321.707486
 33
0.0
  0
SOLID
  5
27
  8
0
  6
BYBLOCK
 62
     9
 10
3720.0
 20
80325.04082
 30
0.0
 11
3720.0
 21
80318.374153
 31
0.0
 12
3700.0
 22
80321.707486
 32
0.0
 13
3700.0
 23
80321.707486
 33
0.0
  0
TEXT
  5
28
  8
0
  6
BYBLOCK
 62
    11
 10
3809.166667
 20
80304.207486
 30
0.0
 40
35.0
  1
300
  0
POINT
  5
29
  8
DEFPOINTS
  6
BYBLOCK
 62
     0
 10
4000.0
 20
80430.0
 30
0.0
  0
POINT
  5
2B
  8
DEFPOINTS
  6
BYBLOCK
 62
     0
 10
3700.0
 20
80552.0
 30
0.0
  0
POINT
  5
2C
  8
DEFPOINTS
  6
BYBLOCK
 62
     0
 10
3700.0
 20
80321.707486
 30
0.0
  0
ENDBLK
  5
2E
  8
0
  0
BLOCK
  8
0
  2
*D16
 70
     1
 10
0.0
 20
0.0
 30
0.0
  3
*D16
  1

  0
LINE
  5
C5
  8
0
  6
BYBLOCK
 62
     9
 10
4510.0
 20
80800.0
 30
0.0
 11
4560.149331
 21
80800.0
 31
0.0
  0
LINE
  5
C6
  8
0
  6
BYBLOCK
 62
     9
 10
4366.967761
 20
80750.0
 30
0.0
 11
4560.149331
 21
80750.0
 31
0.0
  0
LINE
  5
C7
  8
0
  6
BYBLOCK
 62
     9
 10
4559.149331
 20
80820.0
 30
0.0
 11
4559.149331
 21
80840.0
 31
0.0
  0
LINE
  5
C8
  8
0
  6
BYBLOCK
 62
     9
 10
4559.149331
 20
80730.0
 30
0.0
 11
4559.149331
 21
80710.0
 31
0.0
  0
TEXT
  5
C9
  8
0
  6
BYBLOCK
 62
    11
 10
4552.303596
 20
80748.75
 30
0.0
 40
35.0
  1
50
 50
90.0
  0
LINE
  5
CA
  8
0
  6
BYBLOCK
 62
     9
 10
4559.149331
 20
80800.0
 30
0.0
 11
4559.149331
 21
80750.0
 31
0.0
  0
SOLID
  5
CB
  8
0
  6
BYBLOCK
 62
     9
 10
4555.815997
 20
80820.0
 30
0.0
 11
4562.482664
 21
80820.0
 31
0.0
 12
4559.149331
 22
80800.0
 32
0.0
 13
4559.149331
 23
80800.0
 33
0.0
  0
SOLID
  5
CC
  8
0
  6
BYBLOCK
 62
     9
 10
4555.815997
 20
80730.0
 30
0.0
 11
4562.482664
 21
80730.0
 31
0.0
 12
4559.149331
 22
80750.0
 32
0.0
 13
4559.149331
 23
80750.0
 33
0.0
  0
POINT
  5
CD
  8
DEFPOINTS
  6
BYBLOCK
 62
     0
 10
4500.0
 20
80800.0
 30
0.0
  0
POINT
  5
CE
  8
DEFPOINTS
  6
BYBLOCK
 62
     0
 10
4356.967761
 20
80750.0
 30
0.0
  0
POINT
  5
CF
  8
DEFPOINTS
  6
BYBLOCK
 62
     0
 10
4559.149331
 20
80750.0
 30
0.0
  0
ENDBLK
  5
D1
  8
0
  0
BLOCK
  8
0
  2
*D17
 70
     1
 10
0.0
 20
0.0
 30
0.0
  3
*D17
  1

  0
LINE
  5
B7
  8
0
  6
BYBLOCK
 62
     9
 10
4510.0
 20
80800.0
 30
0.0
 11
4600.5098
 21
80800.0
 31
0.0
  0
LINE
  5
B8
  8
0
  6
BYBLOCK
 62
     9
 10
4306.967761
 20
80558.0
 30
0.0
 11
4600.5098
 21
80558.0
 31
0.0
  0
LINE
  5
B9
  8
0
  6
BYBLOCK
 62
     9
 10
4599.5098
 20
80780.0
 30
0.0
 11
4599.5098
 21
80732.666667
 31
0.0
  0
LINE
  5
BA
  8
0
  6
BYBLOCK
 62
     9
 10
4599.5098
 20
80578.0
 30
0.0
 11
4599.5098
 21
80625.333333
 31
0.0
  0
TEXT
  5
BB
  8
0
  6
BYBLOCK
 62
    11
 10
4594.128635
 20
80632.333333
 30
0.0
 40
35.0
  1
242
 50
90.0
  0
SOLID
  5
BC
  8
0
  6
BYBLOCK
 62
     9
 10
4596.176466
 20
80780.0
 30
0.0
 11
4602.843133
 21
80780.0
 31
0.0
 12
4599.5098
 22
80800.0
 32
0.0
 13
4599.5098
 23
80800.0
 33
0.0
  0
SOLID
  5
BD
  8
0
  6
BYBLOCK
 62
     9
 10
4596.176466
 20
80578.0
 30
0.0
 11
4602.843133
 21
80578.0
 31
0.0
 12
4599.5098
 22
80558.0
 32
0.0
 13
4599.5098
 23
80558.0
 33
0.0
  0
POINT
  5
BE
  8
DEFPOINTS
  6
BYBLOCK
 62
     0
 10
4500.0
 20
80800.0
 30
0.0
  0
POINT
  5
BF
  8
DEFPOINTS
  6
BYBLOCK
 62
     0
 10
4296.967761
 20
80558.0
 30
0.0
  0
POINT
  5
C0
  8
DEFPOINTS
  6
BYBLOCK
 62
     0
 10
4599.5098
 20
80558.0
 30
0.0
  0
ENDBLK
  5
C2
  8
0
  0
BLOCK
  8
0
  2
*D18
 70
     1
 10
0.0
 20
0.0
 30
0.0
  3
*D18
  1

  0
LINE
  5
A9
  8
0
  6
BYBLOCK
 62
     9
 10
4173.5
 20
81010.0
 30
0.0
 11
4173.5
 21
80950.546271
 31
0.0
  0
LINE
  5
AA
  8
0
  6
BYBLOCK
 62
     9
 10
4326.5
 20
81010.0
 30
0.0
 11
4326.5
 21
80950.546271
 31
0.0
  0
LINE
  5
AB
  8
0
  6
BYBLOCK
 62
     9
 10
4193.5
 20
80951.546271
 30
0.0
 11
4202.166667
 21
80951.546271
 31
0.0
  0
LINE
  5
AC
  8
0
  6
BYBLOCK
 62
     9
 10
4306.5
 20
80951.546271
 30
0.0
 11
4297.833333
 21
80951.546271
 31
0.0
  0
SOLID
  5
AD
  8
0
  6
BYBLOCK
 62
     9
 10
4193.5
 20
80954.879604
 30
0.0
 11
4193.5
 21
80948.212938
 31
0.0
 12
4173.5
 22
80951.546271
 32
0.0
 13
4173.5
 23
80951.546271
 33
0.0
  0
SOLID
  5
AE
  8
0
  6
BYBLOCK
 62
     9
 10
4306.5
 20
80954.879604
 30
0.0
 11
4306.5
 21
80948.212938
 31
0.0
 12
4326.5
 22
80951.546271
 32
0.0
 13
4326.5
 23
80951.546271
 33
0.0
  0
TEXT
  5
AF
  8
0
  6
BYBLOCK
 62
    11
 10
4209.166667
 20
80934.046271
 30
0.0
 40
35.0
  1
153
  0
POINT
  5
B0
  8
DEFPOINTS
  6
BYBLOCK
 62
     0
 10
4173.5
 20
81020.0
 30
0.0
  0
POINT
  5
B1
  8
DEFPOINTS
  6
BYBLOCK
 62
     0
 10
4326.5
 20
81020.0
 30
0.0
  0
POINT
  5
B2
  8
DEFPOINTS
  6
BYBLOCK
 62
     0
 10
4326.5
 20
80951.546271
 30
0.0
  0
ENDBLK
  5
B4
  8
0
  0
BLOCK
  8
0
  2
*D19
 70
     1
 10
0.0
 20
0.0
 30
0.0
  3
*D19
  1

  0
LINE
  5
9A
  8
0
  6
BYBLOCK
 62
     9
 10
4510.0
 20
80842.003237
 30
0.0
 11
4669.511703
 21
80842.003237
 31
0.0
  0
LINE
  5
9B
  8
0
  6
BYBLOCK
 62
     9
 10
4507.534952
 20
80800.0
 30
0.0
 11
4669.511703
 21
80800.0
 31
0.0
  0
LINE
  5
9C
  8
0
  6
BYBLOCK
 62
     9
 10
4668.511703
 20
80862.003237
 30
0.0
 11
4668.511703
 21
80882.003237
 31
0.0
  0
LINE
  5
9D
  8
0
  6
BYBLOCK
 62
     9
 10
4668.511703
 20
80780.0
 30
0.0
 11
4668.511703
 21
80760.0
 31
0.0
  0
TEXT
  5
9E
  8
0
  6
BYBLOCK
 62
    11
 10
4686.011703
 20
80878.491198
 30
0.0
 40
35.0
  1
42
 50
90.0
  0
LINE
  5
9F
  8
0
  6
BYBLOCK
 62
     9
 10
4668.511703
 20
80842.003237
 30
0.0
 11
4668.511703
 21
80800.0
 31
0.0
  0
SOLID
  5
A0
  8
0
  6
BYBLOCK
 62
     9
 10
4665.17837
 20
80862.003237
 30
0.0
 11
4671.845036
 21
80862.003237
 31
0.0
 12
4668.511703
 22
80842.003237
 32
0.0
 13
4668.511703
 23
80842.003237
 33
0.0
  0
SOLID
  5
A1
  8
0
  6
BYBLOCK
 62
     9
 10
4665.17837
 20
80780.0
 30
0.0
 11
4671.845036
 21
80780.0
 31
0.0
 12
4668.511703
 22
80800.0
 32
0.0
 13
4668.511703
 23
80800.0
 33
0.0
  0
POINT
  5
A2
  8
DEFPOINTS
  6
BYBLOCK
 62
     0
 10
4500.0
 20
80842.003237
 30
0.0
  0
POINT
  5
A3
  8
DEFPOINTS
  6
BYBLOCK
 62
     0
 10
4497.534952
 20
80800.0
 30
0.0
  0
POINT
  5
A4
  8
DEFPOINTS
  6
BYBLOCK
 62
     0
 10
4668.511703
 20
80800.0
 30
0.0
  0
ENDBLK
  5
A6
  8
0
  0
ENDSEC
  0
SECTION
  2
ENTITIES
  0
DIMENSION
  5
20
  8
TEAM-MAS
  2
*D15
 10
-300.0
 20
321.707486
 30
0.0
 11
-150.0
 21
321.707486
 31
0.0
 12
-4000.0
 22
-80000.0
 32
0.0
 13
0.0
 23
430.0
 33
0.0
 14
-300.0
 24
552.0
 34
0.0
1001
ACAD
1000
DSTYLE
1002
{
1070
    40
1040
1.0
1002
}
  0
DIMENSION
  5
2F
  8
TEAM-MAS
  2
*D14
 10
0.0
 20
882.444865
 30
0.0
 11
-180.0
 21
882.444865
 31
0.0
 12
-4000.0
 22
-80000.0
 32
0.0
 13
-360.0
 23
756.0
 33
0.0
 14
0.0
 24
826.576435
 34
0.0
1001
ACAD
1000
DSTYLE
1002
{
1070
    40
1040
1.0
1002
}
  0
DIMENSION
  5
3D
  8
TEAM-MAS
  2
*D8
 10
100.0
 20
258.30533
 30
0.0
 11
0.0
 21
258.30533
 31
0.0
 12
-4000.0
 22
-80000.0
 32
0.0
 13
-100.0
 23
555.0
 33
0.0
 14
100.0
 24
555.0
 34
0.0
  0
DIMENSION
  5
4B
  8
TEAM-MAS
  2
*D4
 10
500.0
 20
1104.432706
 30
0.0
 11
0.0
 21
1104.432706
 31
0.0
 12
-4000.0
 22
-80000.0
 32
0.0
 13
-500.0
 23
842.003237
 33
0.0
 14
500.0
 24
842.003237
 34
0.0
  0
DIMENSION
  5
59
  8
TEAM-MAS
  2
*D3
 10
250.0
 20
1057.842428
 30
0.0
 11
0.0
 21
1057.842428
 31
0.0
 12
-4000.0
 22
-80000.0
 32
0.0
 13
-250.0
 23
1040.0
 33
0.0
 14
250.0
 24
1040.0
 34
0.0
  0
LINE
  5
67
  8
TEAM-BODY
 10
500.0
 20
842.003237
 30
0.0
 11
-500.0
 21
842.003237
 31
0.0
  0
LINE
  5
69
  8
TEAM-BODY
 10
500.0
 20
800.0
 30
0.0
 11
-500.0
 21
800.0
 31
0.0
  0
LINE
  5
6A
  8
TEAM-BODY
 10
500.0
 20
715.822257
 30
0.0
 11
-500.0
 21
715.822257
 31
0.0
  0
LINE
  5
6B
  8
TEAM-BODY
 10
-365.0
 20
592.0
 30
0.0
 11
365.0
 21
592.0
 31
0.0
  0
TEXT
  5
6C
  8
TEAM-TXT
 10
-113.427831
 20
620.591986
 30
0.0
 40
30.0
  1
team 421040
 41
0.8
 51
15.0
  7
TEAM
  0
DIMENSION
  5
6F
  8
TEAM-MAS
  2
*D13
 10
-173.5
 20
951.546271
 30
0.0
 11
-250.0
 21
951.546271
 31
0.0
 12
-4000.0
 22
-80000.0
 32
0.0
 13
-326.5
 23
1020.0
 33
0.0
 14
-173.5
 24
1020.0
 34
0.0
  0
LINE
  5
7D
  8
TEAM-BODY
 10
-500.0
 20
842.003237
 30
0.0
 11
-500.0
 21
715.822257
 31
0.0
  0
ARC
  5
7E
  8
TEAM-BODY
 10
-357.52086
 20
700.331813
 30
0.0
 40
108.589683
 50
171.798714
 51
266.050613
  0
LINE
  5
7F
  8
TEAM-AXE
 10
-366.0
 20
750.0
 30
0.0
 11
-354.0
 21
750.0
 31
0.0
  0
LINE
  5
82
  8
TEAM-AXE
 10
-360.0
 20
756.0
 30
0.0
 11
-360.0
 21
744.0
 31
0.0
  0
CIRCLE
  5
83
  8
TEAM-HIDE
 10
-360.0
 20
750.0
 30
0.0
 40
5.0
  0
POLYLINE
  5
86
  8
TEAM-BODY
 66
     1
 10
0.0
 20
0.0
 30
0.0
  0
VERTEX
  5
1DC
  8
TEAM-BODY
 10
-325.0
 20
592.0
 30
0.0
  0
VERTEX
  5
1DD
  8
TEAM-BODY
 10
-325.0
 20
534.402371
 30
0.0
  0
VERTEX
  5
1DE
  8
TEAM-BODY
 10
-275.0
 20
534.402371
 30
0.0
  0
VERTEX
  5
1DF
  8
TEAM-BODY
 10
-275.0
 20
592.0
 30
0.0
  0
SEQEND
  5
1E0
  8
TEAM-BODY
  0
LINE
  5
87
  8
TEAM-AXE
 10
-250.0
 20
1000.0
 30
0.0
 11
-250.0
 21
1040.0
 31
0.0
  0
LINE
  5
88
  8
TEAM-AXE
 10
-173.5
 20
1000.0
 30
0.0
 11
-173.5
 21
1040.0
 31
0.0
  0
LINE
  5
89
  8
TEAM-AXE
 10
-326.5
 20
1000.0
 30
0.0
 11
-326.5
 21
1040.0
 31
0.0
  0
LINE
  5
8A
  8
TEAM-AXE
 10
-270.0
 20
1020.0
 30
0.0
 11
-230.0
 21
1020.0
 31
0.0
  0
CIRCLE
  5
8B
  8
TEAM-COLD
 10
-173.5
 20
1020.0
 30
0.0
 40
15.0
  0
LINE
  5
8D
  8
TEAM-AXE
 10
-193.5
 20
1020.0
 30
0.0
 11
-153.5
 21
1020.0
 31
0.0
  0
CIRCLE
  5
8E
  8
TEAM-WARM
 10
-326.5
 20
1020.0
 30
0.0
 40
15.0
  0
LINE
  5
90
  8
TEAM-AXE
 10
-346.5
 20
1020.0
 30
0.0
 11
-306.5
 21
1020.0
 31
0.0
  0
LINE
  5
91
  8
TEAM-AXE
 10
-306.0
 20
558.0
 30
0.0
 11
-294.0
 21
558.0
 31
0.0
  0
LINE
  5
92
  8
TEAM-AXE
 10
-300.0
 20
564.0
 30
0.0
 11
-300.0
 21
552.0
 31
0.0
  0
CIRCLE
  5
93
  8
TEAM-HIDE
 10
-300.0
 20
558.0
 30
0.0
 40
5.0
  0
LINE
  5
94
  8
TEAM-WARM
 10
-110.0
 20
555.0
 30
0.0
 11
-90.0
 21
555.0
 31
0.0
  0
LINE
  5
95
  8
TEAM-WARM
 10
-110.0
 20
592.0
 30
0.0
 11
-110.0
 21
555.0
 31
0.0
  0
LINE
  5
96
  8
TEAM-WARM
 10
-90.0
 20
592.0
 30
0.0
 11
-90.0
 21
555.0
 31
0.0
  0
LINE
  5
97
  8
TEAM-AXE
 10
-100.0
 20
592.0
 30
0.0
 11
-100.0
 21
555.0
 31
0.0
  0
DIMENSION
  5
98
  8
TEAM-MAS
  2
*D19
 10
668.511703
 20
800.0
 30
0.0
 11
668.511703
 21
907.657865
 31
0.0
 12
-4000.0
 22
-80000.0
 32
0.0
 70
   128
 13
500.0
 23
842.003237
 33
0.0
 14
497.534952
 24
800.0
 34
0.0
 50
90.0
1001
ACAD
1000
DSTYLE
1002
{
1070
    40
1040
1.0
1002
}
  0
DIMENSION
  5
A7
  8
TEAM-MAS
  2
*D18
 10
326.5
 20
951.546271
 30
0.0
 11
250.0
 21
951.546271
 31
0.0
 12
-4000.0
 22
-80000.0
 32
0.0
 13
173.5
 23
1020.0
 33
0.0
 14
326.5
 24
1020.0
 34
0.0
  0
DIMENSION
  5
B5
  8
TEAM-MAS
  2
*D17
 10
599.5098
 20
558.0
 30
0.0
 11
576.628635
 21
679.0
 31
0.0
 12
-4000.0
 22
-80000.0
 32
0.0
 70
   128
 13
500.0
 23
800.0
 33
0.0
 14
296.967761
 24
558.0
 34
0.0
 50
90.0
1001
ACAD
1000
DSTYLE
1002
{
1070
    40
1040
1.0
1002
}
  0
DIMENSION
  5
C3
  8
TEAM-MAS
  2
*D16
 10
559.149331
 20
750.0
 30
0.0
 11
534.803596
 21
775.0
 31
0.0
 12
-4000.0
 22
-80000.0
 32
0.0
 70
   128
 13
500.0
 23
800.0
 33
0.0
 14
356.967761
 24
750.0
 34
0.0
 50
90.0
1001
ACAD
1000
DSTYLE
1002
{
1070
    40
1040
1.0
1002
}
  0
DIMENSION
  5
D2
  8
TEAM-MAS
  2
*D12
 10
898.214783
 20
1020.0
 30
0.0
 11
898.214783
 21
550.0
 31
0.0
 12
-4000.0
 22
-80000.0
 32
0.0
 70
   128
  1
950-1200
 13
-9.032239
 23
0.0
 33
0.0
 14
326.5
 24
1020.0
 34
0.0
 50
90.0
  0
DIMENSION
  5
E0
  8
TEAM-MAS
  2
*D11
 10
0.0
 20
321.707486
 30
0.0
 11
150.0
 21
321.707486
 31
0.0
 12
-4000.0
 22
-80000.0
 32
0.0
 13
300.0
 23
552.0
 33
0.0
 14
0.0
 24
430.0
 34
0.0
1001
ACAD
1000
DSTYLE
1002
{
1070
    40
1040
1.0
1002
}
  0
DIMENSION
  5
EE
  8
TEAM-MAS
  2
*D10
 10
759.564835
 20
800.0
 30
0.0
 11
759.564835
 21
400.0
 31
0.0
 12
-4000.0
 22
-80000.0
 32
0.0
 13
-9.032239
 23
0.0
 33
0.0
 14
487.534952
 24
800.0
 34
0.0
 50
90.0
  0
DIMENSION
  5
FC
  8
TEAM-MAS
  2
*D9
 10
716.105701
 20
460.0
 30
0.0
 11
716.105701
 21
645.5
 31
0.0
 12
-4000.0
 22
-80000.0
 32
0.0
 70
   128
 13
470.990976
 23
800.0
 33
0.0
 14
-9.032239
 24
460.0
 34
0.0
 50
90.0
  0
DIMENSION
  5
10A
  8
TEAM-MAS
  2
*D7
 10
668.511703
 20
460.0
 30
0.0
 11
668.511703
 21
230.0
 31
0.0
 12
-4000.0
 22
-80000.0
 32
0.0
 13
-9.032239
 23
0.0
 33
0.0
 14
-9.032239
 24
460.0
 34
0.0
 50
90.0
  0
DIMENSION
  5
118
  8
TEAM-MAS
  2
*D6
 10
716.105701
 20
460.0
 30
0.0
 11
716.105701
 21
230.0
 31
0.0
 12
-4000.0
 22
-80000.0
 32
0.0
  1
300-500
 13
-9.032239
 23
0.0
 33
0.0
 14
-9.032239
 24
460.0
 34
0.0
 50
90.0
  0
DIMENSION
  5
126
  8
TEAM-MAS
  2
*D5
 10
0.0
 20
882.444865
 30
0.0
 11
180.0
 21
882.444865
 31
0.0
 12
-4000.0
 22
-80000.0
 32
0.0
 13
360.0
 23
756.0
 33
0.0
 14
0.0
 24
826.576435
 34
0.0
1001
ACAD
1000
DSTYLE
1002
{
1070
    40
1040
1.0
1002
}
  0
DIMENSION
  5
134
  8
TEAM-MAS
  2
*D2
 10
668.511703
 20
592.0
 30
0.0
 11
648.820632
 21
701.5
 31
0.0
 12
-4000.0
 22
-80000.0
 32
0.0
 70
   128
 13
497.534952
 23
800.0
 33
0.0
 14
-9.032239
 24
592.0
 34
0.0
 50
90.0
  0
DIMENSION
  5
142
  8
TEAM-MAS
  2
*D1
 10
850.619376
 20
1020.0
 30
0.0
 11
850.619376
 21
550.0
 31
0.0
 12
-4000.0
 22
-80000.0
 32
0.0
 70
   128
 13
-9.032239
 23
0.0
 33
0.0
 14
326.5
 24
1020.0
 34
0.0
 50
90.0
  0
DIMENSION
  5
150
  8
TEAM-MAS
  2
*D0
 10
805.092105
 20
800.0
 30
0.0
 11
805.092105
 21
400.0
 31
0.0
 12
-4000.0
 22
-80000.0
 32
0.0
  1
600-850
 13
-9.032239
 23
0.0
 33
0.0
 14
487.534952
 24
800.0
 34
0.0
 50
90.0
  0
LINE
  5
15E
  8
TEAM-BODY
 10
500.0
 20
842.003237
 30
0.0
 11
500.0
 21
715.822257
 31
0.0
  0
ARC
  5
15F
  8
TEAM-BODY
 10
357.52086
 20
700.331813
 30
0.0
 40
108.589683
 50
273.949387
 51
8.201286
  0
LINE
  5
160
  8
TEAM-AXE
 10
354.0
 20
750.0
 30
0.0
 11
366.0
 21
750.0
 31
0.0
  0
LINE
  5
161
  8
TEAM-AXE
 10
360.0
 20
756.0
 30
0.0
 11
360.0
 21
744.0
 31
0.0
  0
CIRCLE
  5
162
  8
TEAM-HIDE
 10
360.0
 20
750.0
 30
0.0
 40
5.0
  0
LINE
  5
163
  8
TEAM-BODY
 10
275.0
 20
534.402371
 30
0.0
 11
275.0
 21
592.0
 31
0.0
  0
LINE
  5
164
  8
TEAM-BODY
 10
325.0
 20
534.402371
 30
0.0
 11
325.0
 21
592.0
 31
0.0
  0
LINE
  5
165
  8
TEAM-AXE
 10
250.0
 20
1000.0
 30
0.0
 11
250.0
 21
1040.0
 31
0.0
  0
LINE
  5
166
  8
TEAM-AXE
 10
326.5
 20
1000.0
 30
0.0
 11
326.5
 21
1040.0
 31
0.0
  0
LINE
  5
167
  8
TEAM-AXE
 10
230.0
 20
1020.0
 30
0.0
 11
270.0
 21
1020.0
 31
0.0
  0
CIRCLE
  5
168
  8
TEAM-COLD
 10
326.5
 20
1020.0
 30
0.0
 40
15.0
  0
LINE
  5
169
  8
TEAM-AXE
 10
306.5
 20
1020.0
 30
0.0
 11
346.5
 21
1020.0
 31
0.0
  0
LINE
  5
16A
  8
TEAM-AXE
 10
294.0
 20
558.0
 30
0.0
 11
306.0
 21
558.0
 31
0.0
  0
LINE
  5
16B
  8
TEAM-AXE
 10
300.0
 20
564.0
 30
0.0
 11
300.0
 21
552.0
 31
0.0
  0
CIRCLE
  5
16C
  8
TEAM-HIDE
 10
300.0
 20
558.0
 30
0.0
 40
5.0
  0
LINE
  5
16D
  8
TEAM-BODY
 10
275.0
 20
534.402371
 30
0.0
 11
325.0
 21
534.402371
 31
0.0
  0
LINE
  5
16E
  8
TEAM-AXE
 10
173.5
 20
1000.0
 30
0.0
 11
173.5
 21
1040.0
 31
0.0
  0
CIRCLE
  5
16F
  8
TEAM-WARM
 10
173.5
 20
1020.0
 30
0.0
 40
15.0
  0
LINE
  5
170
  8
TEAM-AXE
 10
153.5
 20
1020.0
 30
0.0
 11
193.5
 21
1020.0
 31
0.0
  0
LINE
  5
171
  8
TEAM-COLD
 10
90.0
 20
555.0
 30
0.0
 11
110.0
 21
555.0
 31
0.0
  0
LINE
  5
172
  8
TEAM-COLD
 10
90.0
 20
592.0
 30
0.0
 11
90.0
 21
555.0
 31
0.0
  0
LINE
  5
173
  8
TEAM-COLD
 10
110.0
 20
592.0
 30
0.0
 11
110.0
 21
555.0
 31
0.0
  0
LINE
  5
174
  8
TEAM-AXE
 10
100.0
 20
592.0
 30
0.0
 11
100.0
 21
555.0
 31
0.0
  0
LINE
  5
175
  8
TEAM-AXE
 10
0.0
 20
826.576435
 30
0.0
 11
0.0
 21
555.0
 31
0.0
  0
LINE
  5
176
  8
TEAM-AXE
 10
0.0
 20
430.0
 30
0.0
 11
0.0
 21
490.0
 31
0.0
  0
CIRCLE
  5
177
  8
TEAM-KAN
 10
0.0
 20
460.0
 30
0.0
 40
20.0
  0
LINE
  5
179
  8
TEAM-DET1
 10
21.0
 20
515.0
 30
0.0
 11
21.0
 21
365.0
 31
0.0
  0
LINE
  5
17B
  8
TEAM-DET1
 10
-21.0
 20
515.0
 30
0.0
 11
-21.0
 21
365.0
 31
0.0
  0
CIRCLE
  5
17C
  8
TEAM-INSP
 10
0.0
 20
0.0
 30
0.0
 40
10.0
  0
LINE
  5
17E
  8
TEAM-AXE
 10
-30.0
 20
460.0
 30
0.0
 11
30.0
 21
460.0
 31
0.0
  0
LINE
  5
17F
  8
TEAM-DET1
 10
-21.0
 20
365.0
 30
0.0
 11
21.0
 21
365.0
 31
0.0
  0
LINE
  5
180
  8
TEAM-BODY
 10
-21.0
 20
555.0
 30
0.0
 11
21.0
 21
555.0
 31
0.0
  0
LINE
  5
181
  8
TEAM-DET1
 10
-21.0
 20
515.0
 30
0.0
 11
21.0
 21
515.0
 31
0.0
  0
LINE
  5
182
  8
TEAM-BODY
 10
0.0
 20
515.0
 30
0.0
 11
0.0
 21
592.0
 31
0.0
  0
LINE
  5
183
  8
TEAM-BODY
 10
-21.0
 20
592.0
 30
0.0
 11
-21.0
 21
555.0
 31
0.0
  0
LINE
  5
184
  8
TEAM-BODY
 10
21.0
 20
592.0
 30
0.0
 11
21.0
 21
555.0
 31
0.0
  0
ENDSEC
  0
EOF
