  0
SECTION
  2
HEADER
  9
$ACADVER
  1
AC1009
  9
$INSBASE
 10
0.0
 20
0.0
 30
0.0
  9
$EXTMIN
 10
-600.028841
 20
-10.064278
 30
0.0
  9
$EXTMAX
 10
980.849851
 20
1064.270181
 30
0.000005
  9
$LIMMIN
 10
-600.028841
 20
-10.064278
  9
$LIMMAX
 10
980.849851
 20
1064.270181
  9
$ORTHOMODE
 70
     1
  9
$REGENMODE
 70
     1
  9
$FILLMODE
 70
     1
  9
$QTEXTMODE
 70
     0
  9
$MIRRTEXT
 70
     0
  9
$DRAGMODE
 70
     2
  9
$LTSCALE
 40
50.0
  9
$OSMODE
 70
     0
  9
$ATTMODE
 70
     1
  9
$TEXTSIZE
 40
200.0
  9
$TRACEWID
 40
1.0
  9
$TEXTSTYLE
  7
STANDARD
  9
$CLAYER
  8
TEAM-MAS
  9
$CELTYPE
  6
BYLAYER
  9
$CECOLOR
 62
   256
  9
$DIMSCALE
 40
0.0
  9
$DIMASZ
 40
20.0
  9
$DIMEXO
 40
10.0
  9
$DIMDLI
 40
1.0
  9
$DIMRND
 40
0.0
  9
$DIMDLE
 40
0.0
  9
$DIMEXE
 40
1.0
  9
$DIMTP
 40
0.0
  9
$DIMTM
 40
0.0
  9
$DIMTXT
 40
35.0
  9
$DIMCEN
 40
1.0
  9
$DIMTSZ
 40
0.0
  9
$DIMTOL
 70
     0
  9
$DIMLIM
 70
     0
  9
$DIMTIH
 70
     0
  9
$DIMTOH
 70
     0
  9
$DIMSE1
 70
     0
  9
$DIMSE2
 70
     0
  9
$DIMTAD
 70
     0
  9
$DIMZIN
 70
     0
  9
$DIMBLK
  1

  9
$DIMASO
 70
     1
  9
$DIMSHO
 70
     0
  9
$DIMPOST
  1

  9
$DIMAPOST
  1

  9
$DIMALT
 70
     0
  9
$DIMALTD
 70
     2
  9
$DIMALTF
 40
25.4
  9
$DIMLFAC
 40
1.0
  9
$DIMTOFL
 70
     0
  9
$DIMTVP
 40
0.0
  9
$DIMTIX
 70
     0
  9
$DIMSOXD
 70
     0
  9
$DIMSAH
 70
     0
  9
$DIMBLK1
  1

  9
$DIMBLK2
  1

  9
$DIMSTYLE
  2
TEAM
  9
$DIMCLRD
 70
     9
  9
$DIMCLRE
 70
     9
  9
$DIMCLRT
 70
    11
  9
$DIMTFAC
 40
1.0
  9
$DIMGAP
 40
7.0
  9
$LUNITS
 70
     2
  9
$LUPREC
 70
     1
  9
$SKETCHINC
 40
1.0
  9
$FILLETRAD
 40
50.0
  9
$AUNITS
 70
     0
  9
$AUPREC
 70
     0
  9
$MENU
  1
ROPLANS
  9
$ELEVATION
 40
0.0
  9
$PELEVATION
 40
0.0
  9
$THICKNESS
 40
0.0
  9
$LIMCHECK
 70
     0
  9
$BLIPMODE
 70
     1
  9
$CHAMFERA
 40
0.0
  9
$CHAMFERB
 40
0.0
  9
$SKPOLY
 70
     0
  9
$TDCREATE
 40
2450392.957851
  9
$TDUPDATE
 40
2456272.033233
  9
$TDINDWG
 40
2.315654
  9
$TDUSRTIMER
 40
2.315654
  9
$USRTIMER
 70
     1
  9
$ANGBASE
 50
0.0
  9
$ANGDIR
 70
     0
  9
$PDMODE
 70
     0
  9
$PDSIZE
 40
0.0
  9
$PLINEWID
 40
0.0
  9
$COORDS
 70
     2
  9
$SPLFRAME
 70
     0
  9
$SPLINETYPE
 70
     6
  9
$SPLINESEGS
 70
     8
  9
$ATTDIA
 70
     0
  9
$ATTREQ
 70
     0
  9
$HANDLING
 70
     1
  9
$HANDSEED
  5
1E2
  9
$SURFTAB1
 70
    24
  9
$SURFTAB2
 70
    24
  9
$SURFTYPE
 70
     6
  9
$SURFU
 70
     6
  9
$SURFV
 70
     6
  9
$UCSNAME
  2

  9
$UCSORG
 10
0.0
 20
0.0
 30
0.0
  9
$UCSXDIR
 10
1.0
 20
0.0
 30
0.0
  9
$UCSYDIR
 10
0.0
 20
1.0
 30
0.0
  9
$PUCSNAME
  2

  9
$PUCSORG
 10
0.0
 20
0.0
 30
0.0
  9
$PUCSXDIR
 10
1.0
 20
0.0
 30
0.0
  9
$PUCSYDIR
 10
0.0
 20
1.0
 30
0.0
  9
$USERI1
 70
     0
  9
$USERI2
 70
     0
  9
$USERI3
 70
     0
  9
$USERI4
 70
     0
  9
$USERI5
 70
     0
  9
$USERR1
 40
0.0
  9
$USERR2
 40
0.0
  9
$USERR3
 40
0.0
  9
$USERR4
 40
0.0
  9
$USERR5
 40
0.0
  9
$WORLDVIEW
 70
     1
  9
$SHADEDGE
 70
     0
  9
$SHADEDIF
 70
    70
  9
$TILEMODE
 70
     1
  9
$MAXACTVP
 70
    16
  9
$PLIMCHECK
 70
     0
  9
$PEXTMIN
 10
-0.805942
 20
0.005011
 30
0.0
  9
$PEXTMAX
 10
20.250094
 20
11.356329
 30
0.0
  9
$PLIMMIN
 10
0.0
 20
0.0
  9
$PLIMMAX
 10
12.0
 20
9.0
  9
$UNITMODE
 70
     0
  9
$VISRETAIN
 70
     0
  9
$PLINEGEN
 70
     0
  9
$PSLTSCALE
 70
     0
  0
ENDSEC
  0
SECTION
  2
TABLES
  0
TABLE
  2
VPORT
 70
     2
  0
VPORT
  2
*ACTIVE
 70
     0
 10
0.0
 20
0.0
 11
1.0
 21
1.0
 12
190.410505
 22
527.102952
 13
0.0
 23
0.0
 14
1.0
 24
1.0
 15
50.0
 25
50.0
 16
0.0
 26
0.0
 36
1.0
 17
0.0
 27
0.0
 37
0.0
 40
1081.09837
 41
1.911765
 42
50.0
 43
0.0
 44
0.0
 50
0.0
 51
0.0
 71
     0
 72
   100
 73
     1
 74
     1
 75
     0
 76
     0
 77
     0
 78
     0
  0
ENDTAB
  0
TABLE
  2
LTYPE
 70
     3
  0
LTYPE
  2
CONTINUOUS
 70
     0
  3
Solid Line
 72
    65
 73
     0
 40
0.0
  0
LTYPE
  2
31
 70
     0
  3

 72
    65
 73
     4
 40
2.1
 49
1.5
 49
-0.3
 49
0.0
 49
-0.3
  0
LTYPE
  2
22
 70
     0
  3

 72
    65
 73
     2
 40
1.4
 49
1.2
 49
-0.2
  0
ENDTAB
  0
TABLE
  2
LAYER
 70
    12
  0
LAYER
  2
0
 70
     0
 62
     7
  6
CONTINUOUS
  0
LAYER
  2
DEFPOINTS
 70
     0
 62
     7
  6
CONTINUOUS
  0
LAYER
  2
TEAM-BODY
 70
     0
 62
     2
  6
CONTINUOUS
  0
LAYER
  2
TEAM-AXE
 70
     0
 62
    10
  6
31
  0
LAYER
  2
TEAM-MAS
 70
     0
 62
     9
  6
CONTINUOUS
  0
LAYER
  2
TEAM-TXT
 70
     0
 62
    11
  6
CONTINUOUS
  0
LAYER
  2
TEAM-DET1
 70
     0
 62
     4
  6
CONTINUOUS
  0
LAYER
  2
TEAM-COLD
 70
     0
 62
     3
  6
CONTINUOUS
  0
LAYER
  2
TEAM-HIDE
 70
     0
 62
     8
  6
22
  0
LAYER
  2
TEAM-KAN
 70
     0
 62
     6
  6
CONTINUOUS
  0
LAYER
  2
TEAM-WARM
 70
     0
 62
     1
  6
CONTINUOUS
  0
LAYER
  2
TEAM-INSP
 70
     0
 62
     5
  6
CONTINUOUS
  0
ENDTAB
  0
TABLE
  2
STYLE
 70
     2
  0
STYLE
  2
STANDARD
 70
     0
 40
0.0
 41
1.0
 50
0.0
 71
     0
 42
200.0
  3
txt
  4

  0
STYLE
  2
TEAM
 70
     0
 40
0.0
 41
0.8
 50
15.0
 71
     0
 42
7.0
  3
ROMANS.shx
  4

  0
ENDTAB
  0
TABLE
  2
VIEW
 70
     0
  0
ENDTAB
  0
TABLE
  2
UCS
 70
     0
  0
ENDTAB
  0
TABLE
  2
APPID
 70
     1
  0
APPID
  2
ACAD
 70
     0
  0
ENDTAB
  0
TABLE
  2
DIMSTYLE
 70
     1
  0
DIMSTYLE
  2
TEAM
 70
     0
  3

  4

  5

  6

  7

 40
0.0
 41
20.0
 42
10.0
 43
1.0
 44
1.0
 45
0.0
 46
0.0
 47
0.0
 48
0.0
140
35.0
141
1.0
142
0.0
143
25.4
144
1.0
145
0.0
146
1.0
147
7.0
 71
     0
 72
     0
 73
     0
 74
     0
 75
     0
 76
     0
 77
     0
 78
     0
170
     0
171
     2
172
     0
173
     0
174
     0
175
     0
176
     9
177
     9
178
    11
  0
ENDTAB
  0
ENDSEC
  0
SECTION
  2
BLOCKS
  0
BLOCK
  8
0
  2
$MODEL_SPACE
 70
     0
 10
0.0
 20
0.0
 30
0.0
  3
$MODEL_SPACE
  1

  0
ENDBLK
  5
1D6
  8
0
  0
BLOCK
 67
     1
  8
0
  2
$PAPER_SPACE
 70
     0
 10
0.0
 20
0.0
 30
0.0
  3
$PAPER_SPACE
  1

  0
ENDBLK
  5
1D4
 67
     1
  8
0
  0
BLOCK
  8
0
  2
*D0
 70
     1
 10
0.0
 20
0.0
 30
0.0
  3
*D0
  1

  0
LINE
  5
152
  8
0
  6
BYBLOCK
 62
     9
 10
4350.0
 20
84542.0
 30
0.0
 11
4350.0
 21
84320.707486
 31
0.0
  0
LINE
  5
153
  8
0
  6
BYBLOCK
 62
     9
 10
4000.0
 20
84420.0
 30
0.0
 11
4000.0
 21
84320.707486
 31
0.0
  0
LINE
  5
154
  8
0
  6
BYBLOCK
 62
     9
 10
4330.0
 20
84321.707486
 30
0.0
 11
4225.75
 21
84321.707486
 31
0.0
  0
LINE
  5
155
  8
0
  6
BYBLOCK
 62
     9
 10
4020.0
 20
84321.707486
 30
0.0
 11
4124.25
 21
84321.707486
 31
0.0
  0
SOLID
  5
156
  8
0
  6
BYBLOCK
 62
     9
 10
4330.0
 20
84325.04082
 30
0.0
 11
4330.0
 21
84318.374153
 31
0.0
 12
4350.0
 22
84321.707486
 32
0.0
 13
4350.0
 23
84321.707486
 33
0.0
  0
SOLID
  5
157
  8
0
  6
BYBLOCK
 62
     9
 10
4020.0
 20
84325.04082
 30
0.0
 11
4020.0
 21
84318.374153
 31
0.0
 12
4000.0
 22
84321.707486
 32
0.0
 13
4000.0
 23
84321.707486
 33
0.0
  0
TEXT
  5
158
  8
0
  6
BYBLOCK
 62
    11
 10
4131.25
 20
84304.207486
 30
0.0
 40
35.0
  1
350
  0
POINT
  5
159
  8
DEFPOINTS
  6
BYBLOCK
 62
     0
 10
4350.0
 20
84552.0
 30
0.0
  0
POINT
  5
15A
  8
DEFPOINTS
  6
BYBLOCK
 62
     0
 10
4000.0
 20
84430.0
 30
0.0
  0
POINT
  5
15B
  8
DEFPOINTS
  6
BYBLOCK
 62
     0
 10
4000.0
 20
84321.707486
 30
0.0
  0
ENDBLK
  5
15D
  8
0
  0
BLOCK
  8
0
  2
*D1
 70
     1
 10
0.0
 20
0.0
 30
0.0
  3
*D1
  1

  0
LINE
  5
144
  8
0
  6
BYBLOCK
 62
     9
 10
4000.967761
 20
84000.0
 30
0.0
 11
4832.13641
 21
84000.0
 31
0.0
  0
LINE
  5
145
  8
0
  6
BYBLOCK
 62
     9
 10
4597.534952
 20
84800.0
 30
0.0
 11
4832.13641
 21
84800.0
 31
0.0
  0
LINE
  5
146
  8
0
  6
BYBLOCK
 62
     9
 10
4831.13641
 20
84020.0
 30
0.0
 11
4831.13641
 21
84352.166667
 31
0.0
  0
LINE
  5
147
  8
0
  6
BYBLOCK
 62
     9
 10
4831.13641
 20
84780.0
 30
0.0
 11
4831.13641
 21
84447.833333
 31
0.0
  0
SOLID
  5
148
  8
0
  6
BYBLOCK
 62
     9
 10
4827.803077
 20
84020.0
 30
0.0
 11
4834.469743
 21
84020.0
 31
0.0
 12
4831.13641
 22
84000.0
 32
0.0
 13
4831.13641
 23
84000.0
 33
0.0
  0
SOLID
  5
149
  8
0
  6
BYBLOCK
 62
     9
 10
4827.803077
 20
84780.0
 30
0.0
 11
4834.469743
 21
84780.0
 31
0.0
 12
4831.13641
 22
84800.0
 32
0.0
 13
4831.13641
 23
84800.0
 33
0.0
  0
TEXT
  5
14A
  8
0
  6
BYBLOCK
 62
    11
 10
4848.63641
 20
84359.166667
 30
0.0
 40
35.0
  1
800
 50
90.0
  0
POINT
  5
14B
  8
DEFPOINTS
  6
BYBLOCK
 62
     0
 10
3990.967761
 20
84000.0
 30
0.0
  0
POINT
  5
14C
  8
DEFPOINTS
  6
BYBLOCK
 62
     0
 10
4587.534952
 20
84800.0
 30
0.0
  0
POINT
  5
14D
  8
DEFPOINTS
  6
BYBLOCK
 62
     0
 10
4831.13641
 20
84800.0
 30
0.0
  0
ENDBLK
  5
14F
  8
0
  0
BLOCK
  8
0
  2
*D2
 70
     1
 10
0.0
 20
0.0
 30
0.0
  3
*D2
  1

  0
LINE
  5
136
  8
0
  6
BYBLOCK
 62
     9
 10
4580.990976
 20
84800.0
 30
0.0
 11
4789.667671
 21
84800.0
 31
0.0
  0
LINE
  5
137
  8
0
  6
BYBLOCK
 62
     9
 10
4000.967761
 20
84460.0
 30
0.0
 11
4789.667671
 21
84460.0
 31
0.0
  0
LINE
  5
138
  8
0
  6
BYBLOCK
 62
     9
 10
4788.667671
 20
84780.0
 30
0.0
 11
4788.667671
 21
84696.25
 31
0.0
  0
LINE
  5
139
  8
0
  6
BYBLOCK
 62
     9
 10
4788.667671
 20
84480.0
 30
0.0
 11
4788.667671
 21
84594.75
 31
0.0
  0
TEXT
  5
13A
  8
0
  6
BYBLOCK
 62
    11
 10
4806.167671
 20
84601.75
 30
0.0
 40
35.0
  1
340
 50
90.0
  0
SOLID
  5
13B
  8
0
  6
BYBLOCK
 62
     9
 10
4785.334338
 20
84780.0
 30
0.0
 11
4792.001005
 21
84780.0
 31
0.0
 12
4788.667671
 22
84800.0
 32
0.0
 13
4788.667671
 23
84800.0
 33
0.0
  0
SOLID
  5
13C
  8
0
  6
BYBLOCK
 62
     9
 10
4785.334338
 20
84480.0
 30
0.0
 11
4792.001005
 21
84480.0
 31
0.0
 12
4788.667671
 22
84460.0
 32
0.0
 13
4788.667671
 23
84460.0
 33
0.0
  0
POINT
  5
13D
  8
DEFPOINTS
  6
BYBLOCK
 62
     0
 10
4570.990976
 20
84800.0
 30
0.0
  0
POINT
  5
13E
  8
DEFPOINTS
  6
BYBLOCK
 62
     0
 10
3990.967761
 20
84460.0
 30
0.0
  0
POINT
  5
13F
  8
DEFPOINTS
  6
BYBLOCK
 62
     0
 10
4788.667671
 20
84460.0
 30
0.0
  0
ENDBLK
  5
141
  8
0
  0
BLOCK
  8
0
  2
*D3
 70
     1
 10
0.0
 20
0.0
 30
0.0
  3
*D3
  1

  0
LINE
  5
5B
  8
0
  6
BYBLOCK
 62
     9
 10
3900.0
 20
84545.0
 30
0.0
 11
3900.0
 21
84257.30533
 31
0.0
  0
LINE
  5
5C
  8
0
  6
BYBLOCK
 62
     9
 10
4100.0
 20
84545.0
 30
0.0
 11
4100.0
 21
84257.30533
 31
0.0
  0
LINE
  5
5D
  8
0
  6
BYBLOCK
 62
     9
 10
3920.0
 20
84258.30533
 30
0.0
 11
3952.166667
 21
84258.30533
 31
0.0
  0
LINE
  5
5E
  8
0
  6
BYBLOCK
 62
     9
 10
4080.0
 20
84258.30533
 30
0.0
 11
4047.833333
 21
84258.30533
 31
0.0
  0
SOLID
  5
5F
  8
0
  6
BYBLOCK
 62
     9
 10
3920.0
 20
84261.638663
 30
0.0
 11
3920.0
 21
84254.971996
 31
0.0
 12
3900.0
 22
84258.30533
 32
0.0
 13
3900.0
 23
84258.30533
 33
0.0
  0
SOLID
  5
60
  8
0
  6
BYBLOCK
 62
     9
 10
4080.0
 20
84261.638663
 30
0.0
 11
4080.0
 21
84254.971996
 31
0.0
 12
4100.0
 22
84258.30533
 32
0.0
 13
4100.0
 23
84258.30533
 33
0.0
  0
TEXT
  5
61
  8
0
  6
BYBLOCK
 62
    11
 10
3959.166667
 20
84240.80533
 30
0.0
 40
35.0
  1
200
  0
POINT
  5
62
  8
DEFPOINTS
  6
BYBLOCK
 62
     0
 10
3900.0
 20
84555.0
 30
0.0
  0
POINT
  5
63
  8
DEFPOINTS
  6
BYBLOCK
 62
     0
 10
4100.0
 20
84555.0
 30
0.0
  0
POINT
  5
64
  8
DEFPOINTS
  6
BYBLOCK
 62
     0
 10
4100.0
 20
84258.30533
 30
0.0
  0
ENDBLK
  5
66
  8
0
  0
BLOCK
  8
0
  2
*D4
 70
     1
 10
0.0
 20
0.0
 30
0.0
  3
*D4
  1

  0
LINE
  5
128
  8
0
  6
BYBLOCK
 62
     9
 10
4000.967761
 20
84000.0
 30
0.0
 11
4744.012199
 21
84000.0
 31
0.0
  0
LINE
  5
129
  8
0
  6
BYBLOCK
 62
     9
 10
4000.967761
 20
84460.0
 30
0.0
 11
4744.012199
 21
84460.0
 31
0.0
  0
LINE
  5
12A
  8
0
  6
BYBLOCK
 62
     9
 10
4743.012199
 20
84020.0
 30
0.0
 11
4743.012199
 21
84179.25
 31
0.0
  0
LINE
  5
12B
  8
0
  6
BYBLOCK
 62
     9
 10
4743.012199
 20
84440.0
 30
0.0
 11
4743.012199
 21
84280.75
 31
0.0
  0
SOLID
  5
12C
  8
0
  6
BYBLOCK
 62
     9
 10
4739.678866
 20
84020.0
 30
0.0
 11
4746.345532
 21
84020.0
 31
0.0
 12
4743.012199
 22
84000.0
 32
0.0
 13
4743.012199
 23
84000.0
 33
0.0
  0
SOLID
  5
12D
  8
0
  6
BYBLOCK
 62
     9
 10
4739.678866
 20
84440.0
 30
0.0
 11
4746.345532
 21
84440.0
 31
0.0
 12
4743.012199
 22
84460.0
 32
0.0
 13
4743.012199
 23
84460.0
 33
0.0
  0
TEXT
  5
12E
  8
0
  6
BYBLOCK
 62
    11
 10
4760.512199
 20
84186.25
 30
0.0
 40
35.0
  1
460
 50
90.0
  0
POINT
  5
12F
  8
DEFPOINTS
  6
BYBLOCK
 62
     0
 10
3990.967761
 20
84000.0
 30
0.0
  0
POINT
  5
130
  8
DEFPOINTS
  6
BYBLOCK
 62
     0
 10
3990.967761
 20
84460.0
 30
0.0
  0
POINT
  5
131
  8
DEFPOINTS
  6
BYBLOCK
 62
     0
 10
4743.012199
 20
84460.0
 30
0.0
  0
ENDBLK
  5
133
  8
0
  0
BLOCK
  8
0
  2
*D5
 70
     1
 10
0.0
 20
0.0
 30
0.0
  3
*D5
  1

  0
LINE
  5
11A
  8
0
  6
BYBLOCK
 62
     9
 10
4000.967761
 20
84000.0
 30
0.0
 11
4789.667671
 21
84000.0
 31
0.0
  0
LINE
  5
11B
  8
0
  6
BYBLOCK
 62
     9
 10
4000.967761
 20
84460.0
 30
0.0
 11
4789.667671
 21
84460.0
 31
0.0
  0
LINE
  5
11C
  8
0
  6
BYBLOCK
 62
     9
 10
4788.667671
 20
84020.0
 30
0.0
 11
4788.667671
 21
84118.0
 31
0.0
  0
LINE
  5
11D
  8
0
  6
BYBLOCK
 62
     9
 10
4788.667671
 20
84440.0
 30
0.0
 11
4788.667671
 21
84342.0
 31
0.0
  0
SOLID
  5
11E
  8
0
  6
BYBLOCK
 62
     9
 10
4785.334338
 20
84020.0
 30
0.0
 11
4792.001005
 21
84020.0
 31
0.0
 12
4788.667671
 22
84000.0
 32
0.0
 13
4788.667671
 23
84000.0
 33
0.0
  0
SOLID
  5
11F
  8
0
  6
BYBLOCK
 62
     9
 10
4785.334338
 20
84440.0
 30
0.0
 11
4792.001005
 21
84440.0
 31
0.0
 12
4788.667671
 22
84460.0
 32
0.0
 13
4788.667671
 23
84460.0
 33
0.0
  0
TEXT
  5
120
  8
0
  6
BYBLOCK
 62
    11
 10
4806.167671
 20
84125.0
 30
0.0
 40
35.0
  1
300-500
 50
90.0
  0
POINT
  5
121
  8
DEFPOINTS
  6
BYBLOCK
 62
     0
 10
3990.967761
 20
84000.0
 30
0.0
  0
POINT
  5
122
  8
DEFPOINTS
  6
BYBLOCK
 62
     0
 10
3990.967761
 20
84460.0
 30
0.0
  0
POINT
  5
123
  8
DEFPOINTS
  6
BYBLOCK
 62
     0
 10
4788.667671
 20
84460.0
 30
0.0
  0
ENDBLK
  5
125
  8
0
  0
BLOCK
  8
0
  2
*D6
 70
     1
 10
0.0
 20
0.0
 30
0.0
  3
*D6
  1

  0
LINE
  5
10C
  8
0
  6
BYBLOCK
 62
     9
 10
4460.0
 20
84766.0
 30
0.0
 11
4460.0
 21
84883.444865
 31
0.0
  0
LINE
  5
10D
  8
0
  6
BYBLOCK
 62
     9
 10
4000.0
 20
84836.526435
 30
0.0
 11
4000.0
 21
84883.444865
 31
0.0
  0
LINE
  5
10E
  8
0
  6
BYBLOCK
 62
     9
 10
4440.0
 20
84882.444865
 30
0.0
 11
4280.75
 21
84882.444865
 31
0.0
  0
LINE
  5
10F
  8
0
  6
BYBLOCK
 62
     9
 10
4020.0
 20
84882.444865
 30
0.0
 11
4179.25
 21
84882.444865
 31
0.0
  0
SOLID
  5
110
  8
0
  6
BYBLOCK
 62
     9
 10
4440.0
 20
84885.778198
 30
0.0
 11
4440.0
 21
84879.111532
 31
0.0
 12
4460.0
 22
84882.444865
 32
0.0
 13
4460.0
 23
84882.444865
 33
0.0
  0
SOLID
  5
111
  8
0
  6
BYBLOCK
 62
     9
 10
4020.0
 20
84885.778198
 30
0.0
 11
4020.0
 21
84879.111532
 31
0.0
 12
4000.0
 22
84882.444865
 32
0.0
 13
4000.0
 23
84882.444865
 33
0.0
  0
TEXT
  5
112
  8
0
  6
BYBLOCK
 62
    11
 10
4186.25
 20
84864.944865
 30
0.0
 40
35.0
  1
460
  0
POINT
  5
113
  8
DEFPOINTS
  6
BYBLOCK
 62
     0
 10
4460.0
 20
84756.0
 30
0.0
  0
POINT
  5
114
  8
DEFPOINTS
  6
BYBLOCK
 62
     0
 10
4000.0
 20
84826.526435
 30
0.0
  0
POINT
  5
115
  8
DEFPOINTS
  6
BYBLOCK
 62
     0
 10
4000.0
 20
84882.444865
 30
0.0
  0
ENDBLK
  5
117
  8
0
  0
BLOCK
  8
0
  2
*D7
 70
     1
 10
0.0
 20
0.0
 30
0.0
  3
*D7
  1

  0
LINE
  5
4D
  8
0
  6
BYBLOCK
 62
     9
 10
3400.0
 20
84852.003237
 30
0.0
 11
3400.0
 21
85047.723985
 31
0.0
  0
LINE
  5
4E
  8
0
  6
BYBLOCK
 62
     9
 10
4600.0
 20
84852.003237
 30
0.0
 11
4600.0
 21
85047.723985
 31
0.0
  0
LINE
  5
4F
  8
0
  6
BYBLOCK
 62
     9
 10
3420.0
 20
85046.723985
 30
0.0
 11
3940.5
 21
85046.723985
 31
0.0
  0
LINE
  5
50
  8
0
  6
BYBLOCK
 62
     9
 10
4580.0
 20
85046.723985
 30
0.0
 11
4059.5
 21
85046.723985
 31
0.0
  0
SOLID
  5
51
  8
0
  6
BYBLOCK
 62
     9
 10
3420.0
 20
85050.057318
 30
0.0
 11
3420.0
 21
85043.390651
 31
0.0
 12
3400.0
 22
85046.723985
 32
0.0
 13
3400.0
 23
85046.723985
 33
0.0
  0
SOLID
  5
52
  8
0
  6
BYBLOCK
 62
     9
 10
4580.0
 20
85050.057318
 30
0.0
 11
4580.0
 21
85043.390651
 31
0.0
 12
4600.0
 22
85046.723985
 32
0.0
 13
4600.0
 23
85046.723985
 33
0.0
  0
TEXT
  5
53
  8
0
  6
BYBLOCK
 62
    11
 10
3947.5
 20
85029.223985
 30
0.0
 40
35.0
  1
1200
  0
POINT
  5
54
  8
DEFPOINTS
  6
BYBLOCK
 62
     0
 10
3400.0
 20
84842.003237
 30
0.0
  0
POINT
  5
55
  8
DEFPOINTS
  6
BYBLOCK
 62
     0
 10
4600.0
 20
84842.003237
 30
0.0
  0
POINT
  5
56
  8
DEFPOINTS
  6
BYBLOCK
 62
     0
 10
4600.0
 20
85046.723985
 30
0.0
  0
ENDBLK
  5
58
  8
0
  0
BLOCK
  8
0
  2
*D8
 70
     1
 10
0.0
 20
0.0
 30
0.0
  3
*D8
  1

  0
LINE
  5
3F
  8
0
  6
BYBLOCK
 62
     9
 10
3700.0
 20
85030.0
 30
0.0
 11
3700.0
 21
84974.259635
 31
0.0
  0
LINE
  5
40
  8
0
  6
BYBLOCK
 62
     9
 10
4300.0
 20
85030.0
 30
0.0
 11
4300.0
 21
84974.259635
 31
0.0
  0
LINE
  5
41
  8
0
  6
BYBLOCK
 62
     9
 10
3720.0
 20
84975.259635
 30
0.0
 11
3952.166667
 21
84975.259635
 31
0.0
  0
LINE
  5
42
  8
0
  6
BYBLOCK
 62
     9
 10
4280.0
 20
84975.259635
 30
0.0
 11
4047.833333
 21
84975.259635
 31
0.0
  0
SOLID
  5
43
  8
0
  6
BYBLOCK
 62
     9
 10
3720.0
 20
84978.592969
 30
0.0
 11
3720.0
 21
84971.926302
 31
0.0
 12
3700.0
 22
84975.259635
 32
0.0
 13
3700.0
 23
84975.259635
 33
0.0
  0
SOLID
  5
44
  8
0
  6
BYBLOCK
 62
     9
 10
4280.0
 20
84978.592969
 30
0.0
 11
4280.0
 21
84971.926302
 31
0.0
 12
4300.0
 22
84975.259635
 32
0.0
 13
4300.0
 23
84975.259635
 33
0.0
  0
TEXT
  5
45
  8
0
  6
BYBLOCK
 62
    11
 10
3959.166667
 20
84957.759635
 30
0.0
 40
35.0
  1
600
  0
POINT
  5
46
  8
DEFPOINTS
  6
BYBLOCK
 62
     0
 10
3700.0
 20
85040.0
 30
0.0
  0
POINT
  5
47
  8
DEFPOINTS
  6
BYBLOCK
 62
     0
 10
4300.0
 20
85040.0
 30
0.0
  0
POINT
  5
48
  8
DEFPOINTS
  6
BYBLOCK
 62
     0
 10
4300.0
 20
84975.259635
 30
0.0
  0
ENDBLK
  5
4A
  8
0
  0
BLOCK
  8
0
  2
*D9
 70
     1
 10
0.0
 20
0.0
 30
0.0
  3
*D9
  1

  0
LINE
  5
FE
  8
0
  6
BYBLOCK
 62
     9
 10
4607.534952
 20
84800.0
 30
0.0
 11
4744.012199
 21
84800.0
 31
0.0
  0
LINE
  5
FF
  8
0
  6
BYBLOCK
 62
     9
 10
4000.967761
 20
84592.0
 30
0.0
 11
4744.012199
 21
84592.0
 31
0.0
  0
LINE
  5
100
  8
0
  6
BYBLOCK
 62
     9
 10
4743.012199
 20
84780.0
 30
0.0
 11
4743.012199
 21
84752.25
 31
0.0
  0
LINE
  5
101
  8
0
  6
BYBLOCK
 62
     9
 10
4743.012199
 20
84612.0
 30
0.0
 11
4743.012199
 21
84650.75
 31
0.0
  0
TEXT
  5
102
  8
0
  6
BYBLOCK
 62
    11
 10
4740.821127
 20
84657.75
 30
0.0
 40
35.0
  1
208
 50
90.0
  0
SOLID
  5
103
  8
0
  6
BYBLOCK
 62
     9
 10
4739.678866
 20
84780.0
 30
0.0
 11
4746.345532
 21
84780.0
 31
0.0
 12
4743.012199
 22
84800.0
 32
0.0
 13
4743.012199
 23
84800.0
 33
0.0
  0
SOLID
  5
104
  8
0
  6
BYBLOCK
 62
     9
 10
4739.678866
 20
84612.0
 30
0.0
 11
4746.345532
 21
84612.0
 31
0.0
 12
4743.012199
 22
84592.0
 32
0.0
 13
4743.012199
 23
84592.0
 33
0.0
  0
POINT
  5
105
  8
DEFPOINTS
  6
BYBLOCK
 62
     0
 10
4597.534952
 20
84800.0
 30
0.0
  0
POINT
  5
106
  8
DEFPOINTS
  6
BYBLOCK
 62
     0
 10
3990.967761
 20
84592.0
 30
0.0
  0
POINT
  5
107
  8
DEFPOINTS
  6
BYBLOCK
 62
     0
 10
4743.012199
 20
84592.0
 30
0.0
  0
ENDBLK
  5
109
  8
0
  0
BLOCK
  8
0
  2
*D10
 70
     1
 10
0.0
 20
0.0
 30
0.0
  3
*D10
  1

  0
LINE
  5
F0
  8
0
  6
BYBLOCK
 62
     9
 10
4000.967761
 20
84000.0
 30
0.0
 11
4964.326953
 21
84000.0
 31
0.0
  0
LINE
  5
F1
  8
0
  6
BYBLOCK
 62
     9
 10
4386.5
 20
85020.0
 30
0.0
 11
4964.326953
 21
85020.0
 31
0.0
  0
LINE
  5
F2
  8
0
  6
BYBLOCK
 62
     9
 10
4963.326953
 20
84020.0
 30
0.0
 11
4963.326953
 21
84423.416667
 31
0.0
  0
LINE
  5
F3
  8
0
  6
BYBLOCK
 62
     9
 10
4963.326953
 20
85000.0
 30
0.0
 11
4963.326953
 21
84676.583333
 31
0.0
  0
TEXT
  5
F4
  8
0
  6
BYBLOCK
 62
    11
 10
4980.826953
 20
84430.416667
 30
0.0
 40
35.0
  1
950-1200
 50
90.0
  0
SOLID
  5
F5
  8
0
  6
BYBLOCK
 62
     9
 10
4959.99362
 20
84020.0
 30
0.0
 11
4966.660286
 21
84020.0
 31
0.0
 12
4963.326953
 22
84000.0
 32
0.0
 13
4963.326953
 23
84000.0
 33
0.0
  0
SOLID
  5
F6
  8
0
  6
BYBLOCK
 62
     9
 10
4959.99362
 20
85000.0
 30
0.0
 11
4966.660286
 21
85000.0
 31
0.0
 12
4963.326953
 22
85020.0
 32
0.0
 13
4963.326953
 23
85020.0
 33
0.0
  0
POINT
  5
F7
  8
DEFPOINTS
  6
BYBLOCK
 62
     0
 10
3990.967761
 20
84000.0
 30
0.0
  0
POINT
  5
F8
  8
DEFPOINTS
  6
BYBLOCK
 62
     0
 10
4376.5
 20
85020.0
 30
0.0
  0
POINT
  5
F9
  8
DEFPOINTS
  6
BYBLOCK
 62
     0
 10
4963.326953
 20
85020.0
 30
0.0
  0
ENDBLK
  5
FB
  8
0
  0
BLOCK
  8
0
  2
*D11
 70
     1
 10
0.0
 20
0.0
 30
0.0
  3
*D11
  1

  0
LINE
  5
E2
  8
0
  6
BYBLOCK
 62
     9
 10
4000.967761
 20
84000.0
 30
0.0
 11
4920.263439
 21
84000.0
 31
0.0
  0
LINE
  5
E3
  8
0
  6
BYBLOCK
 62
     9
 10
4386.5
 20
85020.0
 30
0.0
 11
4920.263439
 21
85020.0
 31
0.0
  0
LINE
  5
E4
  8
0
  6
BYBLOCK
 62
     9
 10
4919.263439
 20
84020.0
 30
0.0
 11
4919.263439
 21
84490.5
 31
0.0
  0
LINE
  5
E5
  8
0
  6
BYBLOCK
 62
     9
 10
4919.263439
 20
85000.0
 30
0.0
 11
4919.263439
 21
84609.5
 31
0.0
  0
TEXT
  5
E6
  8
0
  6
BYBLOCK
 62
    11
 10
4936.763439
 20
84497.5
 30
0.0
 40
35.0
  1
1020
 50
90.0
  0
SOLID
  5
E7
  8
0
  6
BYBLOCK
 62
     9
 10
4915.930105
 20
84020.0
 30
0.0
 11
4922.596772
 21
84020.0
 31
0.0
 12
4919.263439
 22
84000.0
 32
0.0
 13
4919.263439
 23
84000.0
 33
0.0
  0
SOLID
  5
E8
  8
0
  6
BYBLOCK
 62
     9
 10
4915.930105
 20
85000.0
 30
0.0
 11
4922.596772
 21
85000.0
 31
0.0
 12
4919.263439
 22
85020.0
 32
0.0
 13
4919.263439
 23
85020.0
 33
0.0
  0
POINT
  5
E9
  8
DEFPOINTS
  6
BYBLOCK
 62
     0
 10
3990.967761
 20
84000.0
 30
0.0
  0
POINT
  5
EA
  8
DEFPOINTS
  6
BYBLOCK
 62
     0
 10
4376.5
 20
85020.0
 30
0.0
  0
POINT
  5
EB
  8
DEFPOINTS
  6
BYBLOCK
 62
     0
 10
4919.263439
 20
85020.0
 30
0.0
  0
ENDBLK
  5
ED
  8
0
  0
BLOCK
  8
0
  2
*D12
 70
     1
 10
0.0
 20
0.0
 30
0.0
  3
*D12
  1

  0
LINE
  5
D4
  8
0
  6
BYBLOCK
 62
     9
 10
4000.967761
 20
84000.0
 30
0.0
 11
4874.606558
 21
84000.0
 31
0.0
  0
LINE
  5
D5
  8
0
  6
BYBLOCK
 62
     9
 10
4597.534952
 20
84800.0
 30
0.0
 11
4874.606558
 21
84800.0
 31
0.0
  0
LINE
  5
D6
  8
0
  6
BYBLOCK
 62
     9
 10
4873.606558
 20
84020.0
 30
0.0
 11
4873.606558
 21
84285.083333
 31
0.0
  0
LINE
  5
D7
  8
0
  6
BYBLOCK
 62
     9
 10
4873.606558
 20
84780.0
 30
0.0
 11
4873.606558
 21
84514.916667
 31
0.0
  0
SOLID
  5
D8
  8
0
  6
BYBLOCK
 62
     9
 10
4870.273224
 20
84020.0
 30
0.0
 11
4876.939891
 21
84020.0
 31
0.0
 12
4873.606558
 22
84000.0
 32
0.0
 13
4873.606558
 23
84000.0
 33
0.0
  0
SOLID
  5
D9
  8
0
  6
BYBLOCK
 62
     9
 10
4870.273224
 20
84780.0
 30
0.0
 11
4876.939891
 21
84780.0
 31
0.0
 12
4873.606558
 22
84800.0
 32
0.0
 13
4873.606558
 23
84800.0
 33
0.0
  0
TEXT
  5
DA
  8
0
  6
BYBLOCK
 62
    11
 10
4891.106558
 20
84292.083333
 30
0.0
 40
35.0
  1
600-850
 50
90.0
  0
POINT
  5
DB
  8
DEFPOINTS
  6
BYBLOCK
 62
     0
 10
3990.967761
 20
84000.0
 30
0.0
  0
POINT
  5
DC
  8
DEFPOINTS
  6
BYBLOCK
 62
     0
 10
4587.534952
 20
84800.0
 30
0.0
  0
POINT
  5
DD
  8
DEFPOINTS
  6
BYBLOCK
 62
     0
 10
4873.606558
 20
84800.0
 30
0.0
  0
ENDBLK
  5
DF
  8
0
  0
BLOCK
  8
0
  2
*D13
 70
     1
 10
0.0
 20
0.0
 30
0.0
  3
*D13
  1

  0
LINE
  5
31
  8
0
  6
BYBLOCK
 62
     9
 10
4000.0
 20
84420.0
 30
0.0
 11
4000.0
 21
84320.707486
 31
0.0
  0
LINE
  5
32
  8
0
  6
BYBLOCK
 62
     9
 10
3650.0
 20
84542.0
 30
0.0
 11
3650.0
 21
84320.707486
 31
0.0
  0
LINE
  5
33
  8
0
  6
BYBLOCK
 62
     9
 10
3980.0
 20
84321.707486
 30
0.0
 11
3875.75
 21
84321.707486
 31
0.0
  0
LINE
  5
34
  8
0
  6
BYBLOCK
 62
     9
 10
3670.0
 20
84321.707486
 30
0.0
 11
3774.25
 21
84321.707486
 31
0.0
  0
SOLID
  5
35
  8
0
  6
BYBLOCK
 62
     9
 10
3980.0
 20
84325.04082
 30
0.0
 11
3980.0
 21
84318.374153
 31
0.0
 12
4000.0
 22
84321.707486
 32
0.0
 13
4000.0
 23
84321.707486
 33
0.0
  0
SOLID
  5
36
  8
0
  6
BYBLOCK
 62
     9
 10
3670.0
 20
84325.04082
 30
0.0
 11
3670.0
 21
84318.374153
 31
0.0
 12
3650.0
 22
84321.707486
 32
0.0
 13
3650.0
 23
84321.707486
 33
0.0
  0
TEXT
  5
37
  8
0
  6
BYBLOCK
 62
    11
 10
3781.25
 20
84304.207486
 30
0.0
 40
35.0
  1
350
  0
POINT
  5
38
  8
DEFPOINTS
  6
BYBLOCK
 62
     0
 10
4000.0
 20
84430.0
 30
0.0
  0
POINT
  5
39
  8
DEFPOINTS
  6
BYBLOCK
 62
     0
 10
3650.0
 20
84552.0
 30
0.0
  0
POINT
  5
3A
  8
DEFPOINTS
  6
BYBLOCK
 62
     0
 10
3650.0
 20
84321.707486
 30
0.0
  0
ENDBLK
  5
3C
  8
0
  0
BLOCK
  8
0
  2
*D14
 70
     1
 10
0.0
 20
0.0
 30
0.0
  3
*D14
  1

  0
LINE
  5
22
  8
0
  6
BYBLOCK
 62
     9
 10
3540.0
 20
84766.0
 30
0.0
 11
3540.0
 21
84883.444865
 31
0.0
  0
LINE
  5
23
  8
0
  6
BYBLOCK
 62
     9
 10
4000.0
 20
84836.526435
 30
0.0
 11
4000.0
 21
84883.444865
 31
0.0
  0
LINE
  5
24
  8
0
  6
BYBLOCK
 62
     9
 10
3560.0
 20
84882.444865
 30
0.0
 11
3719.25
 21
84882.444865
 31
0.0
  0
LINE
  5
25
  8
0
  6
BYBLOCK
 62
     9
 10
3980.0
 20
84882.444865
 30
0.0
 11
3820.75
 21
84882.444865
 31
0.0
  0
SOLID
  5
26
  8
0
  6
BYBLOCK
 62
     9
 10
3560.0
 20
84885.778198
 30
0.0
 11
3560.0
 21
84879.111532
 31
0.0
 12
3540.0
 22
84882.444865
 32
0.0
 13
3540.0
 23
84882.444865
 33
0.0
  0
SOLID
  5
27
  8
0
  6
BYBLOCK
 62
     9
 10
3980.0
 20
84885.778198
 30
0.0
 11
3980.0
 21
84879.111532
 31
0.0
 12
4000.0
 22
84882.444865
 32
0.0
 13
4000.0
 23
84882.444865
 33
0.0
  0
TEXT
  5
28
  8
0
  6
BYBLOCK
 62
    11
 10
3726.25
 20
84864.944865
 30
0.0
 40
35.0
  1
460
  0
POINT
  5
29
  8
DEFPOINTS
  6
BYBLOCK
 62
     0
 10
3540.0
 20
84756.0
 30
0.0
  0
POINT
  5
2B
  8
DEFPOINTS
  6
BYBLOCK
 62
     0
 10
4000.0
 20
84826.526435
 30
0.0
  0
POINT
  5
2C
  8
DEFPOINTS
  6
BYBLOCK
 62
     0
 10
4000.0
 20
84882.444865
 30
0.0
  0
ENDBLK
  5
2E
  8
0
  0
BLOCK
  8
0
  2
*D15
 70
     1
 10
0.0
 20
0.0
 30
0.0
  3
*D15
  1

  0
LINE
  5
71
  8
0
  6
BYBLOCK
 62
     9
 10
3623.5
 20
85010.0
 30
0.0
 11
3623.5
 21
84942.796776
 31
0.0
  0
LINE
  5
72
  8
0
  6
BYBLOCK
 62
     9
 10
3776.5
 20
85010.0
 30
0.0
 11
3776.5
 21
84942.796776
 31
0.0
  0
LINE
  5
73
  8
0
  6
BYBLOCK
 62
     9
 10
3643.5
 20
84943.796776
 30
0.0
 11
3652.166667
 21
84943.796776
 31
0.0
  0
LINE
  5
74
  8
0
  6
BYBLOCK
 62
     9
 10
3756.5
 20
84943.796776
 30
0.0
 11
3747.833333
 21
84943.796776
 31
0.0
  0
TEXT
  5
75
  8
0
  6
BYBLOCK
 62
    11
 10
3659.166667
 20
84926.296776
 30
0.0
 40
35.0
  1
153
  0
SOLID
  5
76
  8
0
  6
BYBLOCK
 62
     9
 10
3643.5
 20
84947.130109
 30
0.0
 11
3643.5
 21
84940.463442
 31
0.0
 12
3623.5
 22
84943.796776
 32
0.0
 13
3623.5
 23
84943.796776
 33
0.0
  0
SOLID
  5
77
  8
0
  6
BYBLOCK
 62
     9
 10
3756.5
 20
84947.130109
 30
0.0
 11
3756.5
 21
84940.463442
 31
0.0
 12
3776.5
 22
84943.796776
 32
0.0
 13
3776.5
 23
84943.796776
 33
0.0
  0
POINT
  5
78
  8
DEFPOINTS
  6
BYBLOCK
 62
     0
 10
3623.5
 20
85020.0
 30
0.0
  0
POINT
  5
79
  8
DEFPOINTS
  6
BYBLOCK
 62
     0
 10
3776.5
 20
85020.0
 30
0.0
  0
POINT
  5
7A
  8
DEFPOINTS
  6
BYBLOCK
 62
     0
 10
3776.5
 20
84943.796776
 30
0.0
  0
ENDBLK
  5
7C
  8
0
  0
BLOCK
  8
0
  2
*D16
 70
     1
 10
0.0
 20
0.0
 30
0.0
  3
*D16
  1

  0
LINE
  5
C5
  8
0
  6
BYBLOCK
 62
     9
 10
4610.0
 20
84842.003237
 30
0.0
 11
4744.012199
 21
84842.003237
 31
0.0
  0
LINE
  5
C6
  8
0
  6
BYBLOCK
 62
     9
 10
4607.534952
 20
84800.0
 30
0.0
 11
4744.012199
 21
84800.0
 31
0.0
  0
LINE
  5
C7
  8
0
  6
BYBLOCK
 62
     9
 10
4743.012199
 20
84862.003237
 30
0.0
 11
4743.012199
 21
84882.003237
 31
0.0
  0
LINE
  5
C8
  8
0
  6
BYBLOCK
 62
     9
 10
4743.012199
 20
84780.0
 30
0.0
 11
4743.012199
 21
84760.0
 31
0.0
  0
TEXT
  5
C9
  8
0
  6
BYBLOCK
 62
    11
 10
4760.512199
 20
84878.491198
 30
0.0
 40
35.0
  1
42
 50
90.0
  0
LINE
  5
CA
  8
0
  6
BYBLOCK
 62
     9
 10
4743.012199
 20
84842.003237
 30
0.0
 11
4743.012199
 21
84800.0
 31
0.0
  0
SOLID
  5
CB
  8
0
  6
BYBLOCK
 62
     9
 10
4739.678866
 20
84862.003237
 30
0.0
 11
4746.345532
 21
84862.003237
 31
0.0
 12
4743.012199
 22
84842.003237
 32
0.0
 13
4743.012199
 23
84842.003237
 33
0.0
  0
SOLID
  5
CC
  8
0
  6
BYBLOCK
 62
     9
 10
4739.678866
 20
84780.0
 30
0.0
 11
4746.345532
 21
84780.0
 31
0.0
 12
4743.012199
 22
84800.0
 32
0.0
 13
4743.012199
 23
84800.0
 33
0.0
  0
POINT
  5
CD
  8
DEFPOINTS
  6
BYBLOCK
 62
     0
 10
4600.0
 20
84842.003237
 30
0.0
  0
POINT
  5
CE
  8
DEFPOINTS
  6
BYBLOCK
 62
     0
 10
4597.534952
 20
84800.0
 30
0.0
  0
POINT
  5
CF
  8
DEFPOINTS
  6
BYBLOCK
 62
     0
 10
4743.012199
 20
84800.0
 30
0.0
  0
ENDBLK
  5
D1
  8
0
  0
BLOCK
  8
0
  2
*D17
 70
     1
 10
0.0
 20
0.0
 30
0.0
  3
*D17
  1

  0
LINE
  5
B7
  8
0
  6
BYBLOCK
 62
     9
 10
4223.5
 20
85010.0
 30
0.0
 11
4223.5
 21
84942.796776
 31
0.0
  0
LINE
  5
B8
  8
0
  6
BYBLOCK
 62
     9
 10
4376.5
 20
85010.0
 30
0.0
 11
4376.5
 21
84942.796776
 31
0.0
  0
LINE
  5
B9
  8
0
  6
BYBLOCK
 62
     9
 10
4243.5
 20
84943.796776
 30
0.0
 11
4252.166667
 21
84943.796776
 31
0.0
  0
LINE
  5
BA
  8
0
  6
BYBLOCK
 62
     9
 10
4356.5
 20
84943.796776
 30
0.0
 11
4347.833333
 21
84943.796776
 31
0.0
  0
TEXT
  5
BB
  8
0
  6
BYBLOCK
 62
    11
 10
4259.166667
 20
84926.296776
 30
0.0
 40
35.0
  1
153
  0
SOLID
  5
BC
  8
0
  6
BYBLOCK
 62
     9
 10
4243.5
 20
84947.130109
 30
0.0
 11
4243.5
 21
84940.463442
 31
0.0
 12
4223.5
 22
84943.796776
 32
0.0
 13
4223.5
 23
84943.796776
 33
0.0
  0
SOLID
  5
BD
  8
0
  6
BYBLOCK
 62
     9
 10
4356.5
 20
84947.130109
 30
0.0
 11
4356.5
 21
84940.463442
 31
0.0
 12
4376.5
 22
84943.796776
 32
0.0
 13
4376.5
 23
84943.796776
 33
0.0
  0
POINT
  5
BE
  8
DEFPOINTS
  6
BYBLOCK
 62
     0
 10
4223.5
 20
85020.0
 30
0.0
  0
POINT
  5
BF
  8
DEFPOINTS
  6
BYBLOCK
 62
     0
 10
4376.5
 20
85020.0
 30
0.0
  0
POINT
  5
C0
  8
DEFPOINTS
  6
BYBLOCK
 62
     0
 10
4376.5
 20
84943.796776
 30
0.0
  0
ENDBLK
  5
C2
  8
0
  0
BLOCK
  8
0
  2
*D18
 70
     1
 10
0.0
 20
0.0
 30
0.0
  3
*D18
  1

  0
LINE
  5
A9
  8
0
  6
BYBLOCK
 62
     9
 10
4610.0
 20
84800.0
 30
0.0
 11
4700.5098
 21
84800.0
 31
0.0
  0
LINE
  5
AA
  8
0
  6
BYBLOCK
 62
     9
 10
4356.967761
 20
84558.0
 30
0.0
 11
4700.5098
 21
84558.0
 31
0.0
  0
LINE
  5
AB
  8
0
  6
BYBLOCK
 62
     9
 10
4699.5098
 20
84780.0
 30
0.0
 11
4699.5098
 21
84732.666667
 31
0.0
  0
LINE
  5
AC
  8
0
  6
BYBLOCK
 62
     9
 10
4699.5098
 20
84578.0
 30
0.0
 11
4699.5098
 21
84625.333333
 31
0.0
  0
TEXT
  5
AD
  8
0
  6
BYBLOCK
 62
    11
 10
4694.128635
 20
84632.333333
 30
0.0
 40
35.0
  1
242
 50
90.0
  0
SOLID
  5
AE
  8
0
  6
BYBLOCK
 62
     9
 10
4696.176466
 20
84780.0
 30
0.0
 11
4702.843133
 21
84780.0
 31
0.0
 12
4699.5098
 22
84800.0
 32
0.0
 13
4699.5098
 23
84800.0
 33
0.0
  0
SOLID
  5
AF
  8
0
  6
BYBLOCK
 62
     9
 10
4696.176466
 20
84578.0
 30
0.0
 11
4702.843133
 21
84578.0
 31
0.0
 12
4699.5098
 22
84558.0
 32
0.0
 13
4699.5098
 23
84558.0
 33
0.0
  0
POINT
  5
B0
  8
DEFPOINTS
  6
BYBLOCK
 62
     0
 10
4600.0
 20
84800.0
 30
0.0
  0
POINT
  5
B1
  8
DEFPOINTS
  6
BYBLOCK
 62
     0
 10
4346.967761
 20
84558.0
 30
0.0
  0
POINT
  5
B2
  8
DEFPOINTS
  6
BYBLOCK
 62
     0
 10
4699.5098
 20
84558.0
 30
0.0
  0
ENDBLK
  5
B4
  8
0
  0
BLOCK
  8
0
  2
*D19
 70
     1
 10
0.0
 20
0.0
 30
0.0
  3
*D19
  1

  0
LINE
  5
9A
  8
0
  6
BYBLOCK
 62
     9
 10
4610.0
 20
84800.0
 30
0.0
 11
4660.149331
 21
84800.0
 31
0.0
  0
LINE
  5
9B
  8
0
  6
BYBLOCK
 62
     9
 10
4466.967761
 20
84750.0
 30
0.0
 11
4660.149331
 21
84750.0
 31
0.0
  0
LINE
  5
9C
  8
0
  6
BYBLOCK
 62
     9
 10
4659.149331
 20
84820.0
 30
0.0
 11
4659.149331
 21
84840.0
 31
0.0
  0
LINE
  5
9D
  8
0
  6
BYBLOCK
 62
     9
 10
4659.149331
 20
84730.0
 30
0.0
 11
4659.149331
 21
84710.0
 31
0.0
  0
TEXT
  5
9E
  8
0
  6
BYBLOCK
 62
    11
 10
4652.303596
 20
84748.75
 30
0.0
 40
35.0
  1
50
 50
90.0
  0
LINE
  5
9F
  8
0
  6
BYBLOCK
 62
     9
 10
4659.149331
 20
84800.0
 30
0.0
 11
4659.149331
 21
84750.0
 31
0.0
  0
SOLID
  5
A0
  8
0
  6
BYBLOCK
 62
     9
 10
4655.815997
 20
84820.0
 30
0.0
 11
4662.482664
 21
84820.0
 31
0.0
 12
4659.149331
 22
84800.0
 32
0.0
 13
4659.149331
 23
84800.0
 33
0.0
  0
SOLID
  5
A1
  8
0
  6
BYBLOCK
 62
     9
 10
4655.815997
 20
84730.0
 30
0.0
 11
4662.482664
 21
84730.0
 31
0.0
 12
4659.149331
 22
84750.0
 32
0.0
 13
4659.149331
 23
84750.0
 33
0.0
  0
POINT
  5
A2
  8
DEFPOINTS
  6
BYBLOCK
 62
     0
 10
4600.0
 20
84800.0
 30
0.0
  0
POINT
  5
A3
  8
DEFPOINTS
  6
BYBLOCK
 62
     0
 10
4456.967761
 20
84750.0
 30
0.0
  0
POINT
  5
A4
  8
DEFPOINTS
  6
BYBLOCK
 62
     0
 10
4659.149331
 20
84750.0
 30
0.0
  0
ENDBLK
  5
A6
  8
0
  0
ENDSEC
  0
SECTION
  2
ENTITIES
  0
DIMENSION
  5
20
  8
TEAM-MAS
  2
*D14
 10
0.0
 20
882.444865
 30
0.0
 11
-230.0
 21
882.444865
 31
0.0
 12
-4000.0
 22
-84000.0
 32
0.0
 13
-460.0
 23
756.0
 33
0.0
 14
0.0
 24
826.526435
 34
0.0
1001
ACAD
1000
DSTYLE
1002
{
1070
    40
1040
1.0
1002
}
  0
DIMENSION
  5
2F
  8
TEAM-MAS
  2
*D13
 10
-350.0
 20
321.707486
 30
0.0
 11
-175.0
 21
321.707486
 31
0.0
 12
-4000.0
 22
-84000.0
 32
0.0
 13
0.0
 23
430.0
 33
0.0
 14
-350.0
 24
552.0
 34
0.0
1001
ACAD
1000
DSTYLE
1002
{
1070
    40
1040
1.0
1002
}
  0
DIMENSION
  5
3D
  8
TEAM-MAS
  2
*D8
 10
300.0
 20
975.259635
 30
0.0
 11
0.0
 21
975.259635
 31
0.0
 12
-4000.0
 22
-84000.0
 32
0.0
 13
-300.0
 23
1040.0
 33
0.0
 14
300.0
 24
1040.0
 34
0.0
  0
DIMENSION
  5
4B
  8
TEAM-MAS
  2
*D7
 10
600.0
 20
1046.723985
 30
0.0
 11
0.0
 21
1046.723985
 31
0.0
 12
-4000.0
 22
-84000.0
 32
0.0
 13
-600.0
 23
842.003237
 33
0.0
 14
600.0
 24
842.003237
 34
0.0
  0
DIMENSION
  5
59
  8
TEAM-MAS
  2
*D3
 10
100.0
 20
258.30533
 30
0.0
 11
0.0
 21
258.30533
 31
0.0
 12
-4000.0
 22
-84000.0
 32
0.0
 13
-100.0
 23
555.0
 33
0.0
 14
100.0
 24
555.0
 34
0.0
  0
LINE
  5
67
  8
TEAM-BODY
 10
600.0
 20
842.003237
 30
0.0
 11
-600.0
 21
842.003237
 31
0.0
  0
TEXT
  5
69
  8
TEAM-TXT
 10
-113.427831
 20
620.591986
 30
0.0
 40
30.0
  1
team 421041
 41
0.8
 51
15.0
  7
TEAM
  0
LINE
  5
6C
  8
TEAM-BODY
 10
-465.0
 20
592.0
 30
0.0
 11
465.0
 21
592.0
 31
0.0
  0
LINE
  5
6D
  8
TEAM-BODY
 10
600.0
 20
715.822257
 30
0.0
 11
-600.0
 21
715.822257
 31
0.0
  0
LINE
  5
6E
  8
TEAM-BODY
 10
600.0
 20
800.0
 30
0.0
 11
-600.0
 21
800.0
 31
0.0
  0
DIMENSION
  5
6F
  8
TEAM-MAS
  2
*D15
 10
-223.5
 20
943.796776
 30
0.0
 11
-300.0
 21
943.796776
 31
0.0
 12
-4000.0
 22
-84000.0
 32
0.0
 70
   128
 13
-376.5
 23
1020.0
 33
0.0
 14
-223.5
 24
1020.0
 34
0.0
  0
LINE
  5
7D
  8
TEAM-BODY
 10
-600.0
 20
842.003237
 30
0.0
 11
-600.0
 21
715.822257
 31
0.0
  0
CIRCLE
  5
7E
  8
TEAM-HIDE
 10
-460.0
 20
750.0
 30
0.0
 40
5.0
  0
LINE
  5
81
  8
TEAM-AXE
 10
-460.0
 20
756.0
 30
0.0
 11
-460.0
 21
744.0
 31
0.0
  0
LINE
  5
84
  8
TEAM-AXE
 10
-466.0
 20
750.0
 30
0.0
 11
-454.0
 21
750.0
 31
0.0
  0
POLYLINE
  5
85
  8
TEAM-BODY
 66
     1
 10
0.0
 20
0.0
 30
0.0
  0
VERTEX
  5
1DC
  8
TEAM-BODY
 10
-375.0
 20
592.0
 30
0.0
  0
VERTEX
  5
1DD
  8
TEAM-BODY
 10
-375.0
 20
534.402371
 30
0.0
  0
VERTEX
  5
1DE
  8
TEAM-BODY
 10
-325.0
 20
534.402371
 30
0.0
  0
VERTEX
  5
1DF
  8
TEAM-BODY
 10
-325.0
 20
592.0
 30
0.0
  0
SEQEND
  5
1E0
  8
TEAM-BODY
  0
ARC
  5
86
  8
TEAM-BODY
 10
-457.52086
 20
700.331813
 30
0.0
 40
108.589683
 50
171.798714
 51
266.050613
  0
LINE
  5
87
  8
TEAM-AXE
 10
-100.0
 20
592.0
 30
0.0
 11
-100.0
 21
555.0
 31
0.0
  0
LINE
  5
88
  8
TEAM-WARM
 10
-90.0
 20
592.0
 30
0.0
 11
-90.0
 21
555.0
 31
0.0
  0
LINE
  5
8A
  8
TEAM-WARM
 10
-110.0
 20
592.0
 30
0.0
 11
-110.0
 21
555.0
 31
0.0
  0
LINE
  5
8B
  8
TEAM-AXE
 10
-300.0
 20
1000.0
 30
0.0
 11
-300.0
 21
1040.0
 31
0.0
  0
LINE
  5
8C
  8
TEAM-AXE
 10
-223.5
 20
1000.0
 30
0.0
 11
-223.5
 21
1040.0
 31
0.0
  0
LINE
  5
8D
  8
TEAM-AXE
 10
-376.5
 20
1000.0
 30
0.0
 11
-376.5
 21
1040.0
 31
0.0
  0
LINE
  5
8E
  8
TEAM-AXE
 10
-320.0
 20
1020.0
 30
0.0
 11
-280.0
 21
1020.0
 31
0.0
  0
CIRCLE
  5
8F
  8
TEAM-COLD
 10
-223.5
 20
1020.0
 30
0.0
 40
15.0
  0
LINE
  5
91
  8
TEAM-AXE
 10
-243.5
 20
1020.0
 30
0.0
 11
-203.5
 21
1020.0
 31
0.0
  0
CIRCLE
  5
92
  8
TEAM-WARM
 10
-376.5
 20
1020.0
 30
0.0
 40
15.0
  0
LINE
  5
93
  8
TEAM-AXE
 10
-396.5
 20
1020.0
 30
0.0
 11
-356.5
 21
1020.0
 31
0.0
  0
LINE
  5
94
  8
TEAM-WARM
 10
-110.0
 20
555.0
 30
0.0
 11
-90.0
 21
555.0
 31
0.0
  0
LINE
  5
95
  8
TEAM-AXE
 10
-356.0
 20
558.0
 30
0.0
 11
-344.0
 21
558.0
 31
0.0
  0
LINE
  5
96
  8
TEAM-AXE
 10
-350.0
 20
564.0
 30
0.0
 11
-350.0
 21
552.0
 31
0.0
  0
CIRCLE
  5
97
  8
TEAM-HIDE
 10
-350.0
 20
558.0
 30
0.0
 40
5.0
  0
DIMENSION
  5
98
  8
TEAM-MAS
  2
*D19
 10
659.149331
 20
750.0
 30
0.0
 11
634.803596
 21
775.0
 31
0.0
 12
-4000.0
 22
-84000.0
 32
0.0
 70
   128
 13
600.0
 23
800.0
 33
0.0
 14
456.967761
 24
750.0
 34
0.0
 50
90.0
1001
ACAD
1000
DSTYLE
1002
{
1070
    40
1040
1.0
1002
}
  0
DIMENSION
  5
A7
  8
TEAM-MAS
  2
*D18
 10
699.5098
 20
558.0
 30
0.0
 11
676.628635
 21
679.0
 31
0.0
 12
-4000.0
 22
-84000.0
 32
0.0
 70
   128
 13
600.0
 23
800.0
 33
0.0
 14
346.967761
 24
558.0
 34
0.0
 50
90.0
1001
ACAD
1000
DSTYLE
1002
{
1070
    40
1040
1.0
1002
}
  0
DIMENSION
  5
B5
  8
TEAM-MAS
  2
*D17
 10
376.5
 20
943.796776
 30
0.0
 11
300.0
 21
943.796776
 31
0.0
 12
-4000.0
 22
-84000.0
 32
0.0
 70
   128
 13
223.5
 23
1020.0
 33
0.0
 14
376.5
 24
1020.0
 34
0.0
  0
DIMENSION
  5
C3
  8
TEAM-MAS
  2
*D16
 10
743.012199
 20
800.0
 30
0.0
 11
743.012199
 21
907.657865
 31
0.0
 12
-4000.0
 22
-84000.0
 32
0.0
 70
   128
 13
600.0
 23
842.003237
 33
0.0
 14
597.534952
 24
800.0
 34
0.0
 50
90.0
1001
ACAD
1000
DSTYLE
1002
{
1070
    40
1040
1.0
1002
}
  0
DIMENSION
  5
D2
  8
TEAM-MAS
  2
*D12
 10
873.606558
 20
800.0
 30
0.0
 11
873.606558
 21
400.0
 31
0.0
 12
-4000.0
 22
-84000.0
 32
0.0
  1
600-850
 13
-9.032239
 23
0.0
 33
0.0
 14
587.534952
 24
800.0
 34
0.0
 50
90.0
  0
DIMENSION
  5
E0
  8
TEAM-MAS
  2
*D11
 10
919.263439
 20
1020.0
 30
0.0
 11
919.263439
 21
550.0
 31
0.0
 12
-4000.0
 22
-84000.0
 32
0.0
 70
   128
 13
-9.032239
 23
0.0
 33
0.0
 14
376.5
 24
1020.0
 34
0.0
 50
90.0
  0
DIMENSION
  5
EE
  8
TEAM-MAS
  2
*D10
 10
963.326953
 20
1020.0
 30
0.0
 11
963.326953
 21
550.0
 31
0.0
 12
-4000.0
 22
-84000.0
 32
0.0
 70
   128
  1
950-1200
 13
-9.032239
 23
0.0
 33
0.0
 14
376.5
 24
1020.0
 34
0.0
 50
90.0
  0
DIMENSION
  5
FC
  8
TEAM-MAS
  2
*D9
 10
743.012199
 20
592.0
 30
0.0
 11
723.321127
 21
701.5
 31
0.0
 12
-4000.0
 22
-84000.0
 32
0.0
 70
   128
 13
597.534952
 23
800.0
 33
0.0
 14
-9.032239
 24
592.0
 34
0.0
 50
90.0
  0
DIMENSION
  5
10A
  8
TEAM-MAS
  2
*D6
 10
0.0
 20
882.444865
 30
0.0
 11
230.0
 21
882.444865
 31
0.0
 12
-4000.0
 22
-84000.0
 32
0.0
 13
460.0
 23
756.0
 33
0.0
 14
0.0
 24
826.526435
 34
0.0
1001
ACAD
1000
DSTYLE
1002
{
1070
    40
1040
1.0
1002
}
  0
DIMENSION
  5
118
  8
TEAM-MAS
  2
*D5
 10
788.667671
 20
460.0
 30
0.0
 11
788.667671
 21
230.0
 31
0.0
 12
-4000.0
 22
-84000.0
 32
0.0
  1
300-500
 13
-9.032239
 23
0.0
 33
0.0
 14
-9.032239
 24
460.0
 34
0.0
 50
90.0
  0
DIMENSION
  5
126
  8
TEAM-MAS
  2
*D4
 10
743.012199
 20
460.0
 30
0.0
 11
743.012199
 21
230.0
 31
0.0
 12
-4000.0
 22
-84000.0
 32
0.0
 13
-9.032239
 23
0.0
 33
0.0
 14
-9.032239
 24
460.0
 34
0.0
 50
90.0
  0
DIMENSION
  5
134
  8
TEAM-MAS
  2
*D2
 10
788.667671
 20
460.0
 30
0.0
 11
788.667671
 21
645.5
 31
0.0
 12
-4000.0
 22
-84000.0
 32
0.0
 70
   128
 13
570.990976
 23
800.0
 33
0.0
 14
-9.032239
 24
460.0
 34
0.0
 50
90.0
  0
DIMENSION
  5
142
  8
TEAM-MAS
  2
*D1
 10
831.13641
 20
800.0
 30
0.0
 11
831.13641
 21
400.0
 31
0.0
 12
-4000.0
 22
-84000.0
 32
0.0
 13
-9.032239
 23
0.0
 33
0.0
 14
587.534952
 24
800.0
 34
0.0
 50
90.0
  0
DIMENSION
  5
150
  8
TEAM-MAS
  2
*D0
 10
0.0
 20
321.707486
 30
0.0
 11
175.0
 21
321.707486
 31
0.0
 12
-4000.0
 22
-84000.0
 32
0.0
 13
350.0
 23
552.0
 33
0.0
 14
0.0
 24
430.0
 34
0.0
1001
ACAD
1000
DSTYLE
1002
{
1070
    40
1040
1.0
1002
}
  0
LINE
  5
15E
  8
TEAM-BODY
 10
600.0
 20
842.003237
 30
0.0
 11
600.0
 21
715.822257
 31
0.0
  0
CIRCLE
  5
15F
  8
TEAM-HIDE
 10
460.0
 20
750.0
 30
0.0
 40
5.0
  0
LINE
  5
160
  8
TEAM-AXE
 10
460.0
 20
756.0
 30
0.0
 11
460.0
 21
744.0
 31
0.0
  0
LINE
  5
161
  8
TEAM-AXE
 10
454.0
 20
750.0
 30
0.0
 11
466.0
 21
750.0
 31
0.0
  0
LINE
  5
162
  8
TEAM-AXE
 10
100.0
 20
592.0
 30
0.0
 11
100.0
 21
555.0
 31
0.0
  0
LINE
  5
163
  8
TEAM-COLD
 10
110.0
 20
592.0
 30
0.0
 11
110.0
 21
555.0
 31
0.0
  0
LINE
  5
164
  8
TEAM-COLD
 10
90.0
 20
592.0
 30
0.0
 11
90.0
 21
555.0
 31
0.0
  0
LINE
  5
165
  8
TEAM-BODY
 10
325.0
 20
534.402371
 30
0.0
 11
325.0
 21
592.0
 31
0.0
  0
LINE
  5
166
  8
TEAM-BODY
 10
375.0
 20
534.402371
 30
0.0
 11
375.0
 21
592.0
 31
0.0
  0
ARC
  5
167
  8
TEAM-BODY
 10
457.52086
 20
700.331813
 30
0.0
 40
108.589683
 50
273.949387
 51
8.201286
  0
LINE
  5
168
  8
TEAM-AXE
 10
300.0
 20
1000.0
 30
0.0
 11
300.0
 21
1040.0
 31
0.0
  0
LINE
  5
169
  8
TEAM-AXE
 10
376.5
 20
1000.0
 30
0.0
 11
376.5
 21
1040.0
 31
0.0
  0
LINE
  5
16A
  8
TEAM-AXE
 10
280.0
 20
1020.0
 30
0.0
 11
320.0
 21
1020.0
 31
0.0
  0
CIRCLE
  5
16B
  8
TEAM-COLD
 10
376.5
 20
1020.0
 30
0.0
 40
15.0
  0
LINE
  5
16C
  8
TEAM-AXE
 10
356.5
 20
1020.0
 30
0.0
 11
396.5
 21
1020.0
 31
0.0
  0
LINE
  5
16D
  8
TEAM-AXE
 10
344.0
 20
558.0
 30
0.0
 11
356.0
 21
558.0
 31
0.0
  0
LINE
  5
16E
  8
TEAM-AXE
 10
350.0
 20
564.0
 30
0.0
 11
350.0
 21
552.0
 31
0.0
  0
CIRCLE
  5
16F
  8
TEAM-HIDE
 10
350.0
 20
558.0
 30
0.0
 40
5.0
  0
LINE
  5
170
  8
TEAM-BODY
 10
325.0
 20
534.402371
 30
0.0
 11
375.0
 21
534.402371
 31
0.0
  0
LINE
  5
171
  8
TEAM-AXE
 10
223.5
 20
1000.0
 30
0.0
 11
223.5
 21
1040.0
 31
0.0
  0
LINE
  5
172
  8
TEAM-COLD
 10
90.0
 20
555.0
 30
0.0
 11
110.0
 21
555.0
 31
0.0
  0
CIRCLE
  5
173
  8
TEAM-WARM
 10
223.5
 20
1020.0
 30
0.0
 40
15.0
  0
LINE
  5
174
  8
TEAM-AXE
 10
203.5
 20
1020.0
 30
0.0
 11
243.5
 21
1020.0
 31
0.0
  0
LINE
  5
175
  8
TEAM-BODY
 10
21.0
 20
592.0
 30
0.0
 11
21.0
 21
555.0
 31
0.0
  0
LINE
  5
176
  8
TEAM-BODY
 10
-21.0
 20
592.0
 30
0.0
 11
-21.0
 21
555.0
 31
0.0
  0
LINE
  5
177
  8
TEAM-BODY
 10
0.0
 20
515.0
 30
0.0
 11
0.0
 21
592.0
 31
0.0
  0
LINE
  5
178
  8
TEAM-DET1
 10
-21.0
 20
515.0
 30
0.0
 11
21.0
 21
515.0
 31
0.0
  0
LINE
  5
17A
  8
TEAM-BODY
 10
-21.0
 20
555.0
 30
0.0
 11
21.0
 21
555.0
 31
0.0
  0
LINE
  5
17B
  8
TEAM-AXE
 10
0.0
 20
826.526435
 30
0.0
 11
0.0
 21
555.0
 31
0.0
  0
LINE
  5
17C
  8
TEAM-DET1
 10
-21.0
 20
365.0
 30
0.0
 11
21.0
 21
365.0
 31
0.0
  0
LINE
  5
17D
  8
TEAM-AXE
 10
-30.0
 20
460.0
 30
0.0
 11
30.0
 21
460.0
 31
0.0
  0
CIRCLE
  5
17E
  8
TEAM-INSP
 10
0.0
 20
0.0
 30
0.0
 40
10.0
  0
LINE
  5
180
  8
TEAM-DET1
 10
-21.0
 20
515.0
 30
0.0
 11
-21.0
 21
365.0
 31
0.0
  0
LINE
  5
181
  8
TEAM-DET1
 10
21.0
 20
515.0
 30
0.0
 11
21.0
 21
365.0
 31
0.0
  0
CIRCLE
  5
182
  8
TEAM-KAN
 10
0.0
 20
460.0
 30
0.0
 40
20.0
  0
LINE
  5
184
  8
TEAM-AXE
 10
0.0
 20
430.0
 30
0.0
 11
0.0
 21
490.0
 31
0.0
  0
ENDSEC
  0
EOF
