  0
SECTION
  2
HEADER
  9
$ACADVER
  1
AC1009
  9
$INSBASE
 10
0.0
 20
0.0
 30
0.0
  9
$EXTMIN
 10
-311.96507
 20
-10.065744
 30
0.0
  9
$EXTMAX
 10
380.034095
 20
1040.007037
 30
0.000005
  9
$LIMMIN
 10
-311.96507
 20
-10.065744
  9
$LIMMAX
 10
380.034095
 20
1040.007037
  9
$ORTHOMODE
 70
     1
  9
$REGENMODE
 70
     1
  9
$FILLMODE
 70
     1
  9
$QTEXTMODE
 70
     0
  9
$MIRRTEXT
 70
     0
  9
$DRAGMODE
 70
     2
  9
$LTSCALE
 40
50.0
  9
$OSMODE
 70
     0
  9
$ATTMODE
 70
     1
  9
$TEXTSIZE
 40
200.0
  9
$TRACEWID
 40
1.0
  9
$TEXTSTYLE
  7
STANDARD
  9
$CLAYER
  8
TEAM-MAS
  9
$CELTYPE
  6
BYLAYER
  9
$CECOLOR
 62
   256
  9
$DIMSCALE
 40
0.0
  9
$DIMASZ
 40
20.0
  9
$DIMEXO
 40
10.0
  9
$DIMDLI
 40
1.0
  9
$DIMRND
 40
0.0
  9
$DIMDLE
 40
0.0
  9
$DIMEXE
 40
1.0
  9
$DIMTP
 40
0.0
  9
$DIMTM
 40
0.0
  9
$DIMTXT
 40
35.0
  9
$DIMCEN
 40
1.0
  9
$DIMTSZ
 40
0.0
  9
$DIMTOL
 70
     0
  9
$DIMLIM
 70
     0
  9
$DIMTIH
 70
     0
  9
$DIMTOH
 70
     0
  9
$DIMSE1
 70
     0
  9
$DIMSE2
 70
     0
  9
$DIMTAD
 70
     0
  9
$DIMZIN
 70
     0
  9
$DIMBLK
  1

  9
$DIMASO
 70
     1
  9
$DIMSHO
 70
     0
  9
$DIMPOST
  1

  9
$DIMAPOST
  1

  9
$DIMALT
 70
     0
  9
$DIMALTD
 70
     2
  9
$DIMALTF
 40
25.4
  9
$DIMLFAC
 40
1.0
  9
$DIMTOFL
 70
     0
  9
$DIMTVP
 40
0.0
  9
$DIMTIX
 70
     0
  9
$DIMSOXD
 70
     0
  9
$DIMSAH
 70
     0
  9
$DIMBLK1
  1

  9
$DIMBLK2
  1

  9
$DIMSTYLE
  2
TEAM
  9
$DIMCLRD
 70
     9
  9
$DIMCLRE
 70
     9
  9
$DIMCLRT
 70
    11
  9
$DIMTFAC
 40
1.0
  9
$DIMGAP
 40
7.0
  9
$LUNITS
 70
     2
  9
$LUPREC
 70
     1
  9
$SKETCHINC
 40
1.0
  9
$FILLETRAD
 40
50.0
  9
$AUNITS
 70
     0
  9
$AUPREC
 70
     0
  9
$MENU
  1
ROPLANS
  9
$ELEVATION
 40
0.0
  9
$PELEVATION
 40
0.0
  9
$THICKNESS
 40
0.0
  9
$LIMCHECK
 70
     0
  9
$BLIPMODE
 70
     1
  9
$CHAMFERA
 40
0.0
  9
$CHAMFERB
 40
0.0
  9
$SKPOLY
 70
     0
  9
$TDCREATE
 40
2450392.957851
  9
$TDUPDATE
 40
2456272.033233
  9
$TDINDWG
 40
2.315654
  9
$TDUSRTIMER
 40
2.315654
  9
$USRTIMER
 70
     1
  9
$ANGBASE
 50
0.0
  9
$ANGDIR
 70
     0
  9
$PDMODE
 70
     0
  9
$PDSIZE
 40
0.0
  9
$PLINEWID
 40
0.0
  9
$COORDS
 70
     2
  9
$SPLFRAME
 70
     0
  9
$SPLINETYPE
 70
     6
  9
$SPLINESEGS
 70
     8
  9
$ATTDIA
 70
     0
  9
$ATTREQ
 70
     0
  9
$HANDLING
 70
     1
  9
$HANDSEED
  5
125
  9
$SURFTAB1
 70
    24
  9
$SURFTAB2
 70
    24
  9
$SURFTYPE
 70
     6
  9
$SURFU
 70
     6
  9
$SURFV
 70
     6
  9
$UCSNAME
  2

  9
$UCSORG
 10
0.0
 20
0.0
 30
0.0
  9
$UCSXDIR
 10
1.0
 20
0.0
 30
0.0
  9
$UCSYDIR
 10
0.0
 20
1.0
 30
0.0
  9
$PUCSNAME
  2

  9
$PUCSORG
 10
0.0
 20
0.0
 30
0.0
  9
$PUCSXDIR
 10
1.0
 20
0.0
 30
0.0
  9
$PUCSYDIR
 10
0.0
 20
1.0
 30
0.0
  9
$USERI1
 70
     0
  9
$USERI2
 70
     0
  9
$USERI3
 70
     0
  9
$USERI4
 70
     0
  9
$USERI5
 70
     0
  9
$USERR1
 40
0.0
  9
$USERR2
 40
0.0
  9
$USERR3
 40
0.0
  9
$USERR4
 40
0.0
  9
$USERR5
 40
0.0
  9
$WORLDVIEW
 70
     1
  9
$SHADEDGE
 70
     0
  9
$SHADEDIF
 70
    70
  9
$TILEMODE
 70
     1
  9
$MAXACTVP
 70
    16
  9
$PLIMCHECK
 70
     0
  9
$PEXTMIN
 10
-0.805942
 20
0.005011
 30
0.0
  9
$PEXTMAX
 10
20.250094
 20
11.356329
 30
0.0
  9
$PLIMMIN
 10
0.0
 20
0.0
  9
$PLIMMAX
 10
12.0
 20
9.0
  9
$UNITMODE
 70
     0
  9
$VISRETAIN
 70
     0
  9
$PLINEGEN
 70
     0
  9
$PSLTSCALE
 70
     0
  0
ENDSEC
  0
SECTION
  2
TABLES
  0
TABLE
  2
VPORT
 70
     2
  0
VPORT
  2
*ACTIVE
 70
     0
 10
0.0
 20
0.0
 11
1.0
 21
1.0
 12
34.034512
 22
514.970646
 13
0.0
 23
0.0
 14
1.0
 24
1.0
 15
50.0
 25
50.0
 16
0.0
 26
0.0
 36
1.0
 17
0.0
 27
0.0
 37
0.0
 40
1056.683942
 41
1.911765
 42
50.0
 43
0.0
 44
0.0
 50
0.0
 51
0.0
 71
     0
 72
   100
 73
     1
 74
     1
 75
     0
 76
     0
 77
     0
 78
     0
  0
ENDTAB
  0
TABLE
  2
LTYPE
 70
     3
  0
LTYPE
  2
CONTINUOUS
 70
     0
  3
Solid Line
 72
    65
 73
     0
 40
0.0
  0
LTYPE
  2
31
 70
     0
  3

 72
    65
 73
     4
 40
2.1
 49
1.5
 49
-0.3
 49
0.0
 49
-0.3
  0
LTYPE
  2
22
 70
     0
  3

 72
    65
 73
     2
 40
1.4
 49
1.2
 49
-0.2
  0
ENDTAB
  0
TABLE
  2
LAYER
 70
    11
  0
LAYER
  2
0
 70
     0
 62
     7
  6
CONTINUOUS
  0
LAYER
  2
DEFPOINTS
 70
     0
 62
     7
  6
CONTINUOUS
  0
LAYER
  2
TEAM-BODY
 70
     0
 62
     2
  6
CONTINUOUS
  0
LAYER
  2
TEAM-AXE
 70
     0
 62
    10
  6
31
  0
LAYER
  2
TEAM-MAS
 70
     0
 62
     9
  6
CONTINUOUS
  0
LAYER
  2
TEAM-TXT
 70
     0
 62
    11
  6
CONTINUOUS
  0
LAYER
  2
TEAM-COLD
 70
     0
 62
     3
  6
CONTINUOUS
  0
LAYER
  2
TEAM-HIDE
 70
     0
 62
     8
  6
22
  0
LAYER
  2
TEAM-KAN
 70
     0
 62
     6
  6
CONTINUOUS
  0
LAYER
  2
TEAM-WARM
 70
     0
 62
     1
  6
CONTINUOUS
  0
LAYER
  2
TEAM-INSP
 70
     0
 62
     5
  6
CONTINUOUS
  0
ENDTAB
  0
TABLE
  2
STYLE
 70
     2
  0
STYLE
  2
STANDARD
 70
     0
 40
0.0
 41
1.0
 50
0.0
 71
     0
 42
200.0
  3
txt
  4

  0
STYLE
  2
TEAM
 70
     0
 40
0.0
 41
0.8
 50
15.0
 71
     0
 42
7.0
  3
ROMANS.shx
  4

  0
ENDTAB
  0
TABLE
  2
VIEW
 70
     0
  0
ENDTAB
  0
TABLE
  2
UCS
 70
     0
  0
ENDTAB
  0
TABLE
  2
APPID
 70
     1
  0
APPID
  2
ACAD
 70
     0
  0
ENDTAB
  0
TABLE
  2
DIMSTYLE
 70
     1
  0
DIMSTYLE
  2
TEAM
 70
     0
  3

  4

  5

  6

  7

 40
0.0
 41
20.0
 42
10.0
 43
1.0
 44
1.0
 45
0.0
 46
0.0
 47
0.0
 48
0.0
140
35.0
141
1.0
142
0.0
143
25.4
144
1.0
145
0.0
146
1.0
147
7.0
 71
     0
 72
     0
 73
     0
 74
     0
 75
     0
 76
     0
 77
     0
 78
     0
170
     0
171
     2
172
     0
173
     0
174
     0
175
     0
176
     9
177
     9
178
    11
  0
ENDTAB
  0
ENDSEC
  0
SECTION
  2
BLOCKS
  0
BLOCK
  8
0
  2
$MODEL_SPACE
 70
     0
 10
0.0
 20
0.0
 30
0.0
  3
$MODEL_SPACE
  1

  0
ENDBLK
  5
11E
  8
0
  0
BLOCK
 67
     1
  8
0
  2
$PAPER_SPACE
 70
     0
 10
0.0
 20
0.0
 30
0.0
  3
$PAPER_SPACE
  1

  0
ENDBLK
  5
11C
 67
     1
  8
0
  0
BLOCK
  8
0
  2
*D0
 70
     1
 10
0.0
 20
0.0
 30
0.0
  3
*D0
  1

  0
LINE
  5
B1
  8
0
  6
BYBLOCK
 62
     9
 10
-10.0
 20
88000.0
 30
0.0
 11
-295.44396
 21
88000.0
 31
0.0
  0
LINE
  5
B2
  8
0
  6
BYBLOCK
 62
     9
 10
-2.420683
 20
89020.0
 30
0.0
 11
-295.44396
 21
89020.0
 31
0.0
  0
LINE
  5
B3
  8
0
  6
BYBLOCK
 62
     9
 10
-294.44396
 20
88020.0
 30
0.0
 11
-294.44396
 21
88523.416667
 31
0.0
  0
LINE
  5
B4
  8
0
  6
BYBLOCK
 62
     9
 10
-294.44396
 20
89000.0
 30
0.0
 11
-294.44396
 21
88776.583333
 31
0.0
  0
TEXT
  5
B5
  8
0
  6
BYBLOCK
 62
    11
 10
-276.94396
 20
88530.416667
 30
0.0
 40
35.0
  1
950-1200
 50
90.0
  0
SOLID
  5
B6
  8
0
  6
BYBLOCK
 62
     9
 10
-297.777293
 20
88020.0
 30
0.0
 11
-291.110627
 21
88020.0
 31
0.0
 12
-294.44396
 22
88000.0
 32
0.0
 13
-294.44396
 23
88000.0
 33
0.0
  0
SOLID
  5
B7
  8
0
  6
BYBLOCK
 62
     9
 10
-297.777293
 20
89000.0
 30
0.0
 11
-291.110627
 21
89000.0
 31
0.0
 12
-294.44396
 22
89020.0
 32
0.0
 13
-294.44396
 23
89020.0
 33
0.0
  0
POINT
  5
B8
  8
DEFPOINTS
  6
BYBLOCK
 62
     0
 10
0.0
 20
88000.0
 30
0.0
  0
POINT
  5
B9
  8
DEFPOINTS
  6
BYBLOCK
 62
     0
 10
7.579317
 20
89020.0
 30
0.0
  0
POINT
  5
BA
  8
DEFPOINTS
  6
BYBLOCK
 62
     0
 10
-294.44396
 20
89020.0
 30
0.0
  0
ENDBLK
  5
BC
  8
0
  0
BLOCK
  8
0
  2
*D1
 70
     1
 10
0.0
 20
0.0
 30
0.0
  3
*D1
  1

  0
LINE
  5
A3
  8
0
  6
BYBLOCK
 62
     9
 10
-10.0
 20
88000.0
 30
0.0
 11
-61.093208
 21
88000.0
 31
0.0
  0
LINE
  5
A4
  8
0
  6
BYBLOCK
 62
     9
 10
-40.0
 20
88435.0
 30
0.0
 11
-61.093208
 21
88435.0
 31
0.0
  0
LINE
  5
A5
  8
0
  6
BYBLOCK
 62
     9
 10
-60.093208
 20
88020.0
 30
0.0
 11
-60.093208
 21
88163.833333
 31
0.0
  0
LINE
  5
A6
  8
0
  6
BYBLOCK
 62
     9
 10
-60.093208
 20
88415.0
 30
0.0
 11
-60.093208
 21
88271.166667
 31
0.0
  0
SOLID
  5
A7
  8
0
  6
BYBLOCK
 62
     9
 10
-63.426541
 20
88020.0
 30
0.0
 11
-56.759875
 21
88020.0
 31
0.0
 12
-60.093208
 22
88000.0
 32
0.0
 13
-60.093208
 23
88000.0
 33
0.0
  0
SOLID
  5
A8
  8
0
  6
BYBLOCK
 62
     9
 10
-63.426541
 20
88415.0
 30
0.0
 11
-56.759875
 21
88415.0
 31
0.0
 12
-60.093208
 22
88435.0
 32
0.0
 13
-60.093208
 23
88435.0
 33
0.0
  0
TEXT
  5
A9
  8
0
  6
BYBLOCK
 62
    11
 10
-42.593208
 20
88170.833333
 30
0.0
 40
35.0
  1
435
 50
90.0
  0
POINT
  5
AA
  8
DEFPOINTS
  6
BYBLOCK
 62
     0
 10
0.0
 20
88000.0
 30
0.0
  0
POINT
  5
AB
  8
DEFPOINTS
  6
BYBLOCK
 62
     0
 10
-30.0
 20
88435.0
 30
0.0
  0
POINT
  5
AC
  8
DEFPOINTS
  6
BYBLOCK
 62
     0
 10
-60.093208
 20
88435.0
 30
0.0
  0
ENDBLK
  5
AE
  8
0
  0
BLOCK
  8
0
  2
*D2
 70
     1
 10
0.0
 20
0.0
 30
0.0
  3
*D2
  1

  0
LINE
  5
95
  8
0
  6
BYBLOCK
 62
     9
 10
-10.0
 20
88000.0
 30
0.0
 11
-107.026216
 21
88000.0
 31
0.0
  0
LINE
  5
96
  8
0
  6
BYBLOCK
 62
     9
 10
-40.0
 20
88435.0
 30
0.0
 11
-107.026216
 21
88435.0
 31
0.0
  0
LINE
  5
97
  8
0
  6
BYBLOCK
 62
     9
 10
-106.026216
 20
88020.0
 30
0.0
 11
-106.026216
 21
88105.5
 31
0.0
  0
LINE
  5
98
  8
0
  6
BYBLOCK
 62
     9
 10
-106.026216
 20
88415.0
 30
0.0
 11
-106.026216
 21
88329.5
 31
0.0
  0
SOLID
  5
99
  8
0
  6
BYBLOCK
 62
     9
 10
-109.35955
 20
88020.0
 30
0.0
 11
-102.692883
 21
88020.0
 31
0.0
 12
-106.026216
 22
88000.0
 32
0.0
 13
-106.026216
 23
88000.0
 33
0.0
  0
SOLID
  5
9A
  8
0
  6
BYBLOCK
 62
     9
 10
-109.35955
 20
88415.0
 30
0.0
 11
-102.692883
 21
88415.0
 31
0.0
 12
-106.026216
 22
88435.0
 32
0.0
 13
-106.026216
 23
88435.0
 33
0.0
  0
TEXT
  5
9B
  8
0
  6
BYBLOCK
 62
    11
 10
-88.526216
 20
88112.5
 30
0.0
 40
35.0
  1
300-500
 50
90.0
  0
POINT
  5
9C
  8
DEFPOINTS
  6
BYBLOCK
 62
     0
 10
0.0
 20
88000.0
 30
0.0
  0
POINT
  5
9D
  8
DEFPOINTS
  6
BYBLOCK
 62
     0
 10
-30.0
 20
88435.0
 30
0.0
  0
POINT
  5
9E
  8
DEFPOINTS
  6
BYBLOCK
 62
     0
 10
-106.026216
 20
88435.0
 30
0.0
  0
ENDBLK
  5
A0
  8
0
  0
BLOCK
  8
0
  2
*D3
 70
     1
 10
0.0
 20
0.0
 30
0.0
  3
*D3
  1

  0
LINE
  5
87
  8
0
  6
BYBLOCK
 62
     9
 10
-10.0
 20
88000.0
 30
0.0
 11
-200.454606
 21
88000.0
 31
0.0
  0
LINE
  5
88
  8
0
  6
BYBLOCK
 62
     9
 10
-10.0
 20
88800.0
 30
0.0
 11
-200.454606
 21
88800.0
 31
0.0
  0
LINE
  5
89
  8
0
  6
BYBLOCK
 62
     9
 10
-199.454606
 20
88020.0
 30
0.0
 11
-199.454606
 21
88320.083333
 31
0.0
  0
LINE
  5
8A
  8
0
  6
BYBLOCK
 62
     9
 10
-199.454606
 20
88780.0
 30
0.0
 11
-199.454606
 21
88549.916667
 31
0.0
  0
TEXT
  5
8B
  8
0
  6
BYBLOCK
 62
    11
 10
-181.954606
 20
88327.083333
 30
0.0
 40
35.0
  1
600-850
 50
90.0
  0
SOLID
  5
8C
  8
0
  6
BYBLOCK
 62
     9
 10
-202.787939
 20
88020.0
 30
0.0
 11
-196.121273
 21
88020.0
 31
0.0
 12
-199.454606
 22
88000.0
 32
0.0
 13
-199.454606
 23
88000.0
 33
0.0
  0
SOLID
  5
8D
  8
0
  6
BYBLOCK
 62
     9
 10
-202.787939
 20
88780.0
 30
0.0
 11
-196.121273
 21
88780.0
 31
0.0
 12
-199.454606
 22
88800.0
 32
0.0
 13
-199.454606
 23
88800.0
 33
0.0
  0
POINT
  5
8E
  8
DEFPOINTS
  6
BYBLOCK
 62
     0
 10
0.0
 20
88000.0
 30
0.0
  0
POINT
  5
8F
  8
DEFPOINTS
  6
BYBLOCK
 62
     0
 10
0.0
 20
88800.0
 30
0.0
  0
POINT
  5
90
  8
DEFPOINTS
  6
BYBLOCK
 62
     0
 10
-199.454606
 20
88800.0
 30
0.0
  0
ENDBLK
  5
92
  8
0
  0
BLOCK
  8
0
  2
*D4
 70
     1
 10
0.0
 20
0.0
 30
0.0
  3
*D4
  1

  0
LINE
  5
79
  8
0
  6
BYBLOCK
 62
     9
 10
-10.0
 20
88000.0
 30
0.0
 11
-156.085379
 21
88000.0
 31
0.0
  0
LINE
  5
7A
  8
0
  6
BYBLOCK
 62
     9
 10
-10.0
 20
88800.0
 30
0.0
 11
-156.085379
 21
88800.0
 31
0.0
  0
LINE
  5
7B
  8
0
  6
BYBLOCK
 62
     9
 10
-155.085379
 20
88020.0
 30
0.0
 11
-155.085379
 21
88387.166667
 31
0.0
  0
LINE
  5
7C
  8
0
  6
BYBLOCK
 62
     9
 10
-155.085379
 20
88780.0
 30
0.0
 11
-155.085379
 21
88482.833333
 31
0.0
  0
TEXT
  5
7D
  8
0
  6
BYBLOCK
 62
    11
 10
-137.585379
 20
88394.166667
 30
0.0
 40
35.0
  1
800
 50
90.0
  0
SOLID
  5
7E
  8
0
  6
BYBLOCK
 62
     9
 10
-158.418713
 20
88020.0
 30
0.0
 11
-151.752046
 21
88020.0
 31
0.0
 12
-155.085379
 22
88000.0
 32
0.0
 13
-155.085379
 23
88000.0
 33
0.0
  0
SOLID
  5
7F
  8
0
  6
BYBLOCK
 62
     9
 10
-158.418713
 20
88780.0
 30
0.0
 11
-151.752046
 21
88780.0
 31
0.0
 12
-155.085379
 22
88800.0
 32
0.0
 13
-155.085379
 23
88800.0
 33
0.0
  0
POINT
  5
80
  8
DEFPOINTS
  6
BYBLOCK
 62
     0
 10
0.0
 20
88000.0
 30
0.0
  0
POINT
  5
81
  8
DEFPOINTS
  6
BYBLOCK
 62
     0
 10
0.0
 20
88800.0
 30
0.0
  0
POINT
  5
82
  8
DEFPOINTS
  6
BYBLOCK
 62
     0
 10
-155.085379
 20
88800.0
 30
0.0
  0
ENDBLK
  5
84
  8
0
  0
BLOCK
  8
0
  2
*D5
 70
     1
 10
0.0
 20
0.0
 30
0.0
  3
*D5
  1

  0
LINE
  5
6B
  8
0
  6
BYBLOCK
 62
     9
 10
-10.0
 20
88000.0
 30
0.0
 11
-249.51236
 21
88000.0
 31
0.0
  0
LINE
  5
6C
  8
0
  6
BYBLOCK
 62
     9
 10
-10.0
 20
89020.0
 30
0.0
 11
-249.51236
 21
89020.0
 31
0.0
  0
LINE
  5
6D
  8
0
  6
BYBLOCK
 62
     9
 10
-248.51236
 20
88020.0
 30
0.0
 11
-248.51236
 21
88590.5
 31
0.0
  0
LINE
  5
6E
  8
0
  6
BYBLOCK
 62
     9
 10
-248.51236
 20
89000.0
 30
0.0
 11
-248.51236
 21
88709.5
 31
0.0
  0
TEXT
  5
6F
  8
0
  6
BYBLOCK
 62
    11
 10
-231.01236
 20
88597.5
 30
0.0
 40
35.0
  1
1020
 50
90.0
  0
SOLID
  5
70
  8
0
  6
BYBLOCK
 62
     9
 10
-251.845694
 20
88020.0
 30
0.0
 11
-245.179027
 21
88020.0
 31
0.0
 12
-248.51236
 22
88000.0
 32
0.0
 13
-248.51236
 23
88000.0
 33
0.0
  0
SOLID
  5
71
  8
0
  6
BYBLOCK
 62
     9
 10
-251.845694
 20
89000.0
 30
0.0
 11
-245.179027
 21
89000.0
 31
0.0
 12
-248.51236
 22
89020.0
 32
0.0
 13
-248.51236
 23
89020.0
 33
0.0
  0
POINT
  5
72
  8
DEFPOINTS
  6
BYBLOCK
 62
     0
 10
0.0
 20
88000.0
 30
0.0
  0
POINT
  5
73
  8
DEFPOINTS
  6
BYBLOCK
 62
     0
 10
0.0
 20
89020.0
 30
0.0
  0
POINT
  5
74
  8
DEFPOINTS
  6
BYBLOCK
 62
     0
 10
-248.51236
 20
89020.0
 30
0.0
  0
ENDBLK
  5
76
  8
0
  0
BLOCK
  8
0
  2
*D6
 70
     1
 10
0.0
 20
0.0
 30
0.0
  3
*D6
  1

  0
LINE
  5
5D
  8
0
  6
BYBLOCK
 62
     9
 10
30.211105
 20
88800.0
 30
0.0
 11
-46.815111
 21
88800.0
 31
0.0
  0
LINE
  5
5E
  8
0
  6
BYBLOCK
 62
     9
 10
-10.0
 20
88720.0
 30
0.0
 11
-46.815111
 21
88720.0
 31
0.0
  0
LINE
  5
5F
  8
0
  6
BYBLOCK
 62
     9
 10
-45.815111
 20
88780.0
 30
0.0
 11
-45.815111
 21
88773.0
 31
0.0
  0
LINE
  5
60
  8
0
  6
BYBLOCK
 62
     9
 10
-45.815111
 20
88740.0
 30
0.0
 11
-45.815111
 21
88747.0
 31
0.0
  0
TEXT
  5
61
  8
0
  6
BYBLOCK
 62
    11
 10
-51.356451
 20
88732.75
 30
0.0
 40
35.0
  1
80
 50
90.0
  0
SOLID
  5
62
  8
0
  6
BYBLOCK
 62
     9
 10
-49.148445
 20
88780.0
 30
0.0
 11
-42.481778
 21
88780.0
 31
0.0
 12
-45.815111
 22
88800.0
 32
0.0
 13
-45.815111
 23
88800.0
 33
0.0
  0
SOLID
  5
63
  8
0
  6
BYBLOCK
 62
     9
 10
-49.148445
 20
88740.0
 30
0.0
 11
-42.481778
 21
88740.0
 31
0.0
 12
-45.815111
 22
88720.0
 32
0.0
 13
-45.815111
 23
88720.0
 33
0.0
  0
POINT
  5
64
  8
DEFPOINTS
  6
BYBLOCK
 62
     0
 10
40.211105
 20
88800.0
 30
0.0
  0
POINT
  5
65
  8
DEFPOINTS
  6
BYBLOCK
 62
     0
 10
0.0
 20
88720.0
 30
0.0
  0
POINT
  5
66
  8
DEFPOINTS
  6
BYBLOCK
 62
     0
 10
-45.815111
 20
88720.0
 30
0.0
  0
ENDBLK
  5
68
  8
0
  0
BLOCK
  8
0
  2
*D7
 70
     1
 10
0.0
 20
0.0
 30
0.0
  3
*D7
  1

  0
LINE
  5
4E
  8
0
  6
BYBLOCK
 62
     9
 10
-10.0
 20
88842.0
 30
0.0
 11
-46.815111
 21
88842.0
 31
0.0
  0
LINE
  5
4F
  8
0
  6
BYBLOCK
 62
     9
 10
-10.0
 20
88800.0
 30
0.0
 11
-46.815111
 21
88800.0
 31
0.0
  0
LINE
  5
50
  8
0
  6
BYBLOCK
 62
     9
 10
-45.815111
 20
88862.0
 30
0.0
 11
-45.815111
 21
88882.0
 31
0.0
  0
LINE
  5
51
  8
0
  6
BYBLOCK
 62
     9
 10
-45.815111
 20
88780.0
 30
0.0
 11
-45.815111
 21
88760.0
 31
0.0
  0
TEXT
  5
52
  8
0
  6
BYBLOCK
 62
    11
 10
-28.315111
 20
88882.000306
 30
0.0
 40
35.0
  1
42
 50
90.0
  0
LINE
  5
53
  8
0
  6
BYBLOCK
 62
     9
 10
-45.815111
 20
88842.0
 30
0.0
 11
-45.815111
 21
88800.0
 31
0.0
  0
SOLID
  5
54
  8
0
  6
BYBLOCK
 62
     9
 10
-49.148445
 20
88862.0
 30
0.0
 11
-42.481778
 21
88862.0
 31
0.0
 12
-45.815111
 22
88842.0
 32
0.0
 13
-45.815111
 23
88842.0
 33
0.0
  0
SOLID
  5
55
  8
0
  6
BYBLOCK
 62
     9
 10
-49.148445
 20
88780.0
 30
0.0
 11
-42.481778
 21
88780.0
 31
0.0
 12
-45.815111
 22
88800.0
 32
0.0
 13
-45.815111
 23
88800.0
 33
0.0
  0
POINT
  5
56
  8
DEFPOINTS
  6
BYBLOCK
 62
     0
 10
0.0
 20
88842.0
 30
0.0
  0
POINT
  5
57
  8
DEFPOINTS
  6
BYBLOCK
 62
     0
 10
0.0
 20
88800.0
 30
0.0
  0
POINT
  5
58
  8
DEFPOINTS
  6
BYBLOCK
 62
     0
 10
-45.815111
 20
88800.0
 30
0.0
  0
ENDBLK
  5
5A
  8
0
  0
BLOCK
  8
0
  2
*D8
 70
     1
 10
0.0
 20
0.0
 30
0.0
  3
*D8
  1

  0
LINE
  5
41
  8
0
  6
BYBLOCK
 62
     9
 10
0.0
 20
88395.0
 30
0.0
 11
0.0
 21
88261.325887
 31
0.0
  0
LINE
  5
42
  8
0
  6
BYBLOCK
 62
     9
 10
100.0
 20
88350.980383
 30
0.0
 11
100.0
 21
88261.325887
 31
0.0
  0
LINE
  5
43
  8
0
  6
BYBLOCK
 62
     9
 10
20.0
 20
88262.325887
 30
0.0
 11
80.0
 21
88262.325887
 31
0.0
  0
TEXT
  5
44
  8
0
  6
BYBLOCK
 62
    11
 10
15.0
 20
88273.400167
 30
0.0
 40
35.0
  1
100
  0
SOLID
  5
45
  8
0
  6
BYBLOCK
 62
     9
 10
20.0
 20
88265.65922
 30
0.0
 11
20.0
 21
88258.992553
 31
0.0
 12
0.0
 22
88262.325887
 32
0.0
 13
0.0
 23
88262.325887
 33
0.0
  0
SOLID
  5
46
  8
0
  6
BYBLOCK
 62
     9
 10
80.0
 20
88265.65922
 30
0.0
 11
80.0
 21
88258.992553
 31
0.0
 12
100.0
 22
88262.325887
 32
0.0
 13
100.0
 23
88262.325887
 33
0.0
  0
POINT
  5
47
  8
DEFPOINTS
  6
BYBLOCK
 62
     0
 10
0.0
 20
88405.0
 30
0.0
  0
POINT
  5
48
  8
DEFPOINTS
  6
BYBLOCK
 62
     0
 10
100.0
 20
88360.980383
 30
0.0
  0
POINT
  5
49
  8
DEFPOINTS
  6
BYBLOCK
 62
     0
 10
100.0
 20
88262.325887
 30
0.0
  0
ENDBLK
  5
4B
  8
0
  0
BLOCK
  8
0
  2
*D9
 70
     1
 10
0.0
 20
0.0
 30
0.0
  3
*D9
  1

  0
LINE
  5
33
  8
0
  6
BYBLOCK
 62
     9
 10
-10.0
 20
88800.0
 30
0.0
 11
-107.026216
 21
88800.0
 31
0.0
  0
LINE
  5
34
  8
0
  6
BYBLOCK
 62
     9
 10
90.0
 20
88592.0
 30
0.0
 11
-107.026216
 21
88592.0
 31
0.0
  0
LINE
  5
35
  8
0
  6
BYBLOCK
 62
     9
 10
-106.026216
 20
88780.0
 30
0.0
 11
-106.026216
 21
88746.75
 31
0.0
  0
LINE
  5
36
  8
0
  6
BYBLOCK
 62
     9
 10
-106.026216
 20
88612.0
 30
0.0
 11
-106.026216
 21
88645.25
 31
0.0
  0
SOLID
  5
37
  8
0
  6
BYBLOCK
 62
     9
 10
-109.35955
 20
88780.0
 30
0.0
 11
-102.692883
 21
88780.0
 31
0.0
 12
-106.026216
 22
88800.0
 32
0.0
 13
-106.026216
 23
88800.0
 33
0.0
  0
SOLID
  5
38
  8
0
  6
BYBLOCK
 62
     9
 10
-109.35955
 20
88612.0
 30
0.0
 11
-102.692883
 21
88612.0
 31
0.0
 12
-106.026216
 22
88592.0
 32
0.0
 13
-106.026216
 23
88592.0
 33
0.0
  0
TEXT
  5
39
  8
0
  6
BYBLOCK
 62
    11
 10
-88.526216
 20
88652.25
 30
0.0
 40
35.0
  1
208
 50
90.0
  0
POINT
  5
3A
  8
DEFPOINTS
  6
BYBLOCK
 62
     0
 10
0.0
 20
88800.0
 30
0.0
  0
POINT
  5
3B
  8
DEFPOINTS
  6
BYBLOCK
 62
     0
 10
100.0
 20
88592.0
 30
0.0
  0
POINT
  5
3C
  8
DEFPOINTS
  6
BYBLOCK
 62
     0
 10
-106.026216
 20
88592.0
 30
0.0
  0
ENDBLK
  5
3E
  8
0
  0
BLOCK
  8
0
  2
*D10
 70
     1
 10
0.0
 20
0.0
 30
0.0
  3
*D10
  1

  0
LINE
  5
24
  8
0
  6
BYBLOCK
 62
     9
 10
0.0
 20
88810.0
 30
0.0
 11
0.0
 21
88911.710819
 31
0.0
  0
LINE
  5
25
  8
0
  6
BYBLOCK
 62
     9
 10
380.0
 20
88810.0
 30
0.0
 11
380.0
 21
88911.710819
 31
0.0
  0
LINE
  5
26
  8
0
  6
BYBLOCK
 62
     9
 10
20.0
 20
88910.710819
 30
0.0
 11
139.25
 21
88910.710819
 31
0.0
  0
LINE
  5
27
  8
0
  6
BYBLOCK
 62
     9
 10
360.0
 20
88910.710819
 30
0.0
 11
240.75
 21
88910.710819
 31
0.0
  0
SOLID
  5
28
  8
0
  6
BYBLOCK
 62
     9
 10
20.0
 20
88914.044152
 30
0.0
 11
20.0
 21
88907.377485
 31
0.0
 12
0.0
 22
88910.710819
 32
0.0
 13
0.0
 23
88910.710819
 33
0.0
  0
SOLID
  5
29
  8
0
  6
BYBLOCK
 62
     9
 10
360.0
 20
88914.044152
 30
0.0
 11
360.0
 21
88907.377485
 31
0.0
 12
380.0
 22
88910.710819
 32
0.0
 13
380.0
 23
88910.710819
 33
0.0
  0
TEXT
  5
2A
  8
0
  6
BYBLOCK
 62
    11
 10
146.25
 20
88893.210819
 30
0.0
 40
35.0
  1
380
  0
POINT
  5
2B
  8
DEFPOINTS
  6
BYBLOCK
 62
     0
 10
0.0
 20
88800.0
 30
0.0
  0
POINT
  5
2D
  8
DEFPOINTS
  6
BYBLOCK
 62
     0
 10
380.0
 20
88800.0
 30
0.0
  0
POINT
  5
2E
  8
DEFPOINTS
  6
BYBLOCK
 62
     0
 10
380.0
 20
88910.710819
 30
0.0
  0
ENDBLK
  5
30
  8
0
  0
ENDSEC
  0
SECTION
  2
ENTITIES
  0
CIRCLE
  5
20
  8
TEAM-INSP
 10
0.0
 20
0.0
 30
0.0
 40
10.0
  0
DIMENSION
  5
22
  8
TEAM-MAS
  2
*D10
 10
380.0
 20
910.710819
 30
0.0
 11
190.0
 21
910.710819
 31
0.0
 12
0.0
 22
-88000.0
 32
0.0
 13
0.0
 23
800.0
 33
0.0
 14
380.0
 24
800.0
 34
0.0
  0
DIMENSION
  5
31
  8
TEAM-MAS
  2
*D9
 10
-106.026216
 20
592.0
 30
0.0
 11
-106.026216
 21
696.0
 31
0.0
 12
0.0
 22
-88000.0
 32
0.0
 13
0.0
 23
800.0
 33
0.0
 14
100.0
 24
592.0
 34
0.0
 50
90.0
  0
DIMENSION
  5
3F
  8
TEAM-MAS
  2
*D8
 10
100.0
 20
262.325887
 30
0.0
 11
50.0
 21
290.900167
 31
0.0
 12
0.0
 22
-88000.0
 32
0.0
 70
   128
 13
0.0
 23
405.0
 33
0.0
 14
100.0
 24
360.980383
 34
0.0
  0
DIMENSION
  5
4C
  8
TEAM-MAS
  2
*D7
 10
-45.815111
 20
800.0
 30
0.0
 11
-45.815111
 21
911.166973
 31
0.0
 12
0.0
 22
-88000.0
 32
0.0
 70
   128
 13
0.0
 23
842.0
 33
0.0
 14
0.0
 24
800.0
 34
0.0
 50
90.0
1001
ACAD
1000
DSTYLE
1002
{
1070
    40
1040
1.0
1002
}
  0
DIMENSION
  5
5B
  8
TEAM-MAS
  2
*D6
 10
-45.815111
 20
720.0
 30
0.0
 11
-68.856451
 21
759.0
 31
0.0
 12
0.0
 22
-88000.0
 32
0.0
 70
   128
 13
40.211105
 23
800.0
 33
0.0
 14
0.0
 24
720.0
 34
0.0
 50
90.0
  0
DIMENSION
  5
69
  8
TEAM-MAS
  2
*D5
 10
-248.51236
 20
1020.0
 30
0.0
 11
-248.51236
 21
650.0
 31
0.0
 12
0.0
 22
-88000.0
 32
0.0
 70
   128
 13
0.0
 23
0.0
 33
0.0
 14
0.0
 24
1020.0
 34
0.0
 50
90.0
  0
DIMENSION
  5
77
  8
TEAM-MAS
  2
*D4
 10
-155.085379
 20
800.0
 30
0.0
 11
-155.085379
 21
435.0
 31
0.0
 12
0.0
 22
-88000.0
 32
0.0
 70
   128
 13
0.0
 23
0.0
 33
0.0
 14
0.0
 24
800.0
 34
0.0
 50
90.0
  0
DIMENSION
  5
85
  8
TEAM-MAS
  2
*D3
 10
-199.454606
 20
800.0
 30
0.0
 11
-199.454606
 21
435.0
 31
0.0
 12
0.0
 22
-88000.0
 32
0.0
 70
   128
  1
600-850
 13
0.0
 23
0.0
 33
0.0
 14
0.0
 24
800.0
 34
0.0
 50
90.0
  0
DIMENSION
  5
93
  8
TEAM-MAS
  2
*D2
 10
-106.026216
 20
435.0
 30
0.0
 11
-106.026216
 21
217.5
 31
0.0
 12
0.0
 22
-88000.0
 32
0.0
  1
300-500
 13
0.0
 23
0.0
 33
0.0
 14
-30.0
 24
435.0
 34
0.0
 50
90.0
  0
DIMENSION
  5
A1
  8
TEAM-MAS
  2
*D1
 10
-60.093208
 20
435.0
 30
0.0
 11
-60.093208
 21
217.5
 31
0.0
 12
0.0
 22
-88000.0
 32
0.0
 13
0.0
 23
0.0
 33
0.0
 14
-30.0
 24
435.0
 34
0.0
 50
90.0
  0
DIMENSION
  5
AF
  8
TEAM-MAS
  2
*D0
 10
-294.44396
 20
1020.0
 30
0.0
 11
-294.44396
 21
650.0
 31
0.0
 12
0.0
 22
-88000.0
 32
0.0
 70
   128
  1
950-1200
 13
0.0
 23
0.0
 33
0.0
 14
7.579317
 24
1020.0
 34
0.0
 50
90.0
  0
LINE
  5
BD
  8
TEAM-BODY
 10
380.0
 20
720.0
 30
0.0
 11
0.0
 21
720.0
 31
0.0
  0
ARC
  5
BF
  8
TEAM-BODY
 10
294.571639
 20
661.00205
 30
0.0
 40
50.0
 50
274.016783
 51
353.919999
  0
LINE
  5
C0
  8
TEAM-BODY
 10
380.0
 20
800.0
 30
0.0
 11
0.0
 21
800.0
 31
0.0
  0
LINE
  5
C1
  8
TEAM-BODY
 10
79.0
 20
592.208558
 30
0.0
 11
298.074073
 21
611.124871
 31
0.0
  0
LINE
  5
C2
  8
TEAM-BODY
 10
79.0
 20
555.0
 30
0.0
 11
121.0
 21
555.0
 31
0.0
  0
TEXT
  5
C3
  8
TEAM-TXT
 10
29.960966
 20
617.715104
 30
0.0
 40
30.0
  1
team 421042
 41
0.8
 51
15.0
  7
TEAM
  0
LINE
  5
C6
  8
TEAM-KAN
 10
30.0
 20
435.0
 30
0.0
 11
100.0
 21
435.0
 31
0.0
  0
LINE
  5
C8
  8
TEAM-BODY
 10
20.0
 20
842.0
 30
0.0
 11
0.0
 21
842.0
 31
0.0
  0
LINE
  5
C9
  8
TEAM-BODY
 10
20.0
 20
842.0
 30
0.0
 11
20.0
 21
800.0
 31
0.0
  0
ARC
  5
CA
  8
TEAM-BODY
 10
77.513568
 20
654.119599
 30
0.0
 40
61.928882
 50
190.253099
 51
271.375359
  0
LINE
  5
CB
  8
TEAM-BODY
 10
79.0
 20
592.208558
 30
0.0
 11
79.0
 21
555.0
 31
0.0
  0
LINE
  5
CC
  8
TEAM-BODY
 10
20.0
 20
800.0
 30
0.0
 11
16.573624
 21
643.096458
 31
0.0
  0
LINE
  5
CD
  8
TEAM-AXE
 10
0.0
 20
1000.0
 30
0.0
 11
0.0
 21
1040.0
 31
0.0
  0
LINE
  5
D0
  8
TEAM-AXE
 10
-30.0
 20
435.0
 30
0.0
 11
30.0
 21
435.0
 31
0.0
  0
CIRCLE
  5
D1
  8
TEAM-KAN
 10
0.0
 20
435.0
 30
0.0
 40
20.0
  0
LINE
  5
D2
  8
TEAM-AXE
 10
0.0
 20
405.0
 30
0.0
 11
0.0
 21
465.0
 31
0.0
  0
CIRCLE
  5
D3
  8
TEAM-WARM
 10
0.0
 20
1020.0
 30
0.0
 40
15.0
  0
CIRCLE
  5
D5
  8
TEAM-COLD
 10
7.579317
 20
1020.0
 30
0.0
 40
15.0
  0
LINE
  5
D7
  8
TEAM-AXE
 10
-20.0
 20
1020.0
 30
0.0
 11
20.0
 21
1020.0
 31
0.0
  0
LINE
  5
D8
  8
TEAM-BODY
 10
121.0
 20
596.468602
 30
0.0
 11
121.0
 21
555.0
 31
0.0
  0
LINE
  5
D9
  8
TEAM-AXE
 10
100.0
 20
592.0
 30
0.0
 11
100.0
 21
555.0
 31
0.0
  0
LINE
  5
DA
  8
TEAM-KAN
 10
100.0
 20
555.0
 30
0.0
 11
100.0
 21
360.980383
 31
0.0
  0
LINE
  5
DB
  8
TEAM-BODY
 10
0.0
 20
842.0
 30
0.0
 11
0.0
 21
720.0
 31
0.0
  0
LINE
  5
DC
  8
TEAM-HIDE
 10
0.0
 20
0.0
 30
0.0
 11
0.0
 21
987.720045
 31
0.0
  0
LINE
  5
DF
  8
TEAM-BODY
 10
349.754006
 20
720.0
 30
0.0
 11
344.290388
 21
655.7062
 31
0.0
  0
LINE
  5
E0
  8
TEAM-BODY
 10
380.0
 20
720.0
 30
0.0
 11
380.0
 21
800.0
 31
0.0
  0
ENDSEC
  0
EOF
