  0
SECTION
  2
HEADER
  9
$ACADVER
  1
AC1009
  9
$INSBASE
 10
0.0
 20
0.0
 30
0.0
  9
$EXTMIN
 10
-700.000374
 20
-10.064278
 30
0.0
  9
$EXTMAX
 10
995.658117
 20
1063.688741
 30
0.000005
  9
$LIMMIN
 10
-700.000374
 20
-10.064278
  9
$LIMMAX
 10
995.658117
 20
1063.688741
  9
$ORTHOMODE
 70
     1
  9
$REGENMODE
 70
     1
  9
$FILLMODE
 70
     1
  9
$QTEXTMODE
 70
     0
  9
$MIRRTEXT
 70
     0
  9
$DRAGMODE
 70
     2
  9
$LTSCALE
 40
50.0
  9
$OSMODE
 70
     0
  9
$ATTMODE
 70
     1
  9
$TEXTSIZE
 40
200.0
  9
$TRACEWID
 40
1.0
  9
$TEXTSTYLE
  7
STANDARD
  9
$CLAYER
  8
TEAM-MAS
  9
$CELTYPE
  6
BYLAYER
  9
$CECOLOR
 62
   256
  9
$DIMSCALE
 40
0.0
  9
$DIMASZ
 40
20.0
  9
$DIMEXO
 40
10.0
  9
$DIMDLI
 40
1.0
  9
$DIMRND
 40
0.0
  9
$DIMDLE
 40
0.0
  9
$DIMEXE
 40
1.0
  9
$DIMTP
 40
0.0
  9
$DIMTM
 40
0.0
  9
$DIMTXT
 40
35.0
  9
$DIMCEN
 40
1.0
  9
$DIMTSZ
 40
0.0
  9
$DIMTOL
 70
     0
  9
$DIMLIM
 70
     0
  9
$DIMTIH
 70
     0
  9
$DIMTOH
 70
     0
  9
$DIMSE1
 70
     0
  9
$DIMSE2
 70
     0
  9
$DIMTAD
 70
     0
  9
$DIMZIN
 70
     0
  9
$DIMBLK
  1

  9
$DIMASO
 70
     1
  9
$DIMSHO
 70
     0
  9
$DIMPOST
  1

  9
$DIMAPOST
  1

  9
$DIMALT
 70
     0
  9
$DIMALTD
 70
     2
  9
$DIMALTF
 40
25.4
  9
$DIMLFAC
 40
1.0
  9
$DIMTOFL
 70
     0
  9
$DIMTVP
 40
0.0
  9
$DIMTIX
 70
     0
  9
$DIMSOXD
 70
     0
  9
$DIMSAH
 70
     0
  9
$DIMBLK1
  1

  9
$DIMBLK2
  1

  9
$DIMSTYLE
  2
TEAM
  9
$DIMCLRD
 70
     9
  9
$DIMCLRE
 70
     9
  9
$DIMCLRT
 70
    11
  9
$DIMTFAC
 40
1.0
  9
$DIMGAP
 40
7.0
  9
$LUNITS
 70
     2
  9
$LUPREC
 70
     1
  9
$SKETCHINC
 40
1.0
  9
$FILLETRAD
 40
50.0
  9
$AUNITS
 70
     0
  9
$AUPREC
 70
     0
  9
$MENU
  1
ROPLANS
  9
$ELEVATION
 40
0.0
  9
$PELEVATION
 40
0.0
  9
$THICKNESS
 40
0.0
  9
$LIMCHECK
 70
     0
  9
$BLIPMODE
 70
     1
  9
$CHAMFERA
 40
0.0
  9
$CHAMFERB
 40
0.0
  9
$SKPOLY
 70
     0
  9
$TDCREATE
 40
2450392.957851
  9
$TDUPDATE
 40
2456272.033233
  9
$TDINDWG
 40
2.315654
  9
$TDUSRTIMER
 40
2.315654
  9
$USRTIMER
 70
     1
  9
$ANGBASE
 50
0.0
  9
$ANGDIR
 70
     0
  9
$PDMODE
 70
     0
  9
$PDSIZE
 40
0.0
  9
$PLINEWID
 40
0.0
  9
$COORDS
 70
     2
  9
$SPLFRAME
 70
     0
  9
$SPLINETYPE
 70
     6
  9
$SPLINESEGS
 70
     8
  9
$ATTDIA
 70
     0
  9
$ATTREQ
 70
     0
  9
$HANDLING
 70
     1
  9
$HANDSEED
  5
1D0
  9
$SURFTAB1
 70
    24
  9
$SURFTAB2
 70
    24
  9
$SURFTYPE
 70
     6
  9
$SURFU
 70
     6
  9
$SURFV
 70
     6
  9
$UCSNAME
  2

  9
$UCSORG
 10
0.0
 20
0.0
 30
0.0
  9
$UCSXDIR
 10
1.0
 20
0.0
 30
0.0
  9
$UCSYDIR
 10
0.0
 20
1.0
 30
0.0
  9
$PUCSNAME
  2

  9
$PUCSORG
 10
0.0
 20
0.0
 30
0.0
  9
$PUCSXDIR
 10
1.0
 20
0.0
 30
0.0
  9
$PUCSYDIR
 10
0.0
 20
1.0
 30
0.0
  9
$USERI1
 70
     0
  9
$USERI2
 70
     0
  9
$USERI3
 70
     0
  9
$USERI4
 70
     0
  9
$USERI5
 70
     0
  9
$USERR1
 40
0.0
  9
$USERR2
 40
0.0
  9
$USERR3
 40
0.0
  9
$USERR4
 40
0.0
  9
$USERR5
 40
0.0
  9
$WORLDVIEW
 70
     1
  9
$SHADEDGE
 70
     0
  9
$SHADEDIF
 70
    70
  9
$TILEMODE
 70
     1
  9
$MAXACTVP
 70
    16
  9
$PLIMCHECK
 70
     0
  9
$PEXTMIN
 10
-0.805942
 20
0.005011
 30
0.0
  9
$PEXTMAX
 10
20.250094
 20
11.356329
 30
0.0
  9
$PLIMMIN
 10
0.0
 20
0.0
  9
$PLIMMAX
 10
12.0
 20
9.0
  9
$UNITMODE
 70
     0
  9
$VISRETAIN
 70
     0
  9
$PLINEGEN
 70
     0
  9
$PSLTSCALE
 70
     0
  0
ENDSEC
  0
SECTION
  2
TABLES
  0
TABLE
  2
VPORT
 70
     2
  0
VPORT
  2
*ACTIVE
 70
     0
 10
0.0
 20
0.0
 11
1.0
 21
1.0
 12
147.828872
 22
526.812232
 13
0.0
 23
0.0
 14
1.0
 24
1.0
 15
50.0
 25
50.0
 16
0.0
 26
0.0
 36
1.0
 17
0.0
 27
0.0
 37
0.0
 40
1080.513269
 41
1.911765
 42
50.0
 43
0.0
 44
0.0
 50
0.0
 51
0.0
 71
     0
 72
   100
 73
     1
 74
     1
 75
     0
 76
     0
 77
     0
 78
     0
  0
ENDTAB
  0
TABLE
  2
LTYPE
 70
     3
  0
LTYPE
  2
CONTINUOUS
 70
     0
  3
Solid Line
 72
    65
 73
     0
 40
0.0
  0
LTYPE
  2
31
 70
     0
  3

 72
    65
 73
     4
 40
2.1
 49
1.5
 49
-0.3
 49
0.0
 49
-0.3
  0
LTYPE
  2
22
 70
     0
  3

 72
    65
 73
     2
 40
1.4
 49
1.2
 49
-0.2
  0
ENDTAB
  0
TABLE
  2
LAYER
 70
    12
  0
LAYER
  2
0
 70
     0
 62
     7
  6
CONTINUOUS
  0
LAYER
  2
DEFPOINTS
 70
     0
 62
     7
  6
CONTINUOUS
  0
LAYER
  2
TEAM-BODY
 70
     0
 62
     2
  6
CONTINUOUS
  0
LAYER
  2
TEAM-AXE
 70
     0
 62
    10
  6
31
  0
LAYER
  2
TEAM-MAS
 70
     0
 62
     9
  6
CONTINUOUS
  0
LAYER
  2
TEAM-TXT
 70
     0
 62
    11
  6
CONTINUOUS
  0
LAYER
  2
TEAM-DET1
 70
     0
 62
     4
  6
CONTINUOUS
  0
LAYER
  2
TEAM-COLD
 70
     0
 62
     3
  6
CONTINUOUS
  0
LAYER
  2
TEAM-HIDE
 70
     0
 62
     8
  6
22
  0
LAYER
  2
TEAM-KAN
 70
     0
 62
     6
  6
CONTINUOUS
  0
LAYER
  2
TEAM-WARM
 70
     0
 62
     1
  6
CONTINUOUS
  0
LAYER
  2
TEAM-INSP
 70
     0
 62
     5
  6
CONTINUOUS
  0
ENDTAB
  0
TABLE
  2
STYLE
 70
     2
  0
STYLE
  2
STANDARD
 70
     0
 40
0.0
 41
1.0
 50
0.0
 71
     0
 42
200.0
  3
txt
  4

  0
STYLE
  2
TEAM
 70
     0
 40
0.0
 41
0.8
 50
15.0
 71
     0
 42
7.0
  3
ROMANS.shx
  4

  0
ENDTAB
  0
TABLE
  2
VIEW
 70
     0
  0
ENDTAB
  0
TABLE
  2
UCS
 70
     0
  0
ENDTAB
  0
TABLE
  2
APPID
 70
     1
  0
APPID
  2
ACAD
 70
     0
  0
ENDTAB
  0
TABLE
  2
DIMSTYLE
 70
     1
  0
DIMSTYLE
  2
TEAM
 70
     0
  3

  4

  5

  6

  7

 40
0.0
 41
20.0
 42
10.0
 43
1.0
 44
1.0
 45
0.0
 46
0.0
 47
0.0
 48
0.0
140
35.0
141
1.0
142
0.0
143
25.4
144
1.0
145
0.0
146
1.0
147
7.0
 71
     0
 72
     0
 73
     0
 74
     0
 75
     0
 76
     0
 77
     0
 78
     0
170
     0
171
     2
172
     0
173
     0
174
     0
175
     0
176
     9
177
     9
178
    11
  0
ENDTAB
  0
ENDSEC
  0
SECTION
  2
BLOCKS
  0
BLOCK
  8
0
  2
$MODEL_SPACE
 70
     0
 10
0.0
 20
0.0
 30
0.0
  3
$MODEL_SPACE
  1

  0
ENDBLK
  5
1BF
  8
0
  0
BLOCK
 67
     1
  8
0
  2
$PAPER_SPACE
 70
     0
 10
0.0
 20
0.0
 30
0.0
  3
$PAPER_SPACE
  1

  0
ENDBLK
  5
1BD
 67
     1
  8
0
  0
BLOCK
  8
0
  2
*D0
 70
     1
 10
0.0
 20
0.0
 30
0.0
  3
*D0
  1

  0
LINE
  5
5D
  8
0
  6
BYBLOCK
 62
     9
 10
3300.0
 20
88852.003237
 30
0.0
 11
3300.0
 21
89047.184085
 31
0.0
  0
LINE
  5
5E
  8
0
  6
BYBLOCK
 62
     9
 10
4700.0
 20
88852.003237
 30
0.0
 11
4700.0
 21
89047.184085
 31
0.0
  0
LINE
  5
5F
  8
0
  6
BYBLOCK
 62
     9
 10
3320.0
 20
89046.184085
 30
0.0
 11
3940.5
 21
89046.184085
 31
0.0
  0
LINE
  5
60
  8
0
  6
BYBLOCK
 62
     9
 10
4680.0
 20
89046.184085
 30
0.0
 11
4059.5
 21
89046.184085
 31
0.0
  0
SOLID
  5
61
  8
0
  6
BYBLOCK
 62
     9
 10
3320.0
 20
89049.517418
 30
0.0
 11
3320.0
 21
89042.850752
 31
0.0
 12
3300.0
 22
89046.184085
 32
0.0
 13
3300.0
 23
89046.184085
 33
0.0
  0
SOLID
  5
62
  8
0
  6
BYBLOCK
 62
     9
 10
4680.0
 20
89049.517418
 30
0.0
 11
4680.0
 21
89042.850752
 31
0.0
 12
4700.0
 22
89046.184085
 32
0.0
 13
4700.0
 23
89046.184085
 33
0.0
  0
TEXT
  5
63
  8
0
  6
BYBLOCK
 62
    11
 10
3947.5
 20
89028.684085
 30
0.0
 40
35.0
  1
1400
  0
POINT
  5
64
  8
DEFPOINTS
  6
BYBLOCK
 62
     0
 10
3300.0
 20
88842.003237
 30
0.0
  0
POINT
  5
65
  8
DEFPOINTS
  6
BYBLOCK
 62
     0
 10
4700.0
 20
88842.003237
 30
0.0
  0
POINT
  5
66
  8
DEFPOINTS
  6
BYBLOCK
 62
     0
 10
4700.0
 20
89046.184085
 30
0.0
  0
ENDBLK
  5
68
  8
0
  0
BLOCK
  8
0
  2
*D1
 70
     1
 10
0.0
 20
0.0
 30
0.0
  3
*D1
  1

  0
LINE
  5
4F
  8
0
  6
BYBLOCK
 62
     9
 10
3650.0
 20
89030.0
 30
0.0
 11
3650.0
 21
88981.512961
 31
0.0
  0
LINE
  5
50
  8
0
  6
BYBLOCK
 62
     9
 10
4350.0
 20
89030.0
 30
0.0
 11
4350.0
 21
88981.512961
 31
0.0
  0
LINE
  5
51
  8
0
  6
BYBLOCK
 62
     9
 10
3670.0
 20
88982.512961
 30
0.0
 11
3952.166667
 21
88982.512961
 31
0.0
  0
LINE
  5
52
  8
0
  6
BYBLOCK
 62
     9
 10
4330.0
 20
88982.512961
 30
0.0
 11
4047.833333
 21
88982.512961
 31
0.0
  0
SOLID
  5
53
  8
0
  6
BYBLOCK
 62
     9
 10
3670.0
 20
88985.846294
 30
0.0
 11
3670.0
 21
88979.179628
 31
0.0
 12
3650.0
 22
88982.512961
 32
0.0
 13
3650.0
 23
88982.512961
 33
0.0
  0
SOLID
  5
54
  8
0
  6
BYBLOCK
 62
     9
 10
4330.0
 20
88985.846294
 30
0.0
 11
4330.0
 21
88979.179628
 31
0.0
 12
4350.0
 22
88982.512961
 32
0.0
 13
4350.0
 23
88982.512961
 33
0.0
  0
TEXT
  5
55
  8
0
  6
BYBLOCK
 62
    11
 10
3959.166667
 20
88965.012961
 30
0.0
 40
35.0
  1
700
  0
POINT
  5
56
  8
DEFPOINTS
  6
BYBLOCK
 62
     0
 10
3650.0
 20
89040.0
 30
0.0
  0
POINT
  5
57
  8
DEFPOINTS
  6
BYBLOCK
 62
     0
 10
4350.0
 20
89040.0
 30
0.0
  0
POINT
  5
58
  8
DEFPOINTS
  6
BYBLOCK
 62
     0
 10
4350.0
 20
88982.512961
 30
0.0
  0
ENDBLK
  5
5A
  8
0
  0
BLOCK
  8
0
  2
*D2
 70
     1
 10
0.0
 20
0.0
 30
0.0
  3
*D2
  1

  0
LINE
  5
137
  8
0
  6
BYBLOCK
 62
     9
 10
4000.967761
 20
88000.0
 30
0.0
 11
4753.198744
 21
88000.0
 31
0.0
  0
LINE
  5
138
  8
0
  6
BYBLOCK
 62
     9
 10
4000.967761
 20
88460.0
 30
0.0
 11
4753.198744
 21
88460.0
 31
0.0
  0
LINE
  5
139
  8
0
  6
BYBLOCK
 62
     9
 10
4752.198744
 20
88020.0
 30
0.0
 11
4752.198744
 21
88179.25
 31
0.0
  0
LINE
  5
13A
  8
0
  6
BYBLOCK
 62
     9
 10
4752.198744
 20
88440.0
 30
0.0
 11
4752.198744
 21
88280.75
 31
0.0
  0
SOLID
  5
13B
  8
0
  6
BYBLOCK
 62
     9
 10
4748.865411
 20
88020.0
 30
0.0
 11
4755.532077
 21
88020.0
 31
0.0
 12
4752.198744
 22
88000.0
 32
0.0
 13
4752.198744
 23
88000.0
 33
0.0
  0
SOLID
  5
13C
  8
0
  6
BYBLOCK
 62
     9
 10
4748.865411
 20
88440.0
 30
0.0
 11
4755.532077
 21
88440.0
 31
0.0
 12
4752.198744
 22
88460.0
 32
0.0
 13
4752.198744
 23
88460.0
 33
0.0
  0
TEXT
  5
13D
  8
0
  6
BYBLOCK
 62
    11
 10
4769.698744
 20
88186.25
 30
0.0
 40
35.0
  1
460
 50
90.0
  0
POINT
  5
13E
  8
DEFPOINTS
  6
BYBLOCK
 62
     0
 10
3990.967761
 20
88000.0
 30
0.0
  0
POINT
  5
13F
  8
DEFPOINTS
  6
BYBLOCK
 62
     0
 10
3990.967761
 20
88460.0
 30
0.0
  0
POINT
  5
140
  8
DEFPOINTS
  6
BYBLOCK
 62
     0
 10
4752.198744
 20
88460.0
 30
0.0
  0
ENDBLK
  5
142
  8
0
  0
BLOCK
  8
0
  2
*D3
 70
     1
 10
0.0
 20
0.0
 30
0.0
  3
*D3
  1

  0
LINE
  5
129
  8
0
  6
BYBLOCK
 62
     9
 10
4707.534952
 20
88800.0
 30
0.0
 11
4753.198744
 21
88800.0
 31
0.0
  0
LINE
  5
12A
  8
0
  6
BYBLOCK
 62
     9
 10
4000.967761
 20
88592.0
 30
0.0
 11
4753.198744
 21
88592.0
 31
0.0
  0
LINE
  5
12B
  8
0
  6
BYBLOCK
 62
     9
 10
4752.198744
 20
88780.0
 30
0.0
 11
4752.198744
 21
88752.25
 31
0.0
  0
LINE
  5
12C
  8
0
  6
BYBLOCK
 62
     9
 10
4752.198744
 20
88612.0
 30
0.0
 11
4752.198744
 21
88650.75
 31
0.0
  0
TEXT
  5
12D
  8
0
  6
BYBLOCK
 62
    11
 10
4749.822927
 20
88657.75
 30
0.0
 40
35.0
  1
208
 50
90.0
  0
SOLID
  5
12E
  8
0
  6
BYBLOCK
 62
     9
 10
4748.865411
 20
88780.0
 30
0.0
 11
4755.532077
 21
88780.0
 31
0.0
 12
4752.198744
 22
88800.0
 32
0.0
 13
4752.198744
 23
88800.0
 33
0.0
  0
SOLID
  5
12F
  8
0
  6
BYBLOCK
 62
     9
 10
4748.865411
 20
88612.0
 30
0.0
 11
4755.532077
 21
88612.0
 31
0.0
 12
4752.198744
 22
88592.0
 32
0.0
 13
4752.198744
 23
88592.0
 33
0.0
  0
POINT
  5
130
  8
DEFPOINTS
  6
BYBLOCK
 62
     0
 10
4697.534952
 20
88800.0
 30
0.0
  0
POINT
  5
131
  8
DEFPOINTS
  6
BYBLOCK
 62
     0
 10
3990.967761
 20
88592.0
 30
0.0
  0
POINT
  5
132
  8
DEFPOINTS
  6
BYBLOCK
 62
     0
 10
4752.198744
 20
88592.0
 30
0.0
  0
ENDBLK
  5
134
  8
0
  0
BLOCK
  8
0
  2
*D4
 70
     1
 10
0.0
 20
0.0
 30
0.0
  3
*D4
  1

  0
LINE
  5
11B
  8
0
  6
BYBLOCK
 62
     9
 10
4560.0
 20
88766.0
 30
0.0
 11
4560.0
 21
88883.444865
 31
0.0
  0
LINE
  5
11C
  8
0
  6
BYBLOCK
 62
     9
 10
4000.0
 20
88836.576435
 30
0.0
 11
4000.0
 21
88883.444865
 31
0.0
  0
LINE
  5
11D
  8
0
  6
BYBLOCK
 62
     9
 10
4540.0
 20
88882.444865
 30
0.0
 11
4330.75
 21
88882.444865
 31
0.0
  0
LINE
  5
11E
  8
0
  6
BYBLOCK
 62
     9
 10
4020.0
 20
88882.444865
 30
0.0
 11
4229.25
 21
88882.444865
 31
0.0
  0
SOLID
  5
11F
  8
0
  6
BYBLOCK
 62
     9
 10
4540.0
 20
88885.778198
 30
0.0
 11
4540.0
 21
88879.111532
 31
0.0
 12
4560.0
 22
88882.444865
 32
0.0
 13
4560.0
 23
88882.444865
 33
0.0
  0
SOLID
  5
120
  8
0
  6
BYBLOCK
 62
     9
 10
4020.0
 20
88885.778198
 30
0.0
 11
4020.0
 21
88879.111532
 31
0.0
 12
4000.0
 22
88882.444865
 32
0.0
 13
4000.0
 23
88882.444865
 33
0.0
  0
TEXT
  5
121
  8
0
  6
BYBLOCK
 62
    11
 10
4236.25
 20
88864.944865
 30
0.0
 40
35.0
  1
560
  0
POINT
  5
122
  8
DEFPOINTS
  6
BYBLOCK
 62
     0
 10
4560.0
 20
88756.0
 30
0.0
  0
POINT
  5
123
  8
DEFPOINTS
  6
BYBLOCK
 62
     0
 10
4000.0
 20
88826.576435
 30
0.0
  0
POINT
  5
124
  8
DEFPOINTS
  6
BYBLOCK
 62
     0
 10
4000.0
 20
88882.444865
 30
0.0
  0
ENDBLK
  5
126
  8
0
  0
BLOCK
  8
0
  2
*D5
 70
     1
 10
0.0
 20
0.0
 30
0.0
  3
*D5
  1

  0
LINE
  5
41
  8
0
  6
BYBLOCK
 62
     9
 10
3900.0
 20
88545.0
 30
0.0
 11
3900.0
 21
88257.30533
 31
0.0
  0
LINE
  5
42
  8
0
  6
BYBLOCK
 62
     9
 10
4100.0
 20
88545.0
 30
0.0
 11
4100.0
 21
88257.30533
 31
0.0
  0
LINE
  5
43
  8
0
  6
BYBLOCK
 62
     9
 10
3920.0
 20
88258.30533
 30
0.0
 11
3952.166667
 21
88258.30533
 31
0.0
  0
LINE
  5
44
  8
0
  6
BYBLOCK
 62
     9
 10
4080.0
 20
88258.30533
 30
0.0
 11
4047.833333
 21
88258.30533
 31
0.0
  0
SOLID
  5
45
  8
0
  6
BYBLOCK
 62
     9
 10
3920.0
 20
88261.638663
 30
0.0
 11
3920.0
 21
88254.971996
 31
0.0
 12
3900.0
 22
88258.30533
 32
0.0
 13
3900.0
 23
88258.30533
 33
0.0
  0
SOLID
  5
46
  8
0
  6
BYBLOCK
 62
     9
 10
4080.0
 20
88261.638663
 30
0.0
 11
4080.0
 21
88254.971996
 31
0.0
 12
4100.0
 22
88258.30533
 32
0.0
 13
4100.0
 23
88258.30533
 33
0.0
  0
TEXT
  5
47
  8
0
  6
BYBLOCK
 62
    11
 10
3959.166667
 20
88240.80533
 30
0.0
 40
35.0
  1
200
  0
POINT
  5
48
  8
DEFPOINTS
  6
BYBLOCK
 62
     0
 10
3900.0
 20
88555.0
 30
0.0
  0
POINT
  5
49
  8
DEFPOINTS
  6
BYBLOCK
 62
     0
 10
4100.0
 20
88555.0
 30
0.0
  0
POINT
  5
4A
  8
DEFPOINTS
  6
BYBLOCK
 62
     0
 10
4100.0
 20
88258.30533
 30
0.0
  0
ENDBLK
  5
4C
  8
0
  0
BLOCK
  8
0
  2
*D6
 70
     1
 10
0.0
 20
0.0
 30
0.0
  3
*D6
  1

  0
LINE
  5
10D
  8
0
  6
BYBLOCK
 62
     9
 10
4000.0
 20
88420.0
 30
0.0
 11
4000.0
 21
88320.707486
 31
0.0
  0
LINE
  5
10E
  8
0
  6
BYBLOCK
 62
     9
 10
4400.0
 20
88542.0
 30
0.0
 11
4400.0
 21
88320.707486
 31
0.0
  0
LINE
  5
10F
  8
0
  6
BYBLOCK
 62
     9
 10
4020.0
 20
88321.707486
 30
0.0
 11
4152.166667
 21
88321.707486
 31
0.0
  0
LINE
  5
110
  8
0
  6
BYBLOCK
 62
     9
 10
4380.0
 20
88321.707486
 30
0.0
 11
4247.833333
 21
88321.707486
 31
0.0
  0
SOLID
  5
111
  8
0
  6
BYBLOCK
 62
     9
 10
4020.0
 20
88325.04082
 30
0.0
 11
4020.0
 21
88318.374153
 31
0.0
 12
4000.0
 22
88321.707486
 32
0.0
 13
4000.0
 23
88321.707486
 33
0.0
  0
SOLID
  5
112
  8
0
  6
BYBLOCK
 62
     9
 10
4380.0
 20
88325.04082
 30
0.0
 11
4380.0
 21
88318.374153
 31
0.0
 12
4400.0
 22
88321.707486
 32
0.0
 13
4400.0
 23
88321.707486
 33
0.0
  0
TEXT
  5
113
  8
0
  6
BYBLOCK
 62
    11
 10
4159.166667
 20
88304.207486
 30
0.0
 40
35.0
  1
400
  0
POINT
  5
114
  8
DEFPOINTS
  6
BYBLOCK
 62
     0
 10
4000.0
 20
88430.0
 30
0.0
  0
POINT
  5
115
  8
DEFPOINTS
  6
BYBLOCK
 62
     0
 10
4400.0
 20
88552.0
 30
0.0
  0
POINT
  5
116
  8
DEFPOINTS
  6
BYBLOCK
 62
     0
 10
4400.0
 20
88321.707486
 30
0.0
  0
ENDBLK
  5
118
  8
0
  0
BLOCK
  8
0
  2
*D7
 70
     1
 10
0.0
 20
0.0
 30
0.0
  3
*D7
  1

  0
LINE
  5
FF
  8
0
  6
BYBLOCK
 62
     9
 10
4000.967761
 20
88000.0
 30
0.0
 11
4842.857152
 21
88000.0
 31
0.0
  0
LINE
  5
100
  8
0
  6
BYBLOCK
 62
     9
 10
4697.534952
 20
88800.0
 30
0.0
 11
4842.857152
 21
88800.0
 31
0.0
  0
LINE
  5
101
  8
0
  6
BYBLOCK
 62
     9
 10
4841.857152
 20
88020.0
 30
0.0
 11
4841.857152
 21
88352.166667
 31
0.0
  0
LINE
  5
102
  8
0
  6
BYBLOCK
 62
     9
 10
4841.857152
 20
88780.0
 30
0.0
 11
4841.857152
 21
88447.833333
 31
0.0
  0
SOLID
  5
103
  8
0
  6
BYBLOCK
 62
     9
 10
4838.523818
 20
88020.0
 30
0.0
 11
4845.190485
 21
88020.0
 31
0.0
 12
4841.857152
 22
88000.0
 32
0.0
 13
4841.857152
 23
88000.0
 33
0.0
  0
SOLID
  5
104
  8
0
  6
BYBLOCK
 62
     9
 10
4838.523818
 20
88780.0
 30
0.0
 11
4845.190485
 21
88780.0
 31
0.0
 12
4841.857152
 22
88800.0
 32
0.0
 13
4841.857152
 23
88800.0
 33
0.0
  0
TEXT
  5
105
  8
0
  6
BYBLOCK
 62
    11
 10
4859.357152
 20
88359.166667
 30
0.0
 40
35.0
  1
800
 50
90.0
  0
POINT
  5
106
  8
DEFPOINTS
  6
BYBLOCK
 62
     0
 10
3990.967761
 20
88000.0
 30
0.0
  0
POINT
  5
107
  8
DEFPOINTS
  6
BYBLOCK
 62
     0
 10
4687.534952
 20
88800.0
 30
0.0
  0
POINT
  5
108
  8
DEFPOINTS
  6
BYBLOCK
 62
     0
 10
4841.857152
 20
88800.0
 30
0.0
  0
ENDBLK
  5
10A
  8
0
  0
BLOCK
  8
0
  2
*D8
 70
     1
 10
0.0
 20
0.0
 30
0.0
  3
*D8
  1

  0
LINE
  5
F1
  8
0
  6
BYBLOCK
 62
     9
 10
4000.967761
 20
88000.0
 30
0.0
 11
4887.685651
 21
88000.0
 31
0.0
  0
LINE
  5
F2
  8
0
  6
BYBLOCK
 62
     9
 10
4697.534952
 20
88800.0
 30
0.0
 11
4887.685651
 21
88800.0
 31
0.0
  0
LINE
  5
F3
  8
0
  6
BYBLOCK
 62
     9
 10
4886.685651
 20
88020.0
 30
0.0
 11
4886.685651
 21
88285.083333
 31
0.0
  0
LINE
  5
F4
  8
0
  6
BYBLOCK
 62
     9
 10
4886.685651
 20
88780.0
 30
0.0
 11
4886.685651
 21
88514.916667
 31
0.0
  0
SOLID
  5
F5
  8
0
  6
BYBLOCK
 62
     9
 10
4883.352318
 20
88020.0
 30
0.0
 11
4890.018985
 21
88020.0
 31
0.0
 12
4886.685651
 22
88000.0
 32
0.0
 13
4886.685651
 23
88000.0
 33
0.0
  0
SOLID
  5
F6
  8
0
  6
BYBLOCK
 62
     9
 10
4883.352318
 20
88780.0
 30
0.0
 11
4890.018985
 21
88780.0
 31
0.0
 12
4886.685651
 22
88800.0
 32
0.0
 13
4886.685651
 23
88800.0
 33
0.0
  0
TEXT
  5
F7
  8
0
  6
BYBLOCK
 62
    11
 10
4904.185651
 20
88292.083333
 30
0.0
 40
35.0
  1
600-850
 50
90.0
  0
POINT
  5
F8
  8
DEFPOINTS
  6
BYBLOCK
 62
     0
 10
3990.967761
 20
88000.0
 30
0.0
  0
POINT
  5
F9
  8
DEFPOINTS
  6
BYBLOCK
 62
     0
 10
4687.534952
 20
88800.0
 30
0.0
  0
POINT
  5
FA
  8
DEFPOINTS
  6
BYBLOCK
 62
     0
 10
4886.685651
 20
88800.0
 30
0.0
  0
ENDBLK
  5
FC
  8
0
  0
BLOCK
  8
0
  2
*D9
 70
     1
 10
0.0
 20
0.0
 30
0.0
  3
*D9
  1

  0
LINE
  5
E3
  8
0
  6
BYBLOCK
 62
     9
 10
4000.967761
 20
88000.0
 30
0.0
 11
4798.027244
 21
88000.0
 31
0.0
  0
LINE
  5
E4
  8
0
  6
BYBLOCK
 62
     9
 10
4000.967761
 20
88460.0
 30
0.0
 11
4798.027244
 21
88460.0
 31
0.0
  0
LINE
  5
E5
  8
0
  6
BYBLOCK
 62
     9
 10
4797.027244
 20
88020.0
 30
0.0
 11
4797.027244
 21
88118.0
 31
0.0
  0
LINE
  5
E6
  8
0
  6
BYBLOCK
 62
     9
 10
4797.027244
 20
88440.0
 30
0.0
 11
4797.027244
 21
88342.0
 31
0.0
  0
SOLID
  5
E7
  8
0
  6
BYBLOCK
 62
     9
 10
4793.69391
 20
88020.0
 30
0.0
 11
4800.360577
 21
88020.0
 31
0.0
 12
4797.027244
 22
88000.0
 32
0.0
 13
4797.027244
 23
88000.0
 33
0.0
  0
SOLID
  5
E8
  8
0
  6
BYBLOCK
 62
     9
 10
4793.69391
 20
88440.0
 30
0.0
 11
4800.360577
 21
88440.0
 31
0.0
 12
4797.027244
 22
88460.0
 32
0.0
 13
4797.027244
 23
88460.0
 33
0.0
  0
TEXT
  5
E9
  8
0
  6
BYBLOCK
 62
    11
 10
4814.527244
 20
88125.0
 30
0.0
 40
35.0
  1
300-500
 50
90.0
  0
POINT
  5
EA
  8
DEFPOINTS
  6
BYBLOCK
 62
     0
 10
3990.967761
 20
88000.0
 30
0.0
  0
POINT
  5
EB
  8
DEFPOINTS
  6
BYBLOCK
 62
     0
 10
3990.967761
 20
88460.0
 30
0.0
  0
POINT
  5
EC
  8
DEFPOINTS
  6
BYBLOCK
 62
     0
 10
4797.027244
 20
88460.0
 30
0.0
  0
ENDBLK
  5
EE
  8
0
  0
BLOCK
  8
0
  2
*D10
 70
     1
 10
0.0
 20
0.0
 30
0.0
  3
*D10
  1

  0
LINE
  5
D5
  8
0
  6
BYBLOCK
 62
     9
 10
4680.990976
 20
88800.0
 30
0.0
 11
4798.027244
 21
88800.0
 31
0.0
  0
LINE
  5
D6
  8
0
  6
BYBLOCK
 62
     9
 10
4000.967761
 20
88460.0
 30
0.0
 11
4798.027244
 21
88460.0
 31
0.0
  0
LINE
  5
D7
  8
0
  6
BYBLOCK
 62
     9
 10
4797.027244
 20
88780.0
 30
0.0
 11
4797.027244
 21
88696.25
 31
0.0
  0
LINE
  5
D8
  8
0
  6
BYBLOCK
 62
     9
 10
4797.027244
 20
88480.0
 30
0.0
 11
4797.027244
 21
88594.75
 31
0.0
  0
TEXT
  5
D9
  8
0
  6
BYBLOCK
 62
    11
 10
4814.527244
 20
88601.75
 30
0.0
 40
35.0
  1
340
 50
90.0
  0
SOLID
  5
DA
  8
0
  6
BYBLOCK
 62
     9
 10
4793.69391
 20
88780.0
 30
0.0
 11
4800.360577
 21
88780.0
 31
0.0
 12
4797.027244
 22
88800.0
 32
0.0
 13
4797.027244
 23
88800.0
 33
0.0
  0
SOLID
  5
DB
  8
0
  6
BYBLOCK
 62
     9
 10
4793.69391
 20
88480.0
 30
0.0
 11
4800.360577
 21
88480.0
 31
0.0
 12
4797.027244
 22
88460.0
 32
0.0
 13
4797.027244
 23
88460.0
 33
0.0
  0
POINT
  5
DC
  8
DEFPOINTS
  6
BYBLOCK
 62
     0
 10
4670.990976
 20
88800.0
 30
0.0
  0
POINT
  5
DD
  8
DEFPOINTS
  6
BYBLOCK
 62
     0
 10
3990.967761
 20
88460.0
 30
0.0
  0
POINT
  5
DE
  8
DEFPOINTS
  6
BYBLOCK
 62
     0
 10
4797.027244
 20
88460.0
 30
0.0
  0
ENDBLK
  5
E0
  8
0
  0
BLOCK
  8
0
  2
*D11
 70
     1
 10
0.0
 20
0.0
 30
0.0
  3
*D11
  1

  0
LINE
  5
C7
  8
0
  6
BYBLOCK
 62
     9
 10
4000.967761
 20
88000.0
 30
0.0
 11
4932.514151
 21
88000.0
 31
0.0
  0
LINE
  5
C8
  8
0
  6
BYBLOCK
 62
     9
 10
4436.5
 20
89020.0
 30
0.0
 11
4932.514151
 21
89020.0
 31
0.0
  0
LINE
  5
C9
  8
0
  6
BYBLOCK
 62
     9
 10
4931.514151
 20
88020.0
 30
0.0
 11
4931.514151
 21
88490.5
 31
0.0
  0
LINE
  5
CA
  8
0
  6
BYBLOCK
 62
     9
 10
4931.514151
 20
89000.0
 30
0.0
 11
4931.514151
 21
88609.5
 31
0.0
  0
TEXT
  5
CB
  8
0
  6
BYBLOCK
 62
    11
 10
4949.014151
 20
88497.5
 30
0.0
 40
35.0
  1
1020
 50
90.0
  0
SOLID
  5
CC
  8
0
  6
BYBLOCK
 62
     9
 10
4928.180817
 20
88020.0
 30
0.0
 11
4934.847484
 21
88020.0
 31
0.0
 12
4931.514151
 22
88000.0
 32
0.0
 13
4931.514151
 23
88000.0
 33
0.0
  0
SOLID
  5
CD
  8
0
  6
BYBLOCK
 62
     9
 10
4928.180817
 20
89000.0
 30
0.0
 11
4934.847484
 21
89000.0
 31
0.0
 12
4931.514151
 22
89020.0
 32
0.0
 13
4931.514151
 23
89020.0
 33
0.0
  0
POINT
  5
CE
  8
DEFPOINTS
  6
BYBLOCK
 62
     0
 10
3990.967761
 20
88000.0
 30
0.0
  0
POINT
  5
CF
  8
DEFPOINTS
  6
BYBLOCK
 62
     0
 10
4426.5
 20
89020.0
 30
0.0
  0
POINT
  5
D0
  8
DEFPOINTS
  6
BYBLOCK
 62
     0
 10
4931.514151
 20
89020.0
 30
0.0
  0
ENDBLK
  5
D2
  8
0
  0
BLOCK
  8
0
  2
*D12
 70
     1
 10
0.0
 20
0.0
 30
0.0
  3
*D12
  1

  0
LINE
  5
B9
  8
0
  6
BYBLOCK
 62
     9
 10
4000.967761
 20
88000.0
 30
0.0
 11
4979.028999
 21
88000.0
 31
0.0
  0
LINE
  5
BA
  8
0
  6
BYBLOCK
 62
     9
 10
4436.5
 20
89020.0
 30
0.0
 11
4979.028999
 21
89020.0
 31
0.0
  0
LINE
  5
BB
  8
0
  6
BYBLOCK
 62
     9
 10
4978.028999
 20
88020.0
 30
0.0
 11
4978.028999
 21
88423.416667
 31
0.0
  0
LINE
  5
BC
  8
0
  6
BYBLOCK
 62
     9
 10
4978.028999
 20
89000.0
 30
0.0
 11
4978.028999
 21
88676.583333
 31
0.0
  0
TEXT
  5
BD
  8
0
  6
BYBLOCK
 62
    11
 10
4995.528999
 20
88430.416667
 30
0.0
 40
35.0
  1
950-1200
 50
90.0
  0
SOLID
  5
BE
  8
0
  6
BYBLOCK
 62
     9
 10
4974.695665
 20
88020.0
 30
0.0
 11
4981.362332
 21
88020.0
 31
0.0
 12
4978.028999
 22
88000.0
 32
0.0
 13
4978.028999
 23
88000.0
 33
0.0
  0
SOLID
  5
BF
  8
0
  6
BYBLOCK
 62
     9
 10
4974.695665
 20
89000.0
 30
0.0
 11
4981.362332
 21
89000.0
 31
0.0
 12
4978.028999
 22
89020.0
 32
0.0
 13
4978.028999
 23
89020.0
 33
0.0
  0
POINT
  5
C0
  8
DEFPOINTS
  6
BYBLOCK
 62
     0
 10
3990.967761
 20
88000.0
 30
0.0
  0
POINT
  5
C1
  8
DEFPOINTS
  6
BYBLOCK
 62
     0
 10
4426.5
 20
89020.0
 30
0.0
  0
POINT
  5
C2
  8
DEFPOINTS
  6
BYBLOCK
 62
     0
 10
4978.028999
 20
89020.0
 30
0.0
  0
ENDBLK
  5
C4
  8
0
  0
BLOCK
  8
0
  2
*D13
 70
     1
 10
0.0
 20
0.0
 30
0.0
  3
*D13
  1

  0
LINE
  5
33
  8
0
  6
BYBLOCK
 62
     9
 10
3440.0
 20
88766.0
 30
0.0
 11
3440.0
 21
88883.444865
 31
0.0
  0
LINE
  5
34
  8
0
  6
BYBLOCK
 62
     9
 10
4000.0
 20
88836.576435
 30
0.0
 11
4000.0
 21
88883.444865
 31
0.0
  0
LINE
  5
35
  8
0
  6
BYBLOCK
 62
     9
 10
3460.0
 20
88882.444865
 30
0.0
 11
3669.25
 21
88882.444865
 31
0.0
  0
LINE
  5
36
  8
0
  6
BYBLOCK
 62
     9
 10
3980.0
 20
88882.444865
 30
0.0
 11
3770.75
 21
88882.444865
 31
0.0
  0
SOLID
  5
37
  8
0
  6
BYBLOCK
 62
     9
 10
3460.0
 20
88885.778198
 30
0.0
 11
3460.0
 21
88879.111532
 31
0.0
 12
3440.0
 22
88882.444865
 32
0.0
 13
3440.0
 23
88882.444865
 33
0.0
  0
SOLID
  5
38
  8
0
  6
BYBLOCK
 62
     9
 10
3980.0
 20
88885.778198
 30
0.0
 11
3980.0
 21
88879.111532
 31
0.0
 12
4000.0
 22
88882.444865
 32
0.0
 13
4000.0
 23
88882.444865
 33
0.0
  0
TEXT
  5
39
  8
0
  6
BYBLOCK
 62
    11
 10
3676.25
 20
88864.944865
 30
0.0
 40
35.0
  1
560
  0
POINT
  5
3A
  8
DEFPOINTS
  6
BYBLOCK
 62
     0
 10
3440.0
 20
88756.0
 30
0.0
  0
POINT
  5
3B
  8
DEFPOINTS
  6
BYBLOCK
 62
     0
 10
4000.0
 20
88826.576435
 30
0.0
  0
POINT
  5
3C
  8
DEFPOINTS
  6
BYBLOCK
 62
     0
 10
4000.0
 20
88882.444865
 30
0.0
  0
ENDBLK
  5
3E
  8
0
  0
BLOCK
  8
0
  2
*D14
 70
     1
 10
0.0
 20
0.0
 30
0.0
  3
*D14
  1

  0
LINE
  5
24
  8
0
  6
BYBLOCK
 62
     9
 10
4000.0
 20
88420.0
 30
0.0
 11
4000.0
 21
88320.707486
 31
0.0
  0
LINE
  5
25
  8
0
  6
BYBLOCK
 62
     9
 10
3600.0
 20
88542.0
 30
0.0
 11
3600.0
 21
88320.707486
 31
0.0
  0
LINE
  5
26
  8
0
  6
BYBLOCK
 62
     9
 10
3980.0
 20
88321.707486
 30
0.0
 11
3847.833333
 21
88321.707486
 31
0.0
  0
LINE
  5
27
  8
0
  6
BYBLOCK
 62
     9
 10
3620.0
 20
88321.707486
 30
0.0
 11
3752.166667
 21
88321.707486
 31
0.0
  0
SOLID
  5
28
  8
0
  6
BYBLOCK
 62
     9
 10
3980.0
 20
88325.04082
 30
0.0
 11
3980.0
 21
88318.374153
 31
0.0
 12
4000.0
 22
88321.707486
 32
0.0
 13
4000.0
 23
88321.707486
 33
0.0
  0
SOLID
  5
29
  8
0
  6
BYBLOCK
 62
     9
 10
3620.0
 20
88325.04082
 30
0.0
 11
3620.0
 21
88318.374153
 31
0.0
 12
3600.0
 22
88321.707486
 32
0.0
 13
3600.0
 23
88321.707486
 33
0.0
  0
TEXT
  5
2A
  8
0
  6
BYBLOCK
 62
    11
 10
3759.166667
 20
88304.207486
 30
0.0
 40
35.0
  1
400
  0
POINT
  5
2B
  8
DEFPOINTS
  6
BYBLOCK
 62
     0
 10
4000.0
 20
88430.0
 30
0.0
  0
POINT
  5
2D
  8
DEFPOINTS
  6
BYBLOCK
 62
     0
 10
3600.0
 20
88552.0
 30
0.0
  0
POINT
  5
2E
  8
DEFPOINTS
  6
BYBLOCK
 62
     0
 10
3600.0
 20
88321.707486
 30
0.0
  0
ENDBLK
  5
30
  8
0
  0
BLOCK
  8
0
  2
*D15
 70
     1
 10
0.0
 20
0.0
 30
0.0
  3
*D15
  1

  0
LINE
  5
73
  8
0
  6
BYBLOCK
 62
     9
 10
3573.5
 20
89010.0
 30
0.0
 11
3573.5
 21
88943.900122
 31
0.0
  0
LINE
  5
74
  8
0
  6
BYBLOCK
 62
     9
 10
3726.5
 20
89010.0
 30
0.0
 11
3726.5
 21
88943.900122
 31
0.0
  0
LINE
  5
75
  8
0
  6
BYBLOCK
 62
     9
 10
3593.5
 20
88944.900122
 30
0.0
 11
3602.166667
 21
88944.900122
 31
0.0
  0
LINE
  5
76
  8
0
  6
BYBLOCK
 62
     9
 10
3706.5
 20
88944.900122
 30
0.0
 11
3697.833333
 21
88944.900122
 31
0.0
  0
TEXT
  5
77
  8
0
  6
BYBLOCK
 62
    11
 10
3609.166667
 20
88927.400122
 30
0.0
 40
35.0
  1
153
  0
SOLID
  5
78
  8
0
  6
BYBLOCK
 62
     9
 10
3593.5
 20
88948.233456
 30
0.0
 11
3593.5
 21
88941.566789
 31
0.0
 12
3573.5
 22
88944.900122
 32
0.0
 13
3573.5
 23
88944.900122
 33
0.0
  0
SOLID
  5
79
  8
0
  6
BYBLOCK
 62
     9
 10
3706.5
 20
88948.233456
 30
0.0
 11
3706.5
 21
88941.566789
 31
0.0
 12
3726.5
 22
88944.900122
 32
0.0
 13
3726.5
 23
88944.900122
 33
0.0
  0
POINT
  5
7A
  8
DEFPOINTS
  6
BYBLOCK
 62
     0
 10
3573.5
 20
89020.0
 30
0.0
  0
POINT
  5
7B
  8
DEFPOINTS
  6
BYBLOCK
 62
     0
 10
3726.5
 20
89020.0
 30
0.0
  0
POINT
  5
7C
  8
DEFPOINTS
  6
BYBLOCK
 62
     0
 10
3726.5
 20
88944.900122
 30
0.0
  0
ENDBLK
  5
7E
  8
0
  0
BLOCK
  8
0
  2
*D16
 70
     1
 10
0.0
 20
0.0
 30
0.0
  3
*D16
  1

  0
LINE
  5
AB
  8
0
  6
BYBLOCK
 62
     9
 10
4273.5
 20
89010.0
 30
0.0
 11
4273.5
 21
88943.900122
 31
0.0
  0
LINE
  5
AC
  8
0
  6
BYBLOCK
 62
     9
 10
4426.5
 20
89010.0
 30
0.0
 11
4426.5
 21
88943.900122
 31
0.0
  0
LINE
  5
AD
  8
0
  6
BYBLOCK
 62
     9
 10
4293.5
 20
88944.900122
 30
0.0
 11
4302.166667
 21
88944.900122
 31
0.0
  0
LINE
  5
AE
  8
0
  6
BYBLOCK
 62
     9
 10
4406.5
 20
88944.900122
 30
0.0
 11
4397.833333
 21
88944.900122
 31
0.0
  0
TEXT
  5
AF
  8
0
  6
BYBLOCK
 62
    11
 10
4309.166667
 20
88927.400122
 30
0.0
 40
35.0
  1
153
  0
SOLID
  5
B0
  8
0
  6
BYBLOCK
 62
     9
 10
4293.5
 20
88948.233456
 30
0.0
 11
4293.5
 21
88941.566789
 31
0.0
 12
4273.5
 22
88944.900122
 32
0.0
 13
4273.5
 23
88944.900122
 33
0.0
  0
SOLID
  5
B1
  8
0
  6
BYBLOCK
 62
     9
 10
4406.5
 20
88948.233456
 30
0.0
 11
4406.5
 21
88941.566789
 31
0.0
 12
4426.5
 22
88944.900122
 32
0.0
 13
4426.5
 23
88944.900122
 33
0.0
  0
POINT
  5
B2
  8
DEFPOINTS
  6
BYBLOCK
 62
     0
 10
4273.5
 20
89020.0
 30
0.0
  0
POINT
  5
B3
  8
DEFPOINTS
  6
BYBLOCK
 62
     0
 10
4426.5
 20
89020.0
 30
0.0
  0
POINT
  5
B4
  8
DEFPOINTS
  6
BYBLOCK
 62
     0
 10
4426.5
 20
88944.900122
 30
0.0
  0
ENDBLK
  5
B6
  8
0
  0
BLOCK
  8
0
  2
*D17
 70
     1
 10
0.0
 20
0.0
 30
0.0
  3
*D17
  1

  0
LINE
  5
9C
  8
0
  6
BYBLOCK
 62
     9
 10
4710.0
 20
88842.003237
 30
0.0
 11
4753.198744
 21
88842.003237
 31
0.0
  0
LINE
  5
9D
  8
0
  6
BYBLOCK
 62
     9
 10
4707.534952
 20
88800.0
 30
0.0
 11
4753.198744
 21
88800.0
 31
0.0
  0
LINE
  5
9E
  8
0
  6
BYBLOCK
 62
     9
 10
4752.198744
 20
88862.003237
 30
0.0
 11
4752.198744
 21
88882.003237
 31
0.0
  0
LINE
  5
9F
  8
0
  6
BYBLOCK
 62
     9
 10
4752.198744
 20
88780.0
 30
0.0
 11
4752.198744
 21
88760.0
 31
0.0
  0
TEXT
  5
A0
  8
0
  6
BYBLOCK
 62
    11
 10
4769.698744
 20
88891.042887
 30
0.0
 40
35.0
  1
42
 50
90.0
  0
LINE
  5
A1
  8
0
  6
BYBLOCK
 62
     9
 10
4752.198744
 20
88842.003237
 30
0.0
 11
4752.198744
 21
88800.0
 31
0.0
  0
SOLID
  5
A2
  8
0
  6
BYBLOCK
 62
     9
 10
4748.865411
 20
88862.003237
 30
0.0
 11
4755.532077
 21
88862.003237
 31
0.0
 12
4752.198744
 22
88842.003237
 32
0.0
 13
4752.198744
 23
88842.003237
 33
0.0
  0
SOLID
  5
A3
  8
0
  6
BYBLOCK
 62
     9
 10
4748.865411
 20
88780.0
 30
0.0
 11
4755.532077
 21
88780.0
 31
0.0
 12
4752.198744
 22
88800.0
 32
0.0
 13
4752.198744
 23
88800.0
 33
0.0
  0
POINT
  5
A4
  8
DEFPOINTS
  6
BYBLOCK
 62
     0
 10
4700.0
 20
88842.003237
 30
0.0
  0
POINT
  5
A5
  8
DEFPOINTS
  6
BYBLOCK
 62
     0
 10
4697.534952
 20
88800.0
 30
0.0
  0
POINT
  5
A6
  8
DEFPOINTS
  6
BYBLOCK
 62
     0
 10
4752.198744
 20
88800.0
 30
0.0
  0
ENDBLK
  5
A8
  8
0
  0
ENDSEC
  0
SECTION
  2
ENTITIES
  0
CIRCLE
  5
20
  8
TEAM-INSP
 10
0.0
 20
0.0
 30
0.0
 40
10.0
  0
DIMENSION
  5
22
  8
TEAM-MAS
  2
*D14
 10
-400.0
 20
321.707486
 30
0.0
 11
-200.0
 21
321.707486
 31
0.0
 12
-4000.0
 22
-88000.0
 32
0.0
 13
0.0
 23
430.0
 33
0.0
 14
-400.0
 24
552.0
 34
0.0
1001
ACAD
1000
DSTYLE
1002
{
1070
    40
1040
1.0
1002
}
  0
DIMENSION
  5
31
  8
TEAM-MAS
  2
*D13
 10
0.0
 20
882.444865
 30
0.0
 11
-280.0
 21
882.444865
 31
0.0
 12
-4000.0
 22
-88000.0
 32
0.0
 13
-560.0
 23
756.0
 33
0.0
 14
0.0
 24
826.576435
 34
0.0
1001
ACAD
1000
DSTYLE
1002
{
1070
    40
1040
1.0
1002
}
  0
DIMENSION
  5
3F
  8
TEAM-MAS
  2
*D5
 10
100.0
 20
258.30533
 30
0.0
 11
0.0
 21
258.30533
 31
0.0
 12
-4000.0
 22
-88000.0
 32
0.0
 13
-100.0
 23
555.0
 33
0.0
 14
100.0
 24
555.0
 34
0.0
  0
DIMENSION
  5
4D
  8
TEAM-MAS
  2
*D1
 10
350.0
 20
982.512961
 30
0.0
 11
0.0
 21
982.512961
 31
0.0
 12
-4000.0
 22
-88000.0
 32
0.0
 13
-350.0
 23
1040.0
 33
0.0
 14
350.0
 24
1040.0
 34
0.0
  0
DIMENSION
  5
5B
  8
TEAM-MAS
  2
*D0
 10
700.0
 20
1046.184085
 30
0.0
 11
0.0
 21
1046.184085
 31
0.0
 12
-4000.0
 22
-88000.0
 32
0.0
 13
-700.0
 23
842.003237
 33
0.0
 14
700.0
 24
842.003237
 34
0.0
  0
LINE
  5
69
  8
TEAM-BODY
 10
700.0
 20
842.003237
 30
0.0
 11
-700.0
 21
842.003237
 31
0.0
  0
TEXT
  5
6B
  8
TEAM-TXT
 10
-113.427831
 20
620.591986
 30
0.0
 40
30.0
  1
team 421042
 41
0.8
 51
15.0
  7
TEAM
  0
LINE
  5
6E
  8
TEAM-BODY
 10
-565.0
 20
592.0
 30
0.0
 11
565.0
 21
592.0
 31
0.0
  0
LINE
  5
6F
  8
TEAM-BODY
 10
700.0
 20
715.822257
 30
0.0
 11
-700.0
 21
715.822257
 31
0.0
  0
LINE
  5
70
  8
TEAM-BODY
 10
700.0
 20
800.0
 30
0.0
 11
-700.0
 21
800.0
 31
0.0
  0
DIMENSION
  5
71
  8
TEAM-MAS
  2
*D15
 10
-273.5
 20
944.900122
 30
0.0
 11
-350.0
 21
944.900122
 31
0.0
 12
-4000.0
 22
-88000.0
 32
0.0
 70
   128
 13
-426.5
 23
1020.0
 33
0.0
 14
-273.5
 24
1020.0
 34
0.0
  0
LINE
  5
7F
  8
TEAM-BODY
 10
-700.0
 20
842.003237
 30
0.0
 11
-700.0
 21
715.822257
 31
0.0
  0
LINE
  5
80
  8
TEAM-WARM
 10
-110.0
 20
592.0
 30
0.0
 11
-110.0
 21
555.0
 31
0.0
  0
LINE
  5
82
  8
TEAM-WARM
 10
-90.0
 20
592.0
 30
0.0
 11
-90.0
 21
555.0
 31
0.0
  0
LINE
  5
83
  8
TEAM-AXE
 10
-100.0
 20
592.0
 30
0.0
 11
-100.0
 21
555.0
 31
0.0
  0
LINE
  5
86
  8
TEAM-WARM
 10
-110.0
 20
555.0
 30
0.0
 11
-90.0
 21
555.0
 31
0.0
  0
LINE
  5
87
  8
TEAM-AXE
 10
-566.0
 20
750.0
 30
0.0
 11
-554.0
 21
750.0
 31
0.0
  0
LINE
  5
88
  8
TEAM-AXE
 10
-560.0
 20
756.0
 30
0.0
 11
-560.0
 21
744.0
 31
0.0
  0
CIRCLE
  5
89
  8
TEAM-HIDE
 10
-560.0
 20
750.0
 30
0.0
 40
5.0
  0
POLYLINE
  5
8C
  8
TEAM-BODY
 66
     1
 10
0.0
 20
0.0
 30
0.0
  0
VERTEX
  5
1C5
  8
TEAM-BODY
 10
-425.0
 20
592.0
 30
0.0
  0
VERTEX
  5
1C6
  8
TEAM-BODY
 10
-425.0
 20
534.402371
 30
0.0
  0
VERTEX
  5
1C7
  8
TEAM-BODY
 10
-375.0
 20
534.402371
 30
0.0
  0
VERTEX
  5
1C8
  8
TEAM-BODY
 10
-375.0
 20
592.0
 30
0.0
  0
SEQEND
  5
1C9
  8
TEAM-BODY
  0
ARC
  5
8D
  8
TEAM-BODY
 10
-557.52086
 20
700.331813
 30
0.0
 40
108.589683
 50
171.798714
 51
266.050613
  0
CIRCLE
  5
8E
  8
TEAM-HIDE
 10
-400.0
 20
558.0
 30
0.0
 40
5.0
  0
LINE
  5
8F
  8
TEAM-AXE
 10
-400.0
 20
564.0
 30
0.0
 11
-400.0
 21
552.0
 31
0.0
  0
LINE
  5
90
  8
TEAM-AXE
 10
-406.0
 20
558.0
 30
0.0
 11
-394.0
 21
558.0
 31
0.0
  0
LINE
  5
91
  8
TEAM-AXE
 10
-370.0
 20
1020.0
 30
0.0
 11
-330.0
 21
1020.0
 31
0.0
  0
LINE
  5
92
  8
TEAM-AXE
 10
-350.0
 20
1000.0
 30
0.0
 11
-350.0
 21
1040.0
 31
0.0
  0
CIRCLE
  5
93
  8
TEAM-COLD
 10
-273.5
 20
1020.0
 30
0.0
 40
15.0
  0
LINE
  5
95
  8
TEAM-AXE
 10
-293.5
 20
1020.0
 30
0.0
 11
-253.5
 21
1020.0
 31
0.0
  0
LINE
  5
96
  8
TEAM-AXE
 10
-273.5
 20
1000.0
 30
0.0
 11
-273.5
 21
1040.0
 31
0.0
  0
CIRCLE
  5
97
  8
TEAM-WARM
 10
-426.5
 20
1020.0
 30
0.0
 40
15.0
  0
LINE
  5
98
  8
TEAM-AXE
 10
-426.5
 20
1000.0
 30
0.0
 11
-426.5
 21
1040.0
 31
0.0
  0
LINE
  5
99
  8
TEAM-AXE
 10
-446.5
 20
1020.0
 30
0.0
 11
-406.5
 21
1020.0
 31
0.0
  0
DIMENSION
  5
9A
  8
TEAM-MAS
  2
*D17
 10
752.198744
 20
800.0
 30
0.0
 11
752.198744
 21
920.209554
 31
0.0
 12
-4000.0
 22
-88000.0
 32
0.0
 70
   128
 13
700.0
 23
842.003237
 33
0.0
 14
697.534952
 24
800.0
 34
0.0
 50
90.0
1001
ACAD
1000
DSTYLE
1002
{
1070
    40
1040
1.0
1002
}
  0
DIMENSION
  5
A9
  8
TEAM-MAS
  2
*D16
 10
426.5
 20
944.900122
 30
0.0
 11
350.0
 21
944.900122
 31
0.0
 12
-4000.0
 22
-88000.0
 32
0.0
 70
   128
 13
273.5
 23
1020.0
 33
0.0
 14
426.5
 24
1020.0
 34
0.0
  0
DIMENSION
  5
B7
  8
TEAM-MAS
  2
*D12
 10
978.028999
 20
1020.0
 30
0.0
 11
978.028999
 21
550.0
 31
0.0
 12
-4000.0
 22
-88000.0
 32
0.0
 70
   128
  1
950-1200
 13
-9.032239
 23
0.0
 33
0.0
 14
426.5
 24
1020.0
 34
0.0
 50
90.0
  0
DIMENSION
  5
C5
  8
TEAM-MAS
  2
*D11
 10
931.514151
 20
1020.0
 30
0.0
 11
931.514151
 21
550.0
 31
0.0
 12
-4000.0
 22
-88000.0
 32
0.0
 70
   128
 13
-9.032239
 23
0.0
 33
0.0
 14
426.5
 24
1020.0
 34
0.0
 50
90.0
  0
DIMENSION
  5
D3
  8
TEAM-MAS
  2
*D10
 10
797.027244
 20
460.0
 30
0.0
 11
797.027244
 21
645.5
 31
0.0
 12
-4000.0
 22
-88000.0
 32
0.0
 70
   128
 13
670.990976
 23
800.0
 33
0.0
 14
-9.032239
 24
460.0
 34
0.0
 50
90.0
  0
DIMENSION
  5
E1
  8
TEAM-MAS
  2
*D9
 10
797.027244
 20
460.0
 30
0.0
 11
797.027244
 21
230.0
 31
0.0
 12
-4000.0
 22
-88000.0
 32
0.0
  1
300-500
 13
-9.032239
 23
0.0
 33
0.0
 14
-9.032239
 24
460.0
 34
0.0
 50
90.0
  0
DIMENSION
  5
EF
  8
TEAM-MAS
  2
*D8
 10
886.685651
 20
800.0
 30
0.0
 11
886.685651
 21
400.0
 31
0.0
 12
-4000.0
 22
-88000.0
 32
0.0
  1
600-850
 13
-9.032239
 23
0.0
 33
0.0
 14
687.534952
 24
800.0
 34
0.0
 50
90.0
  0
DIMENSION
  5
FD
  8
TEAM-MAS
  2
*D7
 10
841.857152
 20
800.0
 30
0.0
 11
841.857152
 21
400.0
 31
0.0
 12
-4000.0
 22
-88000.0
 32
0.0
 13
-9.032239
 23
0.0
 33
0.0
 14
687.534952
 24
800.0
 34
0.0
 50
90.0
  0
DIMENSION
  5
10B
  8
TEAM-MAS
  2
*D6
 10
400.0
 20
321.707486
 30
0.0
 11
200.0
 21
321.707486
 31
0.0
 12
-4000.0
 22
-88000.0
 32
0.0
 13
0.0
 23
430.0
 33
0.0
 14
400.0
 24
552.0
 34
0.0
1001
ACAD
1000
DSTYLE
1002
{
1070
    40
1040
1.0
1002
}
  0
DIMENSION
  5
119
  8
TEAM-MAS
  2
*D4
 10
0.0
 20
882.444865
 30
0.0
 11
280.0
 21
882.444865
 31
0.0
 12
-4000.0
 22
-88000.0
 32
0.0
 13
560.0
 23
756.0
 33
0.0
 14
0.0
 24
826.576435
 34
0.0
1001
ACAD
1000
DSTYLE
1002
{
1070
    40
1040
1.0
1002
}
  0
DIMENSION
  5
127
  8
TEAM-MAS
  2
*D3
 10
752.198744
 20
592.0
 30
0.0
 11
732.322927
 21
701.5
 31
0.0
 12
-4000.0
 22
-88000.0
 32
0.0
 70
   128
 13
697.534952
 23
800.0
 33
0.0
 14
-9.032239
 24
592.0
 34
0.0
 50
90.0
  0
DIMENSION
  5
135
  8
TEAM-MAS
  2
*D2
 10
752.198744
 20
460.0
 30
0.0
 11
752.198744
 21
230.0
 31
0.0
 12
-4000.0
 22
-88000.0
 32
0.0
 13
-9.032239
 23
0.0
 33
0.0
 14
-9.032239
 24
460.0
 34
0.0
 50
90.0
  0
LINE
  5
143
  8
TEAM-BODY
 10
700.0
 20
842.003237
 30
0.0
 11
700.0
 21
715.822257
 31
0.0
  0
CIRCLE
  5
144
  8
TEAM-HIDE
 10
560.0
 20
750.0
 30
0.0
 40
5.0
  0
LINE
  5
145
  8
TEAM-AXE
 10
560.0
 20
756.0
 30
0.0
 11
560.0
 21
744.0
 31
0.0
  0
LINE
  5
146
  8
TEAM-AXE
 10
566.0
 20
750.0
 30
0.0
 11
554.0
 21
750.0
 31
0.0
  0
POLYLINE
  5
147
  8
TEAM-BODY
 66
     1
 10
0.0
 20
0.0
 30
0.0
  0
VERTEX
  5
1CA
  8
TEAM-BODY
 10
425.0
 20
592.0
 30
0.0
  0
VERTEX
  5
1CB
  8
TEAM-BODY
 10
425.0
 20
534.402371
 30
0.0
  0
VERTEX
  5
1CC
  8
TEAM-BODY
 10
375.0
 20
534.402371
 30
0.0
  0
VERTEX
  5
1CD
  8
TEAM-BODY
 10
375.0
 20
592.0
 30
0.0
  0
SEQEND
  5
1CE
  8
TEAM-BODY
  0
LINE
  5
148
  8
TEAM-COLD
 10
90.0
 20
592.0
 30
0.0
 11
90.0
 21
555.0
 31
0.0
  0
LINE
  5
149
  8
TEAM-COLD
 10
110.0
 20
592.0
 30
0.0
 11
110.0
 21
555.0
 31
0.0
  0
LINE
  5
14A
  8
TEAM-AXE
 10
100.0
 20
592.0
 30
0.0
 11
100.0
 21
555.0
 31
0.0
  0
LINE
  5
14B
  8
TEAM-AXE
 10
406.0
 20
558.0
 30
0.0
 11
394.0
 21
558.0
 31
0.0
  0
LINE
  5
14C
  8
TEAM-AXE
 10
400.0
 20
564.0
 30
0.0
 11
400.0
 21
552.0
 31
0.0
  0
CIRCLE
  5
14D
  8
TEAM-HIDE
 10
400.0
 20
558.0
 30
0.0
 40
5.0
  0
LINE
  5
14E
  8
TEAM-COLD
 10
90.0
 20
555.0
 30
0.0
 11
110.0
 21
555.0
 31
0.0
  0
LINE
  5
14F
  8
TEAM-AXE
 10
330.0
 20
1020.0
 30
0.0
 11
370.0
 21
1020.0
 31
0.0
  0
LINE
  5
150
  8
TEAM-AXE
 10
350.0
 20
1000.0
 30
0.0
 11
350.0
 21
1040.0
 31
0.0
  0
CIRCLE
  5
151
  8
TEAM-COLD
 10
426.5
 20
1020.0
 30
0.0
 40
15.0
  0
LINE
  5
152
  8
TEAM-AXE
 10
406.5
 20
1020.0
 30
0.0
 11
446.5
 21
1020.0
 31
0.0
  0
LINE
  5
153
  8
TEAM-AXE
 10
426.5
 20
1000.0
 30
0.0
 11
426.5
 21
1040.0
 31
0.0
  0
CIRCLE
  5
154
  8
TEAM-WARM
 10
273.5
 20
1020.0
 30
0.0
 40
15.0
  0
LINE
  5
155
  8
TEAM-AXE
 10
253.5
 20
1020.0
 30
0.0
 11
293.5
 21
1020.0
 31
0.0
  0
LINE
  5
156
  8
TEAM-AXE
 10
273.5
 20
1000.0
 30
0.0
 11
273.5
 21
1040.0
 31
0.0
  0
ARC
  5
157
  8
TEAM-BODY
 10
557.52086
 20
700.331813
 30
0.0
 40
108.589683
 50
273.949387
 51
8.201286
  0
LINE
  5
158
  8
TEAM-AXE
 10
0.0
 20
826.576435
 30
0.0
 11
0.0
 21
555.0
 31
0.0
  0
LINE
  5
159
  8
TEAM-BODY
 10
0.0
 20
515.0
 30
0.0
 11
0.0
 21
592.0
 31
0.0
  0
LINE
  5
15A
  8
TEAM-BODY
 10
-21.0
 20
592.0
 30
0.0
 11
-21.0
 21
555.0
 31
0.0
  0
LINE
  5
15B
  8
TEAM-BODY
 10
21.0
 20
592.0
 30
0.0
 11
21.0
 21
555.0
 31
0.0
  0
LINE
  5
15C
  8
TEAM-BODY
 10
-21.0
 20
555.0
 30
0.0
 11
21.0
 21
555.0
 31
0.0
  0
LINE
  5
15D
  8
TEAM-AXE
 10
0.0
 20
430.0
 30
0.0
 11
0.0
 21
490.0
 31
0.0
  0
CIRCLE
  5
15E
  8
TEAM-KAN
 10
0.0
 20
460.0
 30
0.0
 40
20.0
  0
LINE
  5
160
  8
TEAM-AXE
 10
-30.0
 20
460.0
 30
0.0
 11
30.0
 21
460.0
 31
0.0
  0
LINE
  5
161
  8
TEAM-DET1
 10
21.0
 20
515.0
 30
0.0
 11
21.0
 21
365.0
 31
0.0
  0
LINE
  5
163
  8
TEAM-DET1
 10
-21.0
 20
515.0
 30
0.0
 11
21.0
 21
515.0
 31
0.0
  0
LINE
  5
164
  8
TEAM-DET1
 10
-21.0
 20
515.0
 30
0.0
 11
-21.0
 21
365.0
 31
0.0
  0
LINE
  5
165
  8
TEAM-DET1
 10
-21.0
 20
365.0
 30
0.0
 11
21.0
 21
365.0
 31
0.0
  0
ENDSEC
  0
EOF
