  0
SECTION
  2
HEADER
  9
$ACADVER
  1
AC1009
  9
$INSBASE
 10
0.0
 20
0.0
 30
0.0
  9
$EXTMIN
 10
-308.039689
 20
-10.065744
 30
0.0
  9
$EXTMAX
 10
380.007376
 20
1040.007037
 30
0.000005
  9
$LIMMIN
 10
-308.039689
 20
-10.065744
  9
$LIMMAX
 10
380.007376
 20
1040.007037
  9
$ORTHOMODE
 70
     1
  9
$REGENMODE
 70
     1
  9
$FILLMODE
 70
     1
  9
$QTEXTMODE
 70
     0
  9
$MIRRTEXT
 70
     0
  9
$DRAGMODE
 70
     2
  9
$LTSCALE
 40
50.0
  9
$OSMODE
 70
     0
  9
$ATTMODE
 70
     1
  9
$TEXTSIZE
 40
200.0
  9
$TRACEWID
 40
1.0
  9
$TEXTSTYLE
  7
STANDARD
  9
$CLAYER
  8
TEAM-MAS
  9
$CELTYPE
  6
BYLAYER
  9
$CECOLOR
 62
   256
  9
$DIMSCALE
 40
0.0
  9
$DIMASZ
 40
20.0
  9
$DIMEXO
 40
10.0
  9
$DIMDLI
 40
1.0
  9
$DIMRND
 40
0.0
  9
$DIMDLE
 40
0.0
  9
$DIMEXE
 40
1.0
  9
$DIMTP
 40
0.0
  9
$DIMTM
 40
0.0
  9
$DIMTXT
 40
35.0
  9
$DIMCEN
 40
1.0
  9
$DIMTSZ
 40
0.0
  9
$DIMTOL
 70
     0
  9
$DIMLIM
 70
     0
  9
$DIMTIH
 70
     0
  9
$DIMTOH
 70
     0
  9
$DIMSE1
 70
     0
  9
$DIMSE2
 70
     0
  9
$DIMTAD
 70
     0
  9
$DIMZIN
 70
     0
  9
$DIMBLK
  1

  9
$DIMASO
 70
     1
  9
$DIMSHO
 70
     0
  9
$DIMPOST
  1

  9
$DIMAPOST
  1

  9
$DIMALT
 70
     0
  9
$DIMALTD
 70
     2
  9
$DIMALTF
 40
25.4
  9
$DIMLFAC
 40
1.0
  9
$DIMTOFL
 70
     0
  9
$DIMTVP
 40
0.0
  9
$DIMTIX
 70
     0
  9
$DIMSOXD
 70
     0
  9
$DIMSAH
 70
     0
  9
$DIMBLK1
  1

  9
$DIMBLK2
  1

  9
$DIMSTYLE
  2
TEAM
  9
$DIMCLRD
 70
     9
  9
$DIMCLRE
 70
     9
  9
$DIMCLRT
 70
    11
  9
$DIMTFAC
 40
1.0
  9
$DIMGAP
 40
7.0
  9
$LUNITS
 70
     2
  9
$LUPREC
 70
     1
  9
$SKETCHINC
 40
1.0
  9
$FILLETRAD
 40
50.0
  9
$AUNITS
 70
     0
  9
$AUPREC
 70
     0
  9
$MENU
  1
ROPLANS
  9
$ELEVATION
 40
0.0
  9
$PELEVATION
 40
0.0
  9
$THICKNESS
 40
0.0
  9
$LIMCHECK
 70
     0
  9
$BLIPMODE
 70
     1
  9
$CHAMFERA
 40
0.0
  9
$CHAMFERB
 40
0.0
  9
$SKPOLY
 70
     0
  9
$TDCREATE
 40
2450392.957851
  9
$TDUPDATE
 40
2456272.033233
  9
$TDINDWG
 40
2.315654
  9
$TDUSRTIMER
 40
2.315654
  9
$USRTIMER
 70
     1
  9
$ANGBASE
 50
0.0
  9
$ANGDIR
 70
     0
  9
$PDMODE
 70
     0
  9
$PDSIZE
 40
0.0
  9
$PLINEWID
 40
0.0
  9
$COORDS
 70
     2
  9
$SPLFRAME
 70
     0
  9
$SPLINETYPE
 70
     6
  9
$SPLINESEGS
 70
     8
  9
$ATTDIA
 70
     0
  9
$ATTREQ
 70
     0
  9
$HANDLING
 70
     1
  9
$HANDSEED
  5
126
  9
$SURFTAB1
 70
    24
  9
$SURFTAB2
 70
    24
  9
$SURFTYPE
 70
     6
  9
$SURFU
 70
     6
  9
$SURFV
 70
     6
  9
$UCSNAME
  2

  9
$UCSORG
 10
0.0
 20
0.0
 30
0.0
  9
$UCSXDIR
 10
1.0
 20
0.0
 30
0.0
  9
$UCSYDIR
 10
0.0
 20
1.0
 30
0.0
  9
$PUCSNAME
  2

  9
$PUCSORG
 10
0.0
 20
0.0
 30
0.0
  9
$PUCSXDIR
 10
1.0
 20
0.0
 30
0.0
  9
$PUCSYDIR
 10
0.0
 20
1.0
 30
0.0
  9
$USERI1
 70
     0
  9
$USERI2
 70
     0
  9
$USERI3
 70
     0
  9
$USERI4
 70
     0
  9
$USERI5
 70
     0
  9
$USERR1
 40
0.0
  9
$USERR2
 40
0.0
  9
$USERR3
 40
0.0
  9
$USERR4
 40
0.0
  9
$USERR5
 40
0.0
  9
$WORLDVIEW
 70
     1
  9
$SHADEDGE
 70
     0
  9
$SHADEDIF
 70
    70
  9
$TILEMODE
 70
     1
  9
$MAXACTVP
 70
    16
  9
$PLIMCHECK
 70
     0
  9
$PEXTMIN
 10
-0.805942
 20
0.005011
 30
0.0
  9
$PEXTMAX
 10
20.250094
 20
11.356329
 30
0.0
  9
$PLIMMIN
 10
0.0
 20
0.0
  9
$PLIMMAX
 10
12.0
 20
9.0
  9
$UNITMODE
 70
     0
  9
$VISRETAIN
 70
     0
  9
$PLINEGEN
 70
     0
  9
$PSLTSCALE
 70
     0
  0
ENDSEC
  0
SECTION
  2
TABLES
  0
TABLE
  2
VPORT
 70
     2
  0
VPORT
  2
*ACTIVE
 70
     0
 10
0.0
 20
0.0
 11
1.0
 21
1.0
 12
35.983843
 22
514.970646
 13
0.0
 23
0.0
 14
1.0
 24
1.0
 15
50.0
 25
50.0
 16
0.0
 26
0.0
 36
1.0
 17
0.0
 27
0.0
 37
0.0
 40
1056.683942
 41
1.911765
 42
50.0
 43
0.0
 44
0.0
 50
0.0
 51
0.0
 71
     0
 72
   100
 73
     1
 74
     1
 75
     0
 76
     0
 77
     0
 78
     0
  0
ENDTAB
  0
TABLE
  2
LTYPE
 70
     3
  0
LTYPE
  2
CONTINUOUS
 70
     0
  3
Solid Line
 72
    65
 73
     0
 40
0.0
  0
LTYPE
  2
31
 70
     0
  3

 72
    65
 73
     4
 40
2.1
 49
1.5
 49
-0.3
 49
0.0
 49
-0.3
  0
LTYPE
  2
22
 70
     0
  3

 72
    65
 73
     2
 40
1.4
 49
1.2
 49
-0.2
  0
ENDTAB
  0
TABLE
  2
LAYER
 70
    11
  0
LAYER
  2
0
 70
     0
 62
     7
  6
CONTINUOUS
  0
LAYER
  2
DEFPOINTS
 70
     0
 62
     7
  6
CONTINUOUS
  0
LAYER
  2
TEAM-BODY
 70
     0
 62
     2
  6
CONTINUOUS
  0
LAYER
  2
TEAM-AXE
 70
     0
 62
    10
  6
31
  0
LAYER
  2
TEAM-MAS
 70
     0
 62
     9
  6
CONTINUOUS
  0
LAYER
  2
TEAM-TXT
 70
     0
 62
    11
  6
CONTINUOUS
  0
LAYER
  2
TEAM-COLD
 70
     0
 62
     3
  6
CONTINUOUS
  0
LAYER
  2
TEAM-HIDE
 70
     0
 62
     8
  6
22
  0
LAYER
  2
TEAM-KAN
 70
     0
 62
     6
  6
CONTINUOUS
  0
LAYER
  2
TEAM-WARM
 70
     0
 62
     1
  6
CONTINUOUS
  0
LAYER
  2
TEAM-INSP
 70
     0
 62
     5
  6
CONTINUOUS
  0
ENDTAB
  0
TABLE
  2
STYLE
 70
     2
  0
STYLE
  2
STANDARD
 70
     0
 40
0.0
 41
1.0
 50
0.0
 71
     0
 42
200.0
  3
txt
  4

  0
STYLE
  2
TEAM
 70
     0
 40
0.0
 41
0.8
 50
15.0
 71
     0
 42
7.0
  3
ROMANS.shx
  4

  0
ENDTAB
  0
TABLE
  2
VIEW
 70
     0
  0
ENDTAB
  0
TABLE
  2
UCS
 70
     0
  0
ENDTAB
  0
TABLE
  2
APPID
 70
     1
  0
APPID
  2
ACAD
 70
     0
  0
ENDTAB
  0
TABLE
  2
DIMSTYLE
 70
     1
  0
DIMSTYLE
  2
TEAM
 70
     0
  3

  4

  5

  6

  7

 40
0.0
 41
20.0
 42
10.0
 43
1.0
 44
1.0
 45
0.0
 46
0.0
 47
0.0
 48
0.0
140
35.0
141
1.0
142
0.0
143
25.4
144
1.0
145
0.0
146
1.0
147
7.0
 71
     0
 72
     0
 73
     0
 74
     0
 75
     0
 76
     0
 77
     0
 78
     0
170
     0
171
     2
172
     0
173
     0
174
     0
175
     0
176
     9
177
     9
178
    11
  0
ENDTAB
  0
ENDSEC
  0
SECTION
  2
BLOCKS
  0
BLOCK
  8
0
  2
$MODEL_SPACE
 70
     0
 10
0.0
 20
0.0
 30
0.0
  3
$MODEL_SPACE
  1

  0
ENDBLK
  5
11F
  8
0
  0
BLOCK
 67
     1
  8
0
  2
$PAPER_SPACE
 70
     0
 10
0.0
 20
0.0
 30
0.0
  3
$PAPER_SPACE
  1

  0
ENDBLK
  5
11D
 67
     1
  8
0
  0
BLOCK
  8
0
  2
*D0
 70
     1
 10
0.0
 20
0.0
 30
0.0
  3
*D0
  1

  0
LINE
  5
AF
  8
0
  6
BYBLOCK
 62
     9
 10
-10.0
 20
92000.0
 30
0.0
 11
-291.531688
 21
92000.0
 31
0.0
  0
LINE
  5
B0
  8
0
  6
BYBLOCK
 62
     9
 10
-2.420683
 20
93020.0
 30
0.0
 11
-291.531688
 21
93020.0
 31
0.0
  0
LINE
  5
B1
  8
0
  6
BYBLOCK
 62
     9
 10
-290.531688
 20
92020.0
 30
0.0
 11
-290.531688
 21
92523.416667
 31
0.0
  0
LINE
  5
B2
  8
0
  6
BYBLOCK
 62
     9
 10
-290.531688
 20
93000.0
 30
0.0
 11
-290.531688
 21
92776.583333
 31
0.0
  0
TEXT
  5
B3
  8
0
  6
BYBLOCK
 62
    11
 10
-273.031688
 20
92530.416667
 30
0.0
 40
35.0
  1
950-1200
 50
90.0
  0
SOLID
  5
B4
  8
0
  6
BYBLOCK
 62
     9
 10
-293.865021
 20
92020.0
 30
0.0
 11
-287.198355
 21
92020.0
 31
0.0
 12
-290.531688
 22
92000.0
 32
0.0
 13
-290.531688
 23
92000.0
 33
0.0
  0
SOLID
  5
B5
  8
0
  6
BYBLOCK
 62
     9
 10
-293.865021
 20
93000.0
 30
0.0
 11
-287.198355
 21
93000.0
 31
0.0
 12
-290.531688
 22
93020.0
 32
0.0
 13
-290.531688
 23
93020.0
 33
0.0
  0
POINT
  5
B6
  8
DEFPOINTS
  6
BYBLOCK
 62
     0
 10
0.0
 20
92000.0
 30
0.0
  0
POINT
  5
B7
  8
DEFPOINTS
  6
BYBLOCK
 62
     0
 10
7.579317
 20
93020.0
 30
0.0
  0
POINT
  5
B8
  8
DEFPOINTS
  6
BYBLOCK
 62
     0
 10
-290.531688
 20
93020.0
 30
0.0
  0
ENDBLK
  5
BA
  8
0
  0
BLOCK
  8
0
  2
*D1
 70
     1
 10
0.0
 20
0.0
 30
0.0
  3
*D1
  1

  0
LINE
  5
A1
  8
0
  6
BYBLOCK
 62
     9
 10
-10.0
 20
92000.0
 30
0.0
 11
-245.400037
 21
92000.0
 31
0.0
  0
LINE
  5
A2
  8
0
  6
BYBLOCK
 62
     9
 10
-10.0
 20
93020.0
 30
0.0
 11
-245.400037
 21
93020.0
 31
0.0
  0
LINE
  5
A3
  8
0
  6
BYBLOCK
 62
     9
 10
-244.400037
 20
92020.0
 30
0.0
 11
-244.400037
 21
92590.5
 31
0.0
  0
LINE
  5
A4
  8
0
  6
BYBLOCK
 62
     9
 10
-244.400037
 20
93000.0
 30
0.0
 11
-244.400037
 21
92709.5
 31
0.0
  0
TEXT
  5
A5
  8
0
  6
BYBLOCK
 62
    11
 10
-226.900037
 20
92597.5
 30
0.0
 40
35.0
  1
1020
 50
90.0
  0
SOLID
  5
A6
  8
0
  6
BYBLOCK
 62
     9
 10
-247.73337
 20
92020.0
 30
0.0
 11
-241.066704
 21
92020.0
 31
0.0
 12
-244.400037
 22
92000.0
 32
0.0
 13
-244.400037
 23
92000.0
 33
0.0
  0
SOLID
  5
A7
  8
0
  6
BYBLOCK
 62
     9
 10
-247.73337
 20
93000.0
 30
0.0
 11
-241.066704
 21
93000.0
 31
0.0
 12
-244.400037
 22
93020.0
 32
0.0
 13
-244.400037
 23
93020.0
 33
0.0
  0
POINT
  5
A8
  8
DEFPOINTS
  6
BYBLOCK
 62
     0
 10
0.0
 20
92000.0
 30
0.0
  0
POINT
  5
A9
  8
DEFPOINTS
  6
BYBLOCK
 62
     0
 10
0.0
 20
93020.0
 30
0.0
  0
POINT
  5
AA
  8
DEFPOINTS
  6
BYBLOCK
 62
     0
 10
-244.400037
 20
93020.0
 30
0.0
  0
ENDBLK
  5
AC
  8
0
  0
BLOCK
  8
0
  2
*D2
 70
     1
 10
0.0
 20
0.0
 30
0.0
  3
*D2
  1

  0
LINE
  5
93
  8
0
  6
BYBLOCK
 62
     9
 10
-10.0
 20
92000.0
 30
0.0
 11
-153.138144
 21
92000.0
 31
0.0
  0
LINE
  5
94
  8
0
  6
BYBLOCK
 62
     9
 10
-10.0
 20
92800.0
 30
0.0
 11
-153.138144
 21
92800.0
 31
0.0
  0
LINE
  5
95
  8
0
  6
BYBLOCK
 62
     9
 10
-152.138144
 20
92020.0
 30
0.0
 11
-152.138144
 21
92387.166667
 31
0.0
  0
LINE
  5
96
  8
0
  6
BYBLOCK
 62
     9
 10
-152.138144
 20
92780.0
 30
0.0
 11
-152.138144
 21
92482.833333
 31
0.0
  0
TEXT
  5
97
  8
0
  6
BYBLOCK
 62
    11
 10
-134.638144
 20
92394.166667
 30
0.0
 40
35.0
  1
800
 50
90.0
  0
SOLID
  5
98
  8
0
  6
BYBLOCK
 62
     9
 10
-155.471477
 20
92020.0
 30
0.0
 11
-148.804811
 21
92020.0
 31
0.0
 12
-152.138144
 22
92000.0
 32
0.0
 13
-152.138144
 23
92000.0
 33
0.0
  0
SOLID
  5
99
  8
0
  6
BYBLOCK
 62
     9
 10
-155.471477
 20
92780.0
 30
0.0
 11
-148.804811
 21
92780.0
 31
0.0
 12
-152.138144
 22
92800.0
 32
0.0
 13
-152.138144
 23
92800.0
 33
0.0
  0
POINT
  5
9A
  8
DEFPOINTS
  6
BYBLOCK
 62
     0
 10
0.0
 20
92000.0
 30
0.0
  0
POINT
  5
9B
  8
DEFPOINTS
  6
BYBLOCK
 62
     0
 10
0.0
 20
92800.0
 30
0.0
  0
POINT
  5
9C
  8
DEFPOINTS
  6
BYBLOCK
 62
     0
 10
-152.138144
 20
92800.0
 30
0.0
  0
ENDBLK
  5
9E
  8
0
  0
BLOCK
  8
0
  2
*D3
 70
     1
 10
0.0
 20
0.0
 30
0.0
  3
*D3
  1

  0
LINE
  5
85
  8
0
  6
BYBLOCK
 62
     9
 10
-10.0
 20
92000.0
 30
0.0
 11
-199.268386
 21
92000.0
 31
0.0
  0
LINE
  5
86
  8
0
  6
BYBLOCK
 62
     9
 10
-10.0
 20
92800.0
 30
0.0
 11
-199.268386
 21
92800.0
 31
0.0
  0
LINE
  5
87
  8
0
  6
BYBLOCK
 62
     9
 10
-198.268386
 20
92020.0
 30
0.0
 11
-198.268386
 21
92320.083333
 31
0.0
  0
LINE
  5
88
  8
0
  6
BYBLOCK
 62
     9
 10
-198.268386
 20
92780.0
 30
0.0
 11
-198.268386
 21
92549.916667
 31
0.0
  0
TEXT
  5
89
  8
0
  6
BYBLOCK
 62
    11
 10
-180.768386
 20
92327.083333
 30
0.0
 40
35.0
  1
600-850
 50
90.0
  0
SOLID
  5
8A
  8
0
  6
BYBLOCK
 62
     9
 10
-201.601719
 20
92020.0
 30
0.0
 11
-194.935053
 21
92020.0
 31
0.0
 12
-198.268386
 22
92000.0
 32
0.0
 13
-198.268386
 23
92000.0
 33
0.0
  0
SOLID
  5
8B
  8
0
  6
BYBLOCK
 62
     9
 10
-201.601719
 20
92780.0
 30
0.0
 11
-194.935053
 21
92780.0
 31
0.0
 12
-198.268386
 22
92800.0
 32
0.0
 13
-198.268386
 23
92800.0
 33
0.0
  0
POINT
  5
8C
  8
DEFPOINTS
  6
BYBLOCK
 62
     0
 10
0.0
 20
92000.0
 30
0.0
  0
POINT
  5
8D
  8
DEFPOINTS
  6
BYBLOCK
 62
     0
 10
0.0
 20
92800.0
 30
0.0
  0
POINT
  5
8E
  8
DEFPOINTS
  6
BYBLOCK
 62
     0
 10
-198.268386
 20
92800.0
 30
0.0
  0
ENDBLK
  5
90
  8
0
  0
BLOCK
  8
0
  2
*D4
 70
     1
 10
0.0
 20
0.0
 30
0.0
  3
*D4
  1

  0
LINE
  5
77
  8
0
  6
BYBLOCK
 62
     9
 10
-10.0
 20
92000.0
 30
0.0
 11
-104.696041
 21
92000.0
 31
0.0
  0
LINE
  5
78
  8
0
  6
BYBLOCK
 62
     9
 10
-40.0
 20
92435.0
 30
0.0
 11
-104.696041
 21
92435.0
 31
0.0
  0
LINE
  5
79
  8
0
  6
BYBLOCK
 62
     9
 10
-103.696041
 20
92020.0
 30
0.0
 11
-103.696041
 21
92105.5
 31
0.0
  0
LINE
  5
7A
  8
0
  6
BYBLOCK
 62
     9
 10
-103.696041
 20
92415.0
 30
0.0
 11
-103.696041
 21
92329.5
 31
0.0
  0
SOLID
  5
7B
  8
0
  6
BYBLOCK
 62
     9
 10
-107.029374
 20
92020.0
 30
0.0
 11
-100.362707
 21
92020.0
 31
0.0
 12
-103.696041
 22
92000.0
 32
0.0
 13
-103.696041
 23
92000.0
 33
0.0
  0
SOLID
  5
7C
  8
0
  6
BYBLOCK
 62
     9
 10
-107.029374
 20
92415.0
 30
0.0
 11
-100.362707
 21
92415.0
 31
0.0
 12
-103.696041
 22
92435.0
 32
0.0
 13
-103.696041
 23
92435.0
 33
0.0
  0
TEXT
  5
7D
  8
0
  6
BYBLOCK
 62
    11
 10
-86.196041
 20
92112.5
 30
0.0
 40
35.0
  1
300-500
 50
90.0
  0
POINT
  5
7E
  8
DEFPOINTS
  6
BYBLOCK
 62
     0
 10
0.0
 20
92000.0
 30
0.0
  0
POINT
  5
7F
  8
DEFPOINTS
  6
BYBLOCK
 62
     0
 10
-30.0
 20
92435.0
 30
0.0
  0
POINT
  5
80
  8
DEFPOINTS
  6
BYBLOCK
 62
     0
 10
-103.696041
 20
92435.0
 30
0.0
  0
ENDBLK
  5
82
  8
0
  0
BLOCK
  8
0
  2
*D5
 70
     1
 10
0.0
 20
0.0
 30
0.0
  3
*D5
  1

  0
LINE
  5
69
  8
0
  6
BYBLOCK
 62
     9
 10
-10.0
 20
92000.0
 30
0.0
 11
-58.565799
 21
92000.0
 31
0.0
  0
LINE
  5
6A
  8
0
  6
BYBLOCK
 62
     9
 10
-40.0
 20
92435.0
 30
0.0
 11
-58.565799
 21
92435.0
 31
0.0
  0
LINE
  5
6B
  8
0
  6
BYBLOCK
 62
     9
 10
-57.565799
 20
92020.0
 30
0.0
 11
-57.565799
 21
92163.833333
 31
0.0
  0
LINE
  5
6C
  8
0
  6
BYBLOCK
 62
     9
 10
-57.565799
 20
92415.0
 30
0.0
 11
-57.565799
 21
92271.166667
 31
0.0
  0
SOLID
  5
6D
  8
0
  6
BYBLOCK
 62
     9
 10
-60.899132
 20
92020.0
 30
0.0
 11
-54.232465
 21
92020.0
 31
0.0
 12
-57.565799
 22
92000.0
 32
0.0
 13
-57.565799
 23
92000.0
 33
0.0
  0
SOLID
  5
6E
  8
0
  6
BYBLOCK
 62
     9
 10
-60.899132
 20
92415.0
 30
0.0
 11
-54.232465
 21
92415.0
 31
0.0
 12
-57.565799
 22
92435.0
 32
0.0
 13
-57.565799
 23
92435.0
 33
0.0
  0
TEXT
  5
6F
  8
0
  6
BYBLOCK
 62
    11
 10
-40.065799
 20
92170.833333
 30
0.0
 40
35.0
  1
435
 50
90.0
  0
POINT
  5
70
  8
DEFPOINTS
  6
BYBLOCK
 62
     0
 10
0.0
 20
92000.0
 30
0.0
  0
POINT
  5
71
  8
DEFPOINTS
  6
BYBLOCK
 62
     0
 10
-30.0
 20
92435.0
 30
0.0
  0
POINT
  5
72
  8
DEFPOINTS
  6
BYBLOCK
 62
     0
 10
-57.565799
 20
92435.0
 30
0.0
  0
ENDBLK
  5
74
  8
0
  0
BLOCK
  8
0
  2
*D6
 70
     1
 10
0.0
 20
0.0
 30
0.0
  3
*D6
  1

  0
LINE
  5
5C
  8
0
  6
BYBLOCK
 62
     9
 10
0.0
 20
92395.0
 30
0.0
 11
0.0
 21
92261.325887
 31
0.0
  0
LINE
  5
5D
  8
0
  6
BYBLOCK
 62
     9
 10
100.0
 20
92350.980383
 30
0.0
 11
100.0
 21
92261.325887
 31
0.0
  0
LINE
  5
5E
  8
0
  6
BYBLOCK
 62
     9
 10
20.0
 20
92262.325887
 30
0.0
 11
80.0
 21
92262.325887
 31
0.0
  0
TEXT
  5
5F
  8
0
  6
BYBLOCK
 62
    11
 10
15.0
 20
92273.400167
 30
0.0
 40
35.0
  1
100
  0
SOLID
  5
60
  8
0
  6
BYBLOCK
 62
     9
 10
20.0
 20
92265.65922
 30
0.0
 11
20.0
 21
92258.992553
 31
0.0
 12
0.0
 22
92262.325887
 32
0.0
 13
0.0
 23
92262.325887
 33
0.0
  0
SOLID
  5
61
  8
0
  6
BYBLOCK
 62
     9
 10
80.0
 20
92265.65922
 30
0.0
 11
80.0
 21
92258.992553
 31
0.0
 12
100.0
 22
92262.325887
 32
0.0
 13
100.0
 23
92262.325887
 33
0.0
  0
POINT
  5
62
  8
DEFPOINTS
  6
BYBLOCK
 62
     0
 10
0.0
 20
92405.0
 30
0.0
  0
POINT
  5
63
  8
DEFPOINTS
  6
BYBLOCK
 62
     0
 10
100.0
 20
92360.980383
 30
0.0
  0
POINT
  5
64
  8
DEFPOINTS
  6
BYBLOCK
 62
     0
 10
100.0
 20
92262.325887
 30
0.0
  0
ENDBLK
  5
66
  8
0
  0
BLOCK
  8
0
  2
*D7
 70
     1
 10
0.0
 20
0.0
 30
0.0
  3
*D7
  1

  0
LINE
  5
4E
  8
0
  6
BYBLOCK
 62
     9
 10
-10.0
 20
92800.0
 30
0.0
 11
-104.696041
 21
92800.0
 31
0.0
  0
LINE
  5
4F
  8
0
  6
BYBLOCK
 62
     9
 10
69.0
 20
92592.208558
 30
0.0
 11
-104.696041
 21
92592.208558
 31
0.0
  0
LINE
  5
50
  8
0
  6
BYBLOCK
 62
     9
 10
-103.696041
 20
92780.0
 30
0.0
 11
-103.696041
 21
92746.854279
 31
0.0
  0
LINE
  5
51
  8
0
  6
BYBLOCK
 62
     9
 10
-103.696041
 20
92612.208558
 30
0.0
 11
-103.696041
 21
92645.354279
 31
0.0
  0
SOLID
  5
52
  8
0
  6
BYBLOCK
 62
     9
 10
-107.029374
 20
92780.0
 30
0.0
 11
-100.362707
 21
92780.0
 31
0.0
 12
-103.696041
 22
92800.0
 32
0.0
 13
-103.696041
 23
92800.0
 33
0.0
  0
SOLID
  5
53
  8
0
  6
BYBLOCK
 62
     9
 10
-107.029374
 20
92612.208558
 30
0.0
 11
-100.362707
 21
92612.208558
 31
0.0
 12
-103.696041
 22
92592.208558
 32
0.0
 13
-103.696041
 23
92592.208558
 33
0.0
  0
TEXT
  5
54
  8
0
  6
BYBLOCK
 62
    11
 10
-86.196041
 20
92652.354279
 30
0.0
 40
35.0
  1
208
 50
90.0
  0
POINT
  5
55
  8
DEFPOINTS
  6
BYBLOCK
 62
     0
 10
0.0
 20
92800.0
 30
0.0
  0
POINT
  5
56
  8
DEFPOINTS
  6
BYBLOCK
 62
     0
 10
79.0
 20
92592.208558
 30
0.0
  0
POINT
  5
57
  8
DEFPOINTS
  6
BYBLOCK
 62
     0
 10
-103.696041
 20
92592.208558
 30
0.0
  0
ENDBLK
  5
59
  8
0
  0
BLOCK
  8
0
  2
*D8
 70
     1
 10
0.0
 20
0.0
 30
0.0
  3
*D8
  1

  0
LINE
  5
40
  8
0
  6
BYBLOCK
 62
     9
 10
30.211105
 20
92800.0
 30
0.0
 11
-44.484936
 21
92800.0
 31
0.0
  0
LINE
  5
41
  8
0
  6
BYBLOCK
 62
     9
 10
-10.0
 20
92720.0
 30
0.0
 11
-44.484936
 21
92720.0
 31
0.0
  0
LINE
  5
42
  8
0
  6
BYBLOCK
 62
     9
 10
-43.484936
 20
92780.0
 30
0.0
 11
-43.484936
 21
92773.0
 31
0.0
  0
LINE
  5
43
  8
0
  6
BYBLOCK
 62
     9
 10
-43.484936
 20
92740.0
 30
0.0
 11
-43.484936
 21
92747.0
 31
0.0
  0
TEXT
  5
44
  8
0
  6
BYBLOCK
 62
    11
 10
-49.026276
 20
92732.75
 30
0.0
 40
35.0
  1
80
 50
90.0
  0
SOLID
  5
45
  8
0
  6
BYBLOCK
 62
     9
 10
-46.818269
 20
92780.0
 30
0.0
 11
-40.151602
 21
92780.0
 31
0.0
 12
-43.484936
 22
92800.0
 32
0.0
 13
-43.484936
 23
92800.0
 33
0.0
  0
SOLID
  5
46
  8
0
  6
BYBLOCK
 62
     9
 10
-46.818269
 20
92740.0
 30
0.0
 11
-40.151602
 21
92740.0
 31
0.0
 12
-43.484936
 22
92720.0
 32
0.0
 13
-43.484936
 23
92720.0
 33
0.0
  0
POINT
  5
47
  8
DEFPOINTS
  6
BYBLOCK
 62
     0
 10
40.211105
 20
92800.0
 30
0.0
  0
POINT
  5
48
  8
DEFPOINTS
  6
BYBLOCK
 62
     0
 10
0.0
 20
92720.0
 30
0.0
  0
POINT
  5
49
  8
DEFPOINTS
  6
BYBLOCK
 62
     0
 10
-43.484936
 20
92720.0
 30
0.0
  0
ENDBLK
  5
4B
  8
0
  0
BLOCK
  8
0
  2
*D9
 70
     1
 10
0.0
 20
0.0
 30
0.0
  3
*D9
  1

  0
LINE
  5
31
  8
0
  6
BYBLOCK
 62
     9
 10
-10.0
 20
92842.0
 30
0.0
 11
-44.484936
 21
92842.0
 31
0.0
  0
LINE
  5
32
  8
0
  6
BYBLOCK
 62
     9
 10
-10.0
 20
92800.0
 30
0.0
 11
-44.484936
 21
92800.0
 31
0.0
  0
LINE
  5
33
  8
0
  6
BYBLOCK
 62
     9
 10
-43.484936
 20
92862.0
 30
0.0
 11
-43.484936
 21
92882.0
 31
0.0
  0
LINE
  5
34
  8
0
  6
BYBLOCK
 62
     9
 10
-43.484936
 20
92780.0
 30
0.0
 11
-43.484936
 21
92760.0
 31
0.0
  0
TEXT
  5
35
  8
0
  6
BYBLOCK
 62
    11
 10
-25.984936
 20
92892.256252
 30
0.0
 40
35.0
  1
42
 50
90.0
  0
LINE
  5
36
  8
0
  6
BYBLOCK
 62
     9
 10
-43.484936
 20
92842.0
 30
0.0
 11
-43.484936
 21
92800.0
 31
0.0
  0
SOLID
  5
37
  8
0
  6
BYBLOCK
 62
     9
 10
-46.818269
 20
92862.0
 30
0.0
 11
-40.151602
 21
92862.0
 31
0.0
 12
-43.484936
 22
92842.0
 32
0.0
 13
-43.484936
 23
92842.0
 33
0.0
  0
SOLID
  5
38
  8
0
  6
BYBLOCK
 62
     9
 10
-46.818269
 20
92780.0
 30
0.0
 11
-40.151602
 21
92780.0
 31
0.0
 12
-43.484936
 22
92800.0
 32
0.0
 13
-43.484936
 23
92800.0
 33
0.0
  0
POINT
  5
39
  8
DEFPOINTS
  6
BYBLOCK
 62
     0
 10
0.0
 20
92842.0
 30
0.0
  0
POINT
  5
3A
  8
DEFPOINTS
  6
BYBLOCK
 62
     0
 10
0.0
 20
92800.0
 30
0.0
  0
POINT
  5
3B
  8
DEFPOINTS
  6
BYBLOCK
 62
     0
 10
-43.484936
 20
92800.0
 30
0.0
  0
ENDBLK
  5
3D
  8
0
  0
BLOCK
  8
0
  2
*D10
 70
     1
 10
0.0
 20
0.0
 30
0.0
  3
*D10
  1

  0
LINE
  5
22
  8
0
  6
BYBLOCK
 62
     9
 10
0.0
 20
92810.0
 30
0.0
 11
0.0
 21
92911.710819
 31
0.0
  0
LINE
  5
23
  8
0
  6
BYBLOCK
 62
     9
 10
380.0
 20
92810.0
 30
0.0
 11
380.0
 21
92911.710819
 31
0.0
  0
LINE
  5
24
  8
0
  6
BYBLOCK
 62
     9
 10
20.0
 20
92910.710819
 30
0.0
 11
139.25
 21
92910.710819
 31
0.0
  0
LINE
  5
25
  8
0
  6
BYBLOCK
 62
     9
 10
360.0
 20
92910.710819
 30
0.0
 11
240.75
 21
92910.710819
 31
0.0
  0
SOLID
  5
26
  8
0
  6
BYBLOCK
 62
     9
 10
20.0
 20
92914.044152
 30
0.0
 11
20.0
 21
92907.377485
 31
0.0
 12
0.0
 22
92910.710819
 32
0.0
 13
0.0
 23
92910.710819
 33
0.0
  0
SOLID
  5
27
  8
0
  6
BYBLOCK
 62
     9
 10
360.0
 20
92914.044152
 30
0.0
 11
360.0
 21
92907.377485
 31
0.0
 12
380.0
 22
92910.710819
 32
0.0
 13
380.0
 23
92910.710819
 33
0.0
  0
TEXT
  5
28
  8
0
  6
BYBLOCK
 62
    11
 10
146.25
 20
92893.210819
 30
0.0
 40
35.0
  1
380
  0
POINT
  5
29
  8
DEFPOINTS
  6
BYBLOCK
 62
     0
 10
0.0
 20
92800.0
 30
0.0
  0
POINT
  5
2B
  8
DEFPOINTS
  6
BYBLOCK
 62
     0
 10
380.0
 20
92800.0
 30
0.0
  0
POINT
  5
2C
  8
DEFPOINTS
  6
BYBLOCK
 62
     0
 10
380.0
 20
92910.710819
 30
0.0
  0
ENDBLK
  5
2E
  8
0
  0
ENDSEC
  0
SECTION
  2
ENTITIES
  0
DIMENSION
  5
20
  8
TEAM-MAS
  2
*D10
 10
380.0
 20
910.710819
 30
0.0
 11
190.0
 21
910.710819
 31
0.0
 12
0.0
 22
-92000.0
 32
0.0
 13
0.0
 23
800.0
 33
0.0
 14
380.0
 24
800.0
 34
0.0
  0
DIMENSION
  5
2F
  8
TEAM-MAS
  2
*D9
 10
-43.484936
 20
800.0
 30
0.0
 11
-43.484936
 21
921.422919
 31
0.0
 12
0.0
 22
-92000.0
 32
0.0
 70
   128
 13
0.0
 23
842.0
 33
0.0
 14
0.0
 24
800.0
 34
0.0
 50
90.0
1001
ACAD
1000
DSTYLE
1002
{
1070
    40
1040
1.0
1002
}
  0
DIMENSION
  5
3E
  8
TEAM-MAS
  2
*D8
 10
-43.484936
 20
720.0
 30
0.0
 11
-66.526276
 21
759.0
 31
0.0
 12
0.0
 22
-92000.0
 32
0.0
 70
   128
 13
40.211105
 23
800.0
 33
0.0
 14
0.0
 24
720.0
 34
0.0
 50
90.0
  0
DIMENSION
  5
4C
  8
TEAM-MAS
  2
*D7
 10
-103.696041
 20
592.208558
 30
0.0
 11
-103.696041
 21
696.104279
 31
0.0
 12
0.0
 22
-92000.0
 32
0.0
 13
0.0
 23
800.0
 33
0.0
 14
79.0
 24
592.208558
 34
0.0
 50
90.0
  0
DIMENSION
  5
5A
  8
TEAM-MAS
  2
*D6
 10
100.0
 20
262.325887
 30
0.0
 11
50.0
 21
290.900167
 31
0.0
 12
0.0
 22
-92000.0
 32
0.0
 70
   128
 13
0.0
 23
405.0
 33
0.0
 14
100.0
 24
360.980383
 34
0.0
  0
DIMENSION
  5
67
  8
TEAM-MAS
  2
*D5
 10
-57.565799
 20
435.0
 30
0.0
 11
-57.565799
 21
217.5
 31
0.0
 12
0.0
 22
-92000.0
 32
0.0
 13
0.0
 23
0.0
 33
0.0
 14
-30.0
 24
435.0
 34
0.0
 50
90.0
  0
DIMENSION
  5
75
  8
TEAM-MAS
  2
*D4
 10
-103.696041
 20
435.0
 30
0.0
 11
-103.696041
 21
217.5
 31
0.0
 12
0.0
 22
-92000.0
 32
0.0
  1
300-500
 13
0.0
 23
0.0
 33
0.0
 14
-30.0
 24
435.0
 34
0.0
 50
90.0
  0
DIMENSION
  5
83
  8
TEAM-MAS
  2
*D3
 10
-198.268386
 20
800.0
 30
0.0
 11
-198.268386
 21
435.0
 31
0.0
 12
0.0
 22
-92000.0
 32
0.0
 70
   128
  1
600-850
 13
0.0
 23
0.0
 33
0.0
 14
0.0
 24
800.0
 34
0.0
 50
90.0
  0
DIMENSION
  5
91
  8
TEAM-MAS
  2
*D2
 10
-152.138144
 20
800.0
 30
0.0
 11
-152.138144
 21
435.0
 31
0.0
 12
0.0
 22
-92000.0
 32
0.0
 70
   128
 13
0.0
 23
0.0
 33
0.0
 14
0.0
 24
800.0
 34
0.0
 50
90.0
  0
DIMENSION
  5
9F
  8
TEAM-MAS
  2
*D1
 10
-244.400037
 20
1020.0
 30
0.0
 11
-244.400037
 21
650.0
 31
0.0
 12
0.0
 22
-92000.0
 32
0.0
 70
   128
 13
0.0
 23
0.0
 33
0.0
 14
0.0
 24
1020.0
 34
0.0
 50
90.0
  0
DIMENSION
  5
AD
  8
TEAM-MAS
  2
*D0
 10
-290.531688
 20
1020.0
 30
0.0
 11
-290.531688
 21
650.0
 31
0.0
 12
0.0
 22
-92000.0
 32
0.0
 70
   128
  1
950-1200
 13
0.0
 23
0.0
 33
0.0
 14
7.579317
 24
1020.0
 34
0.0
 50
90.0
  0
LINE
  5
BB
  8
TEAM-BODY
 10
380.0
 20
800.0
 30
0.0
 11
0.0
 21
800.0
 31
0.0
  0
LINE
  5
BD
  8
TEAM-BODY
 10
380.0
 20
720.0
 30
0.0
 11
0.0
 21
720.0
 31
0.0
  0
ARC
  5
BE
  8
TEAM-BODY
 10
282.636553
 20
670.966572
 30
0.0
 40
61.800859
 50
284.465358
 51
356.047061
  0
LINE
  5
BF
  8
TEAM-BODY
 10
121.0
 20
596.468602
 30
0.0
 11
298.074073
 21
611.124871
 31
0.0
  0
LINE
  5
C0
  8
TEAM-AXE
 10
100.0
 20
592.0
 30
0.0
 11
100.0
 21
555.0
 31
0.0
  0
LINE
  5
C3
  8
TEAM-BODY
 10
121.0
 20
596.468602
 30
0.0
 11
121.0
 21
555.0
 31
0.0
  0
LINE
  5
C4
  8
TEAM-AXE
 10
-20.0
 20
1020.0
 30
0.0
 11
20.0
 21
1020.0
 31
0.0
  0
CIRCLE
  5
C5
  8
TEAM-COLD
 10
7.579317
 20
1020.0
 30
0.0
 40
15.0
  0
CIRCLE
  5
C7
  8
TEAM-WARM
 10
0.0
 20
1020.0
 30
0.0
 40
15.0
  0
LINE
  5
C9
  8
TEAM-AXE
 10
0.0
 20
1000.0
 30
0.0
 11
0.0
 21
1040.0
 31
0.0
  0
LINE
  5
CA
  8
TEAM-BODY
 10
20.0
 20
842.0
 30
0.0
 11
20.0
 21
800.0
 31
0.0
  0
LINE
  5
CB
  8
TEAM-BODY
 10
20.0
 20
842.0
 30
0.0
 11
0.0
 21
842.0
 31
0.0
  0
LINE
  5
CC
  8
TEAM-BODY
 10
0.0
 20
842.0
 30
0.0
 11
0.0
 21
720.0
 31
0.0
  0
LINE
  5
CD
  8
TEAM-BODY
 10
20.0
 20
800.0
 30
0.0
 11
16.573624
 21
654.096458
 31
0.0
  0
LINE
  5
CE
  8
TEAM-BODY
 10
79.0
 20
592.208558
 30
0.0
 11
79.0
 21
555.0
 31
0.0
  0
ARC
  5
CF
  8
TEAM-BODY
 10
88.510164
 20
663.638993
 30
0.0
 40
72.566698
 50
187.556291
 51
260.828555
  0
TEXT
  5
D0
  8
TEAM-TXT
 10
29.960966
 20
617.715104
 30
0.0
 40
30.0
  1
team 421044
 41
0.8
 51
15.0
  7
TEAM
  0
LINE
  5
D3
  8
TEAM-BODY
 10
121.0
 20
596.468602
 30
0.0
 11
79.0
 21
592.208558
 31
0.0
  0
LINE
  5
D4
  8
TEAM-BODY
 10
79.0
 20
555.0
 30
0.0
 11
121.0
 21
555.0
 31
0.0
  0
LINE
  5
D5
  8
TEAM-AXE
 10
-30.0
 20
435.0
 30
0.0
 11
30.0
 21
435.0
 31
0.0
  0
LINE
  5
D6
  8
TEAM-KAN
 10
30.0
 20
435.0
 30
0.0
 11
100.0
 21
435.0
 31
0.0
  0
LINE
  5
D8
  8
TEAM-AXE
 10
0.0
 20
405.0
 30
0.0
 11
0.0
 21
465.0
 31
0.0
  0
CIRCLE
  5
D9
  8
TEAM-KAN
 10
0.0
 20
435.0
 30
0.0
 40
20.0
  0
LINE
  5
DA
  8
TEAM-KAN
 10
100.0
 20
555.0
 30
0.0
 11
100.0
 21
360.980383
 31
0.0
  0
CIRCLE
  5
DB
  8
TEAM-INSP
 10
0.0
 20
0.0
 30
0.0
 40
10.0
  0
LINE
  5
DD
  8
TEAM-HIDE
 10
0.0
 20
0.0
 30
0.0
 11
0.0
 21
983.802361
 31
0.0
  0
LINE
  5
E0
  8
TEAM-BODY
 10
380.0
 20
720.0
 30
0.0
 11
380.0
 21
800.0
 31
0.0
  0
LINE
  5
E1
  8
TEAM-BODY
 10
349.754006
 20
720.0
 30
0.0
 11
344.290388
 21
666.7062
 31
0.0
  0
ENDSEC
  0
EOF
