  0
SECTION
  2
HEADER
  9
$ACADVER
  1
AC1009
  9
$INSBASE
 10
0.0
 20
0.0
 30
0.0
  9
$EXTMIN
 10
-1050.026941
 20
-10.063545
 30
0.0
  9
$EXTMAX
 10
1356.848929
 20
1080.069954
 30
0.000005
  9
$LIMMIN
 10
-1050.026941
 20
-10.063545
  9
$LIMMAX
 10
1356.848929
 20
1080.069954
  9
$ORTHOMODE
 70
     1
  9
$REGENMODE
 70
     1
  9
$FILLMODE
 70
     1
  9
$QTEXTMODE
 70
     0
  9
$MIRRTEXT
 70
     0
  9
$DRAGMODE
 70
     2
  9
$LTSCALE
 40
50.0
  9
$OSMODE
 70
     0
  9
$ATTMODE
 70
     1
  9
$TEXTSIZE
 40
200.0
  9
$TRACEWID
 40
1.0
  9
$TEXTSTYLE
  7
STANDARD
  9
$CLAYER
  8
TEAM-MAS
  9
$CELTYPE
  6
BYLAYER
  9
$CECOLOR
 62
   256
  9
$DIMSCALE
 40
0.0
  9
$DIMASZ
 40
20.0
  9
$DIMEXO
 40
10.0
  9
$DIMDLI
 40
1.0
  9
$DIMRND
 40
0.0
  9
$DIMDLE
 40
0.0
  9
$DIMEXE
 40
1.0
  9
$DIMTP
 40
0.0
  9
$DIMTM
 40
0.0
  9
$DIMTXT
 40
35.0
  9
$DIMCEN
 40
1.0
  9
$DIMTSZ
 40
0.0
  9
$DIMTOL
 70
     0
  9
$DIMLIM
 70
     0
  9
$DIMTIH
 70
     0
  9
$DIMTOH
 70
     0
  9
$DIMSE1
 70
     0
  9
$DIMSE2
 70
     0
  9
$DIMTAD
 70
     0
  9
$DIMZIN
 70
     0
  9
$DIMBLK
  1

  9
$DIMASO
 70
     1
  9
$DIMSHO
 70
     0
  9
$DIMPOST
  1

  9
$DIMAPOST
  1

  9
$DIMALT
 70
     0
  9
$DIMALTD
 70
     2
  9
$DIMALTF
 40
25.4
  9
$DIMLFAC
 40
1.0
  9
$DIMTOFL
 70
     0
  9
$DIMTVP
 40
0.0
  9
$DIMTIX
 70
     0
  9
$DIMSOXD
 70
     0
  9
$DIMSAH
 70
     0
  9
$DIMBLK1
  1

  9
$DIMBLK2
  1

  9
$DIMSTYLE
  2
TEAM
  9
$DIMCLRD
 70
     9
  9
$DIMCLRE
 70
     9
  9
$DIMCLRT
 70
    11
  9
$DIMTFAC
 40
1.0
  9
$DIMGAP
 40
7.0
  9
$LUNITS
 70
     2
  9
$LUPREC
 70
     1
  9
$SKETCHINC
 40
1.0
  9
$FILLETRAD
 40
50.0
  9
$AUNITS
 70
     0
  9
$AUPREC
 70
     0
  9
$MENU
  1
ROPLANS
  9
$ELEVATION
 40
0.0
  9
$PELEVATION
 40
0.0
  9
$THICKNESS
 40
0.0
  9
$LIMCHECK
 70
     0
  9
$BLIPMODE
 70
     1
  9
$CHAMFERA
 40
0.0
  9
$CHAMFERB
 40
0.0
  9
$SKPOLY
 70
     0
  9
$TDCREATE
 40
2450392.957851
  9
$TDUPDATE
 40
2456272.033233
  9
$TDINDWG
 40
2.315654
  9
$TDUSRTIMER
 40
2.315654
  9
$USRTIMER
 70
     1
  9
$ANGBASE
 50
0.0
  9
$ANGDIR
 70
     0
  9
$PDMODE
 70
     0
  9
$PDSIZE
 40
0.0
  9
$PLINEWID
 40
0.0
  9
$COORDS
 70
     2
  9
$SPLFRAME
 70
     0
  9
$SPLINETYPE
 70
     6
  9
$SPLINESEGS
 70
     8
  9
$ATTDIA
 70
     0
  9
$ATTREQ
 70
     0
  9
$HANDLING
 70
     1
  9
$HANDSEED
  5
1F9
  9
$SURFTAB1
 70
    24
  9
$SURFTAB2
 70
    24
  9
$SURFTYPE
 70
     6
  9
$SURFU
 70
     6
  9
$SURFV
 70
     6
  9
$UCSNAME
  2

  9
$UCSORG
 10
0.0
 20
0.0
 30
0.0
  9
$UCSXDIR
 10
1.0
 20
0.0
 30
0.0
  9
$UCSYDIR
 10
0.0
 20
1.0
 30
0.0
  9
$PUCSNAME
  2

  9
$PUCSORG
 10
0.0
 20
0.0
 30
0.0
  9
$PUCSXDIR
 10
1.0
 20
0.0
 30
0.0
  9
$PUCSYDIR
 10
0.0
 20
1.0
 30
0.0
  9
$USERI1
 70
     0
  9
$USERI2
 70
     0
  9
$USERI3
 70
     0
  9
$USERI4
 70
     0
  9
$USERI5
 70
     0
  9
$USERR1
 40
0.0
  9
$USERR2
 40
0.0
  9
$USERR3
 40
0.0
  9
$USERR4
 40
0.0
  9
$USERR5
 40
0.0
  9
$WORLDVIEW
 70
     1
  9
$SHADEDGE
 70
     0
  9
$SHADEDIF
 70
    70
  9
$TILEMODE
 70
     1
  9
$MAXACTVP
 70
    16
  9
$PLIMCHECK
 70
     0
  9
$PEXTMIN
 10
-0.805942
 20
0.005011
 30
0.0
  9
$PEXTMAX
 10
20.250094
 20
11.356329
 30
0.0
  9
$PLIMMIN
 10
0.0
 20
0.0
  9
$PLIMMAX
 10
12.0
 20
9.0
  9
$UNITMODE
 70
     0
  9
$VISRETAIN
 70
     0
  9
$PLINEGEN
 70
     0
  9
$PSLTSCALE
 70
     0
  0
ENDSEC
  0
SECTION
  2
TABLES
  0
TABLE
  2
VPORT
 70
     2
  0
VPORT
  2
*ACTIVE
 70
     0
 10
0.0
 20
0.0
 11
1.0
 21
1.0
 12
153.410994
 22
535.003204
 13
0.0
 23
0.0
 14
1.0
 24
1.0
 15
50.0
 25
50.0
 16
0.0
 26
0.0
 36
1.0
 17
0.0
 27
0.0
 37
0.0
 40
1263.127356
 41
1.911765
 42
50.0
 43
0.0
 44
0.0
 50
0.0
 51
0.0
 71
     0
 72
   100
 73
     1
 74
     1
 75
     0
 76
     0
 77
     0
 78
     0
  0
ENDTAB
  0
TABLE
  2
LTYPE
 70
     3
  0
LTYPE
  2
CONTINUOUS
 70
     0
  3
Solid Line
 72
    65
 73
     0
 40
0.0
  0
LTYPE
  2
31
 70
     0
  3

 72
    65
 73
     4
 40
2.1
 49
1.5
 49
-0.3
 49
0.0
 49
-0.3
  0
LTYPE
  2
22
 70
     0
  3

 72
    65
 73
     2
 40
1.4
 49
1.2
 49
-0.2
  0
ENDTAB
  0
TABLE
  2
LAYER
 70
    12
  0
LAYER
  2
0
 70
     0
 62
     7
  6
CONTINUOUS
  0
LAYER
  2
DEFPOINTS
 70
     0
 62
     7
  6
CONTINUOUS
  0
LAYER
  2
TEAM-BODY
 70
     0
 62
     2
  6
CONTINUOUS
  0
LAYER
  2
TEAM-AXE
 70
     0
 62
    10
  6
31
  0
LAYER
  2
TEAM-MAS
 70
     0
 62
     9
  6
CONTINUOUS
  0
LAYER
  2
TEAM-TXT
 70
     0
 62
    11
  6
CONTINUOUS
  0
LAYER
  2
TEAM-DET1
 70
     0
 62
     4
  6
CONTINUOUS
  0
LAYER
  2
TEAM-COLD
 70
     0
 62
     3
  6
CONTINUOUS
  0
LAYER
  2
TEAM-HIDE
 70
     0
 62
     8
  6
22
  0
LAYER
  2
TEAM-KAN
 70
     0
 62
     6
  6
CONTINUOUS
  0
LAYER
  2
TEAM-WARM
 70
     0
 62
     1
  6
CONTINUOUS
  0
LAYER
  2
TEAM-INSP
 70
     0
 62
     5
  6
CONTINUOUS
  0
ENDTAB
  0
TABLE
  2
STYLE
 70
     2
  0
STYLE
  2
STANDARD
 70
     0
 40
0.0
 41
1.0
 50
0.0
 71
     0
 42
200.0
  3
txt
  4

  0
STYLE
  2
TEAM
 70
     0
 40
0.0
 41
0.8
 50
15.0
 71
     0
 42
7.0
  3
ROMANS.shx
  4

  0
ENDTAB
  0
TABLE
  2
VIEW
 70
     0
  0
ENDTAB
  0
TABLE
  2
UCS
 70
     0
  0
ENDTAB
  0
TABLE
  2
APPID
 70
     1
  0
APPID
  2
ACAD
 70
     0
  0
ENDTAB
  0
TABLE
  2
DIMSTYLE
 70
     1
  0
DIMSTYLE
  2
TEAM
 70
     0
  3

  4

  5

  6

  7

 40
0.0
 41
20.0
 42
10.0
 43
1.0
 44
1.0
 45
0.0
 46
0.0
 47
0.0
 48
0.0
140
35.0
141
1.0
142
0.0
143
25.4
144
1.0
145
0.0
146
1.0
147
7.0
 71
     0
 72
     0
 73
     0
 74
     0
 75
     0
 76
     0
 77
     0
 78
     0
170
     0
171
     2
172
     0
173
     0
174
     0
175
     0
176
     9
177
     9
178
    11
  0
ENDTAB
  0
ENDSEC
  0
SECTION
  2
BLOCKS
  0
BLOCK
  8
0
  2
$MODEL_SPACE
 70
     0
 10
0.0
 20
0.0
 30
0.0
  3
$MODEL_SPACE
  1

  0
ENDBLK
  5
1E8
  8
0
  0
BLOCK
 67
     1
  8
0
  2
$PAPER_SPACE
 70
     0
 10
0.0
 20
0.0
 30
0.0
  3
$PAPER_SPACE
  1

  0
ENDBLK
  5
1E6
 67
     1
  8
0
  0
BLOCK
  8
0
  2
*D0
 70
     1
 10
0.0
 20
0.0
 30
0.0
  3
*D0
  1

  0
LINE
  5
134
  8
0
  6
BYBLOCK
 62
     9
 10
8910.0
 20
92766.0
 30
0.0
 11
8910.0
 21
92883.444865
 31
0.0
  0
LINE
  5
135
  8
0
  6
BYBLOCK
 62
     9
 10
8000.0
 20
92836.576435
 30
0.0
 11
8000.0
 21
92883.444865
 31
0.0
  0
LINE
  5
136
  8
0
  6
BYBLOCK
 62
     9
 10
8890.0
 20
92882.444865
 30
0.0
 11
8499.916667
 21
92882.444865
 31
0.0
  0
LINE
  5
137
  8
0
  6
BYBLOCK
 62
     9
 10
8020.0
 20
92882.444865
 30
0.0
 11
8410.083333
 21
92882.444865
 31
0.0
  0
SOLID
  5
138
  8
0
  6
BYBLOCK
 62
     9
 10
8890.0
 20
92885.778198
 30
0.0
 11
8890.0
 21
92879.111532
 31
0.0
 12
8910.0
 22
92882.444865
 32
0.0
 13
8910.0
 23
92882.444865
 33
0.0
  0
SOLID
  5
139
  8
0
  6
BYBLOCK
 62
     9
 10
8020.0
 20
92885.778198
 30
0.0
 11
8020.0
 21
92879.111532
 31
0.0
 12
8000.0
 22
92882.444865
 32
0.0
 13
8000.0
 23
92882.444865
 33
0.0
  0
TEXT
  5
13A
  8
0
  6
BYBLOCK
 62
    11
 10
8417.083333
 20
92864.944865
 30
0.0
 40
35.0
  1
910
  0
POINT
  5
13B
  8
DEFPOINTS
  6
BYBLOCK
 62
     0
 10
8910.0
 20
92756.0
 30
0.0
  0
POINT
  5
13C
  8
DEFPOINTS
  6
BYBLOCK
 62
     0
 10
8000.0
 20
92826.576435
 30
0.0
  0
POINT
  5
13D
  8
DEFPOINTS
  6
BYBLOCK
 62
     0
 10
8000.0
 20
92882.444865
 30
0.0
  0
ENDBLK
  5
13F
  8
0
  0
BLOCK
  8
0
  2
*D1
 70
     1
 10
0.0
 20
0.0
 30
0.0
  3
*D1
  1

  0
LINE
  5
126
  8
0
  6
BYBLOCK
 62
     9
 10
8000.0
 20
93030.0
 30
0.0
 11
8000.0
 21
92981.427183
 31
0.0
  0
LINE
  5
127
  8
0
  6
BYBLOCK
 62
     9
 10
8700.0
 20
93030.0
 30
0.0
 11
8700.0
 21
92981.427183
 31
0.0
  0
LINE
  5
128
  8
0
  6
BYBLOCK
 62
     9
 10
8020.0
 20
92982.427183
 30
0.0
 11
8302.166667
 21
92982.427183
 31
0.0
  0
LINE
  5
129
  8
0
  6
BYBLOCK
 62
     9
 10
8680.0
 20
92982.427183
 30
0.0
 11
8397.833333
 21
92982.427183
 31
0.0
  0
SOLID
  5
12A
  8
0
  6
BYBLOCK
 62
     9
 10
8020.0
 20
92985.760516
 30
0.0
 11
8020.0
 21
92979.093849
 31
0.0
 12
8000.0
 22
92982.427183
 32
0.0
 13
8000.0
 23
92982.427183
 33
0.0
  0
SOLID
  5
12B
  8
0
  6
BYBLOCK
 62
     9
 10
8680.0
 20
92985.760516
 30
0.0
 11
8680.0
 21
92979.093849
 31
0.0
 12
8700.0
 22
92982.427183
 32
0.0
 13
8700.0
 23
92982.427183
 33
0.0
  0
TEXT
  5
12C
  8
0
  6
BYBLOCK
 62
    11
 10
8309.166667
 20
92964.927183
 30
0.0
 40
35.0
  1
700
  0
POINT
  5
12D
  8
DEFPOINTS
  6
BYBLOCK
 62
     0
 10
8000.0
 20
93040.0
 30
0.0
  0
POINT
  5
12E
  8
DEFPOINTS
  6
BYBLOCK
 62
     0
 10
8700.0
 20
93040.0
 30
0.0
  0
POINT
  5
12F
  8
DEFPOINTS
  6
BYBLOCK
 62
     0
 10
8700.0
 20
92982.427183
 30
0.0
  0
ENDBLK
  5
131
  8
0
  0
BLOCK
  8
0
  2
*D2
 70
     1
 10
0.0
 20
0.0
 30
0.0
  3
*D2
  1

  0
LINE
  5
118
  8
0
  6
BYBLOCK
 62
     9
 10
8000.0
 20
92420.0
 30
0.0
 11
8000.0
 21
92320.707486
 31
0.0
  0
LINE
  5
119
  8
0
  6
BYBLOCK
 62
     9
 10
8600.0
 20
92542.0
 30
0.0
 11
8600.0
 21
92320.707486
 31
0.0
  0
LINE
  5
11A
  8
0
  6
BYBLOCK
 62
     9
 10
8020.0
 20
92321.707486
 30
0.0
 11
8252.166667
 21
92321.707486
 31
0.0
  0
LINE
  5
11B
  8
0
  6
BYBLOCK
 62
     9
 10
8580.0
 20
92321.707486
 30
0.0
 11
8347.833333
 21
92321.707486
 31
0.0
  0
SOLID
  5
11C
  8
0
  6
BYBLOCK
 62
     9
 10
8020.0
 20
92325.04082
 30
0.0
 11
8020.0
 21
92318.374153
 31
0.0
 12
8000.0
 22
92321.707486
 32
0.0
 13
8000.0
 23
92321.707486
 33
0.0
  0
SOLID
  5
11D
  8
0
  6
BYBLOCK
 62
     9
 10
8580.0
 20
92325.04082
 30
0.0
 11
8580.0
 21
92318.374153
 31
0.0
 12
8600.0
 22
92321.707486
 32
0.0
 13
8600.0
 23
92321.707486
 33
0.0
  0
TEXT
  5
11E
  8
0
  6
BYBLOCK
 62
    11
 10
8259.166667
 20
92304.207486
 30
0.0
 40
35.0
  1
600
  0
POINT
  5
11F
  8
DEFPOINTS
  6
BYBLOCK
 62
     0
 10
8000.0
 20
92430.0
 30
0.0
  0
POINT
  5
120
  8
DEFPOINTS
  6
BYBLOCK
 62
     0
 10
8600.0
 20
92552.0
 30
0.0
  0
POINT
  5
121
  8
DEFPOINTS
  6
BYBLOCK
 62
     0
 10
8600.0
 20
92321.707486
 30
0.0
  0
ENDBLK
  5
123
  8
0
  0
BLOCK
  8
0
  2
*D3
 70
     1
 10
0.0
 20
0.0
 30
0.0
  3
*D3
  1

  0
LINE
  5
10A
  8
0
  6
BYBLOCK
 62
     9
 10
7923.5
 20
93010.0
 30
0.0
 11
7923.5
 21
92944.071679
 31
0.0
  0
LINE
  5
10B
  8
0
  6
BYBLOCK
 62
     9
 10
8076.5
 20
93010.0
 30
0.0
 11
8076.5
 21
92944.071679
 31
0.0
  0
LINE
  5
10C
  8
0
  6
BYBLOCK
 62
     9
 10
7943.5
 20
92945.071679
 30
0.0
 11
7952.166667
 21
92945.071679
 31
0.0
  0
LINE
  5
10D
  8
0
  6
BYBLOCK
 62
     9
 10
8056.5
 20
92945.071679
 30
0.0
 11
8047.833333
 21
92945.071679
 31
0.0
  0
TEXT
  5
10E
  8
0
  6
BYBLOCK
 62
    11
 10
7959.166667
 20
92927.571679
 30
0.0
 40
35.0
  1
153
  0
SOLID
  5
10F
  8
0
  6
BYBLOCK
 62
     9
 10
7943.5
 20
92948.405013
 30
0.0
 11
7943.5
 21
92941.738346
 31
0.0
 12
7923.5
 22
92945.071679
 32
0.0
 13
7923.5
 23
92945.071679
 33
0.0
  0
SOLID
  5
110
  8
0
  6
BYBLOCK
 62
     9
 10
8056.5
 20
92948.405013
 30
0.0
 11
8056.5
 21
92941.738346
 31
0.0
 12
8076.5
 22
92945.071679
 32
0.0
 13
8076.5
 23
92945.071679
 33
0.0
  0
POINT
  5
111
  8
DEFPOINTS
  6
BYBLOCK
 62
     0
 10
7923.5
 20
93020.0
 30
0.0
  0
POINT
  5
112
  8
DEFPOINTS
  6
BYBLOCK
 62
     0
 10
8076.5
 20
93020.0
 30
0.0
  0
POINT
  5
113
  8
DEFPOINTS
  6
BYBLOCK
 62
     0
 10
8076.5
 20
92945.071679
 30
0.0
  0
ENDBLK
  5
115
  8
0
  0
BLOCK
  8
0
  2
*D4
 70
     1
 10
0.0
 20
0.0
 30
0.0
  3
*D4
  1

  0
LINE
  5
FC
  8
0
  6
BYBLOCK
 62
     9
 10
7900.0
 20
92545.0
 30
0.0
 11
7900.0
 21
92257.30533
 31
0.0
  0
LINE
  5
FD
  8
0
  6
BYBLOCK
 62
     9
 10
8100.0
 20
92545.0
 30
0.0
 11
8100.0
 21
92257.30533
 31
0.0
  0
LINE
  5
FE
  8
0
  6
BYBLOCK
 62
     9
 10
7920.0
 20
92258.30533
 30
0.0
 11
7952.166667
 21
92258.30533
 31
0.0
  0
LINE
  5
FF
  8
0
  6
BYBLOCK
 62
     9
 10
8080.0
 20
92258.30533
 30
0.0
 11
8047.833333
 21
92258.30533
 31
0.0
  0
SOLID
  5
100
  8
0
  6
BYBLOCK
 62
     9
 10
7920.0
 20
92261.638663
 30
0.0
 11
7920.0
 21
92254.971996
 31
0.0
 12
7900.0
 22
92258.30533
 32
0.0
 13
7900.0
 23
92258.30533
 33
0.0
  0
SOLID
  5
101
  8
0
  6
BYBLOCK
 62
     9
 10
8080.0
 20
92261.638663
 30
0.0
 11
8080.0
 21
92254.971996
 31
0.0
 12
8100.0
 22
92258.30533
 32
0.0
 13
8100.0
 23
92258.30533
 33
0.0
  0
TEXT
  5
102
  8
0
  6
BYBLOCK
 62
    11
 10
7959.166667
 20
92240.80533
 30
0.0
 40
35.0
  1
200
  0
POINT
  5
103
  8
DEFPOINTS
  6
BYBLOCK
 62
     0
 10
7900.0
 20
92555.0
 30
0.0
  0
POINT
  5
104
  8
DEFPOINTS
  6
BYBLOCK
 62
     0
 10
8100.0
 20
92555.0
 30
0.0
  0
POINT
  5
105
  8
DEFPOINTS
  6
BYBLOCK
 62
     0
 10
8100.0
 20
92258.30533
 30
0.0
  0
ENDBLK
  5
107
  8
0
  0
BLOCK
  8
0
  2
*D5
 70
     1
 10
0.0
 20
0.0
 30
0.0
  3
*D5
  1

  0
LINE
  5
93
  8
0
  6
BYBLOCK
 62
     9
 10
8000.967761
 20
92000.0
 30
0.0
 11
9340.337369
 21
92000.0
 31
0.0
  0
LINE
  5
94
  8
0
  6
BYBLOCK
 62
     9
 10
8786.5
 20
93020.0
 30
0.0
 11
9340.337369
 21
93020.0
 31
0.0
  0
LINE
  5
95
  8
0
  6
BYBLOCK
 62
     9
 10
9339.337369
 20
92020.0
 30
0.0
 11
9339.337369
 21
92423.416667
 31
0.0
  0
LINE
  5
96
  8
0
  6
BYBLOCK
 62
     9
 10
9339.337369
 20
93000.0
 30
0.0
 11
9339.337369
 21
92676.583333
 31
0.0
  0
TEXT
  5
97
  8
0
  6
BYBLOCK
 62
    11
 10
9356.837369
 20
92430.416667
 30
0.0
 40
35.0
  1
950-1200
 50
90.0
  0
SOLID
  5
98
  8
0
  6
BYBLOCK
 62
     9
 10
9336.004036
 20
92020.0
 30
0.0
 11
9342.670703
 21
92020.0
 31
0.0
 12
9339.337369
 22
92000.0
 32
0.0
 13
9339.337369
 23
92000.0
 33
0.0
  0
SOLID
  5
99
  8
0
  6
BYBLOCK
 62
     9
 10
9336.004036
 20
93000.0
 30
0.0
 11
9342.670703
 21
93000.0
 31
0.0
 12
9339.337369
 22
93020.0
 32
0.0
 13
9339.337369
 23
93020.0
 33
0.0
  0
POINT
  5
9A
  8
DEFPOINTS
  6
BYBLOCK
 62
     0
 10
7990.967761
 20
92000.0
 30
0.0
  0
POINT
  5
9B
  8
DEFPOINTS
  6
BYBLOCK
 62
     0
 10
8776.5
 20
93020.0
 30
0.0
  0
POINT
  5
9C
  8
DEFPOINTS
  6
BYBLOCK
 62
     0
 10
9339.337369
 20
93020.0
 30
0.0
  0
ENDBLK
  5
9E
  8
0
  0
BLOCK
  8
0
  2
*D6
 70
     1
 10
0.0
 20
0.0
 30
0.0
  3
*D6
  1

  0
LINE
  5
85
  8
0
  6
BYBLOCK
 62
     9
 10
8000.967761
 20
92000.0
 30
0.0
 11
9295.817549
 21
92000.0
 31
0.0
  0
LINE
  5
86
  8
0
  6
BYBLOCK
 62
     9
 10
8786.5
 20
93020.0
 30
0.0
 11
9295.817549
 21
93020.0
 31
0.0
  0
LINE
  5
87
  8
0
  6
BYBLOCK
 62
     9
 10
9294.817549
 20
92020.0
 30
0.0
 11
9294.817549
 21
92490.5
 31
0.0
  0
LINE
  5
88
  8
0
  6
BYBLOCK
 62
     9
 10
9294.817549
 20
93000.0
 30
0.0
 11
9294.817549
 21
92609.5
 31
0.0
  0
TEXT
  5
89
  8
0
  6
BYBLOCK
 62
    11
 10
9312.317549
 20
92497.5
 30
0.0
 40
35.0
  1
1020
 50
90.0
  0
SOLID
  5
8A
  8
0
  6
BYBLOCK
 62
     9
 10
9291.484216
 20
92020.0
 30
0.0
 11
9298.150882
 21
92020.0
 31
0.0
 12
9294.817549
 22
92000.0
 32
0.0
 13
9294.817549
 23
92000.0
 33
0.0
  0
SOLID
  5
8B
  8
0
  6
BYBLOCK
 62
     9
 10
9291.484216
 20
93000.0
 30
0.0
 11
9298.150882
 21
93000.0
 31
0.0
 12
9294.817549
 22
93020.0
 32
0.0
 13
9294.817549
 23
93020.0
 33
0.0
  0
POINT
  5
8C
  8
DEFPOINTS
  6
BYBLOCK
 62
     0
 10
7990.967761
 20
92000.0
 30
0.0
  0
POINT
  5
8D
  8
DEFPOINTS
  6
BYBLOCK
 62
     0
 10
8776.5
 20
93020.0
 30
0.0
  0
POINT
  5
8E
  8
DEFPOINTS
  6
BYBLOCK
 62
     0
 10
9294.817549
 20
93020.0
 30
0.0
  0
ENDBLK
  5
90
  8
0
  0
BLOCK
  8
0
  2
*D7
 70
     1
 10
0.0
 20
0.0
 30
0.0
  3
*D7
  1

  0
LINE
  5
77
  8
0
  6
BYBLOCK
 62
     9
 10
8000.967761
 20
92000.0
 30
0.0
 11
9247.857798
 21
92000.0
 31
0.0
  0
LINE
  5
78
  8
0
  6
BYBLOCK
 62
     9
 10
9047.534952
 20
92800.0
 30
0.0
 11
9247.857798
 21
92800.0
 31
0.0
  0
LINE
  5
79
  8
0
  6
BYBLOCK
 62
     9
 10
9246.857798
 20
92020.0
 30
0.0
 11
9246.857798
 21
92285.083333
 31
0.0
  0
LINE
  5
7A
  8
0
  6
BYBLOCK
 62
     9
 10
9246.857798
 20
92780.0
 30
0.0
 11
9246.857798
 21
92514.916667
 31
0.0
  0
SOLID
  5
7B
  8
0
  6
BYBLOCK
 62
     9
 10
9243.524465
 20
92020.0
 30
0.0
 11
9250.191132
 21
92020.0
 31
0.0
 12
9246.857798
 22
92000.0
 32
0.0
 13
9246.857798
 23
92000.0
 33
0.0
  0
SOLID
  5
7C
  8
0
  6
BYBLOCK
 62
     9
 10
9243.524465
 20
92780.0
 30
0.0
 11
9250.191132
 21
92780.0
 31
0.0
 12
9246.857798
 22
92800.0
 32
0.0
 13
9246.857798
 23
92800.0
 33
0.0
  0
TEXT
  5
7D
  8
0
  6
BYBLOCK
 62
    11
 10
9264.357798
 20
92292.083333
 30
0.0
 40
35.0
  1
600-850
 50
90.0
  0
POINT
  5
7E
  8
DEFPOINTS
  6
BYBLOCK
 62
     0
 10
7990.967761
 20
92000.0
 30
0.0
  0
POINT
  5
7F
  8
DEFPOINTS
  6
BYBLOCK
 62
     0
 10
9037.534952
 20
92800.0
 30
0.0
  0
POINT
  5
80
  8
DEFPOINTS
  6
BYBLOCK
 62
     0
 10
9246.857798
 20
92800.0
 30
0.0
  0
ENDBLK
  5
82
  8
0
  0
BLOCK
  8
0
  2
*D8
 70
     1
 10
0.0
 20
0.0
 30
0.0
  3
*D8
  1

  0
LINE
  5
69
  8
0
  6
BYBLOCK
 62
     9
 10
8000.967761
 20
92000.0
 30
0.0
 11
9201.618506
 21
92000.0
 31
0.0
  0
LINE
  5
6A
  8
0
  6
BYBLOCK
 62
     9
 10
9047.534952
 20
92800.0
 30
0.0
 11
9201.618506
 21
92800.0
 31
0.0
  0
LINE
  5
6B
  8
0
  6
BYBLOCK
 62
     9
 10
9200.618506
 20
92020.0
 30
0.0
 11
9200.618506
 21
92352.166667
 31
0.0
  0
LINE
  5
6C
  8
0
  6
BYBLOCK
 62
     9
 10
9200.618506
 20
92780.0
 30
0.0
 11
9200.618506
 21
92447.833333
 31
0.0
  0
SOLID
  5
6D
  8
0
  6
BYBLOCK
 62
     9
 10
9197.285172
 20
92020.0
 30
0.0
 11
9203.951839
 21
92020.0
 31
0.0
 12
9200.618506
 22
92000.0
 32
0.0
 13
9200.618506
 23
92000.0
 33
0.0
  0
SOLID
  5
6E
  8
0
  6
BYBLOCK
 62
     9
 10
9197.285172
 20
92780.0
 30
0.0
 11
9203.951839
 21
92780.0
 31
0.0
 12
9200.618506
 22
92800.0
 32
0.0
 13
9200.618506
 23
92800.0
 33
0.0
  0
TEXT
  5
6F
  8
0
  6
BYBLOCK
 62
    11
 10
9218.118506
 20
92359.166667
 30
0.0
 40
35.0
  1
800
 50
90.0
  0
POINT
  5
70
  8
DEFPOINTS
  6
BYBLOCK
 62
     0
 10
7990.967761
 20
92000.0
 30
0.0
  0
POINT
  5
71
  8
DEFPOINTS
  6
BYBLOCK
 62
     0
 10
9037.534952
 20
92800.0
 30
0.0
  0
POINT
  5
72
  8
DEFPOINTS
  6
BYBLOCK
 62
     0
 10
9200.618506
 20
92800.0
 30
0.0
  0
ENDBLK
  5
74
  8
0
  0
BLOCK
  8
0
  2
*D9
 70
     1
 10
0.0
 20
0.0
 30
0.0
  3
*D9
  1

  0
LINE
  5
5B
  8
0
  6
BYBLOCK
 62
     9
 10
8000.967761
 20
92000.0
 30
0.0
 11
9107.419463
 21
92000.0
 31
0.0
  0
LINE
  5
5C
  8
0
  6
BYBLOCK
 62
     9
 10
8000.967761
 20
92460.0
 30
0.0
 11
9107.419463
 21
92460.0
 31
0.0
  0
LINE
  5
5D
  8
0
  6
BYBLOCK
 62
     9
 10
9106.419463
 20
92020.0
 30
0.0
 11
9106.419463
 21
92179.25
 31
0.0
  0
LINE
  5
5E
  8
0
  6
BYBLOCK
 62
     9
 10
9106.419463
 20
92440.0
 30
0.0
 11
9106.419463
 21
92280.75
 31
0.0
  0
SOLID
  5
5F
  8
0
  6
BYBLOCK
 62
     9
 10
9103.086129
 20
92020.0
 30
0.0
 11
9109.752796
 21
92020.0
 31
0.0
 12
9106.419463
 22
92000.0
 32
0.0
 13
9106.419463
 23
92000.0
 33
0.0
  0
SOLID
  5
60
  8
0
  6
BYBLOCK
 62
     9
 10
9103.086129
 20
92440.0
 30
0.0
 11
9109.752796
 21
92440.0
 31
0.0
 12
9106.419463
 22
92460.0
 32
0.0
 13
9106.419463
 23
92460.0
 33
0.0
  0
TEXT
  5
61
  8
0
  6
BYBLOCK
 62
    11
 10
9123.919463
 20
92186.25
 30
0.0
 40
35.0
  1
460
 50
90.0
  0
POINT
  5
62
  8
DEFPOINTS
  6
BYBLOCK
 62
     0
 10
7990.967761
 20
92000.0
 30
0.0
  0
POINT
  5
63
  8
DEFPOINTS
  6
BYBLOCK
 62
     0
 10
7990.967761
 20
92460.0
 30
0.0
  0
POINT
  5
64
  8
DEFPOINTS
  6
BYBLOCK
 62
     0
 10
9106.419463
 20
92460.0
 30
0.0
  0
ENDBLK
  5
66
  8
0
  0
BLOCK
  8
0
  2
*D10
 70
     1
 10
0.0
 20
0.0
 30
0.0
  3
*D10
  1

  0
LINE
  5
4D
  8
0
  6
BYBLOCK
 62
     9
 10
8000.967761
 20
92000.0
 30
0.0
 11
9155.379213
 21
92000.0
 31
0.0
  0
LINE
  5
4E
  8
0
  6
BYBLOCK
 62
     9
 10
8000.967761
 20
92460.0
 30
0.0
 11
9155.379213
 21
92460.0
 31
0.0
  0
LINE
  5
4F
  8
0
  6
BYBLOCK
 62
     9
 10
9154.379213
 20
92020.0
 30
0.0
 11
9154.379213
 21
92118.0
 31
0.0
  0
LINE
  5
50
  8
0
  6
BYBLOCK
 62
     9
 10
9154.379213
 20
92440.0
 30
0.0
 11
9154.379213
 21
92342.0
 31
0.0
  0
SOLID
  5
51
  8
0
  6
BYBLOCK
 62
     9
 10
9151.04588
 20
92020.0
 30
0.0
 11
9157.712547
 21
92020.0
 31
0.0
 12
9154.379213
 22
92000.0
 32
0.0
 13
9154.379213
 23
92000.0
 33
0.0
  0
SOLID
  5
52
  8
0
  6
BYBLOCK
 62
     9
 10
9151.04588
 20
92440.0
 30
0.0
 11
9157.712547
 21
92440.0
 31
0.0
 12
9154.379213
 22
92460.0
 32
0.0
 13
9154.379213
 23
92460.0
 33
0.0
  0
TEXT
  5
53
  8
0
  6
BYBLOCK
 62
    11
 10
9171.879213
 20
92125.0
 30
0.0
 40
35.0
  1
300-500
 50
90.0
  0
POINT
  5
54
  8
DEFPOINTS
  6
BYBLOCK
 62
     0
 10
7990.967761
 20
92000.0
 30
0.0
  0
POINT
  5
55
  8
DEFPOINTS
  6
BYBLOCK
 62
     0
 10
7990.967761
 20
92460.0
 30
0.0
  0
POINT
  5
56
  8
DEFPOINTS
  6
BYBLOCK
 62
     0
 10
9154.379213
 20
92460.0
 30
0.0
  0
ENDBLK
  5
58
  8
0
  0
BLOCK
  8
0
  2
*D11
 70
     1
 10
0.0
 20
0.0
 30
0.0
  3
*D11
  1

  0
LINE
  5
3F
  8
0
  6
BYBLOCK
 62
     9
 10
9030.990976
 20
92800.0
 30
0.0
 11
9155.379213
 21
92800.0
 31
0.0
  0
LINE
  5
40
  8
0
  6
BYBLOCK
 62
     9
 10
8000.967761
 20
92460.0
 30
0.0
 11
9155.379213
 21
92460.0
 31
0.0
  0
LINE
  5
41
  8
0
  6
BYBLOCK
 62
     9
 10
9154.379213
 20
92780.0
 30
0.0
 11
9154.379213
 21
92696.25
 31
0.0
  0
LINE
  5
42
  8
0
  6
BYBLOCK
 62
     9
 10
9154.379213
 20
92480.0
 30
0.0
 11
9154.379213
 21
92594.75
 31
0.0
  0
TEXT
  5
43
  8
0
  6
BYBLOCK
 62
    11
 10
9171.879213
 20
92601.75
 30
0.0
 40
35.0
  1
340
 50
90.0
  0
SOLID
  5
44
  8
0
  6
BYBLOCK
 62
     9
 10
9151.04588
 20
92780.0
 30
0.0
 11
9157.712547
 21
92780.0
 31
0.0
 12
9154.379213
 22
92800.0
 32
0.0
 13
9154.379213
 23
92800.0
 33
0.0
  0
SOLID
  5
45
  8
0
  6
BYBLOCK
 62
     9
 10
9151.04588
 20
92480.0
 30
0.0
 11
9157.712547
 21
92480.0
 31
0.0
 12
9154.379213
 22
92460.0
 32
0.0
 13
9154.379213
 23
92460.0
 33
0.0
  0
POINT
  5
46
  8
DEFPOINTS
  6
BYBLOCK
 62
     0
 10
9020.990976
 20
92800.0
 30
0.0
  0
POINT
  5
47
  8
DEFPOINTS
  6
BYBLOCK
 62
     0
 10
7990.967761
 20
92460.0
 30
0.0
  0
POINT
  5
48
  8
DEFPOINTS
  6
BYBLOCK
 62
     0
 10
9154.379213
 20
92460.0
 30
0.0
  0
ENDBLK
  5
4A
  8
0
  0
BLOCK
  8
0
  2
*D12
 70
     1
 10
0.0
 20
0.0
 30
0.0
  3
*D12
  1

  0
LINE
  5
31
  8
0
  6
BYBLOCK
 62
     9
 10
9057.534952
 20
92800.0
 30
0.0
 11
9107.419463
 21
92800.0
 31
0.0
  0
LINE
  5
32
  8
0
  6
BYBLOCK
 62
     9
 10
8000.967761
 20
92592.0
 30
0.0
 11
9107.419463
 21
92592.0
 31
0.0
  0
LINE
  5
33
  8
0
  6
BYBLOCK
 62
     9
 10
9106.419463
 20
92780.0
 30
0.0
 11
9106.419463
 21
92752.25
 31
0.0
  0
LINE
  5
34
  8
0
  6
BYBLOCK
 62
     9
 10
9106.419463
 20
92612.0
 30
0.0
 11
9106.419463
 21
92650.75
 31
0.0
  0
TEXT
  5
35
  8
0
  6
BYBLOCK
 62
    11
 10
9101.131782
 20
92657.75
 30
0.0
 40
35.0
  1
208
 50
90.0
  0
SOLID
  5
36
  8
0
  6
BYBLOCK
 62
     9
 10
9103.086129
 20
92780.0
 30
0.0
 11
9109.752796
 21
92780.0
 31
0.0
 12
9106.419463
 22
92800.0
 32
0.0
 13
9106.419463
 23
92800.0
 33
0.0
  0
SOLID
  5
37
  8
0
  6
BYBLOCK
 62
     9
 10
9103.086129
 20
92612.0
 30
0.0
 11
9109.752796
 21
92612.0
 31
0.0
 12
9106.419463
 22
92592.0
 32
0.0
 13
9106.419463
 23
92592.0
 33
0.0
  0
POINT
  5
38
  8
DEFPOINTS
  6
BYBLOCK
 62
     0
 10
9047.534952
 20
92800.0
 30
0.0
  0
POINT
  5
39
  8
DEFPOINTS
  6
BYBLOCK
 62
     0
 10
7990.967761
 20
92592.0
 30
0.0
  0
POINT
  5
3A
  8
DEFPOINTS
  6
BYBLOCK
 62
     0
 10
9106.419463
 20
92592.0
 30
0.0
  0
ENDBLK
  5
3C
  8
0
  0
BLOCK
  8
0
  2
*D13
 70
     1
 10
0.0
 20
0.0
 30
0.0
  3
*D13
  1

  0
LINE
  5
22
  8
0
  6
BYBLOCK
 62
     9
 10
6950.0
 20
92852.003237
 30
0.0
 11
6950.0
 21
93063.532451
 31
0.0
  0
LINE
  5
23
  8
0
  6
BYBLOCK
 62
     9
 10
9050.0
 20
92852.003237
 30
0.0
 11
9050.0
 21
93063.532451
 31
0.0
  0
LINE
  5
24
  8
0
  6
BYBLOCK
 62
     9
 10
6970.0
 20
93062.532451
 30
0.0
 11
7940.5
 21
93062.532451
 31
0.0
  0
LINE
  5
25
  8
0
  6
BYBLOCK
 62
     9
 10
9030.0
 20
93062.532451
 30
0.0
 11
8059.5
 21
93062.532451
 31
0.0
  0
SOLID
  5
26
  8
0
  6
BYBLOCK
 62
     9
 10
6970.0
 20
93065.865784
 30
0.0
 11
6970.0
 21
93059.199117
 31
0.0
 12
6950.0
 22
93062.532451
 32
0.0
 13
6950.0
 23
93062.532451
 33
0.0
  0
SOLID
  5
27
  8
0
  6
BYBLOCK
 62
     9
 10
9030.0
 20
93065.865784
 30
0.0
 11
9030.0
 21
93059.199117
 31
0.0
 12
9050.0
 22
93062.532451
 32
0.0
 13
9050.0
 23
93062.532451
 33
0.0
  0
TEXT
  5
28
  8
0
  6
BYBLOCK
 62
    11
 10
7947.5
 20
93045.032451
 30
0.0
 40
35.0
  1
2100
  0
POINT
  5
29
  8
DEFPOINTS
  6
BYBLOCK
 62
     0
 10
6950.0
 20
92842.003237
 30
0.0
  0
POINT
  5
2B
  8
DEFPOINTS
  6
BYBLOCK
 62
     0
 10
9050.0
 20
92842.003237
 30
0.0
  0
POINT
  5
2C
  8
DEFPOINTS
  6
BYBLOCK
 62
     0
 10
9050.0
 20
93062.532451
 30
0.0
  0
ENDBLK
  5
2E
  8
0
  0
BLOCK
  8
0
  2
*D14
 70
     1
 10
0.0
 20
0.0
 30
0.0
  3
*D14
  1

  0
LINE
  5
C2
  8
0
  6
BYBLOCK
 62
     9
 10
7090.0
 20
92766.0
 30
0.0
 11
7090.0
 21
92883.444865
 31
0.0
  0
LINE
  5
C3
  8
0
  6
BYBLOCK
 62
     9
 10
8000.0
 20
92836.576435
 30
0.0
 11
8000.0
 21
92883.444865
 31
0.0
  0
LINE
  5
C4
  8
0
  6
BYBLOCK
 62
     9
 10
7110.0
 20
92882.444865
 30
0.0
 11
7500.083333
 21
92882.444865
 31
0.0
  0
LINE
  5
C5
  8
0
  6
BYBLOCK
 62
     9
 10
7980.0
 20
92882.444865
 30
0.0
 11
7589.916667
 21
92882.444865
 31
0.0
  0
SOLID
  5
C6
  8
0
  6
BYBLOCK
 62
     9
 10
7110.0
 20
92885.778198
 30
0.0
 11
7110.0
 21
92879.111532
 31
0.0
 12
7090.0
 22
92882.444865
 32
0.0
 13
7090.0
 23
92882.444865
 33
0.0
  0
SOLID
  5
C7
  8
0
  6
BYBLOCK
 62
     9
 10
7980.0
 20
92885.778198
 30
0.0
 11
7980.0
 21
92879.111532
 31
0.0
 12
8000.0
 22
92882.444865
 32
0.0
 13
8000.0
 23
92882.444865
 33
0.0
  0
TEXT
  5
C8
  8
0
  6
BYBLOCK
 62
    11
 10
7507.083333
 20
92864.944865
 30
0.0
 40
35.0
  1
910
  0
POINT
  5
C9
  8
DEFPOINTS
  6
BYBLOCK
 62
     0
 10
7090.0
 20
92756.0
 30
0.0
  0
POINT
  5
CA
  8
DEFPOINTS
  6
BYBLOCK
 62
     0
 10
8000.0
 20
92826.576435
 30
0.0
  0
POINT
  5
CB
  8
DEFPOINTS
  6
BYBLOCK
 62
     0
 10
8000.0
 20
92882.444865
 30
0.0
  0
ENDBLK
  5
CD
  8
0
  0
BLOCK
  8
0
  2
*D15
 70
     1
 10
0.0
 20
0.0
 30
0.0
  3
*D15
  1

  0
LINE
  5
EE
  8
0
  6
BYBLOCK
 62
     9
 10
8000.0
 20
92420.0
 30
0.0
 11
8000.0
 21
92320.707486
 31
0.0
  0
LINE
  5
EF
  8
0
  6
BYBLOCK
 62
     9
 10
7400.0
 20
92542.0
 30
0.0
 11
7400.0
 21
92320.707486
 31
0.0
  0
LINE
  5
F0
  8
0
  6
BYBLOCK
 62
     9
 10
7980.0
 20
92321.707486
 30
0.0
 11
7747.833333
 21
92321.707486
 31
0.0
  0
LINE
  5
F1
  8
0
  6
BYBLOCK
 62
     9
 10
7420.0
 20
92321.707486
 30
0.0
 11
7652.166667
 21
92321.707486
 31
0.0
  0
SOLID
  5
F2
  8
0
  6
BYBLOCK
 62
     9
 10
7980.0
 20
92325.04082
 30
0.0
 11
7980.0
 21
92318.374153
 31
0.0
 12
8000.0
 22
92321.707486
 32
0.0
 13
8000.0
 23
92321.707486
 33
0.0
  0
SOLID
  5
F3
  8
0
  6
BYBLOCK
 62
     9
 10
7420.0
 20
92325.04082
 30
0.0
 11
7420.0
 21
92318.374153
 31
0.0
 12
7400.0
 22
92321.707486
 32
0.0
 13
7400.0
 23
92321.707486
 33
0.0
  0
TEXT
  5
F4
  8
0
  6
BYBLOCK
 62
    11
 10
7659.166667
 20
92304.207486
 30
0.0
 40
35.0
  1
600
  0
POINT
  5
F5
  8
DEFPOINTS
  6
BYBLOCK
 62
     0
 10
8000.0
 20
92430.0
 30
0.0
  0
POINT
  5
F6
  8
DEFPOINTS
  6
BYBLOCK
 62
     0
 10
7400.0
 20
92552.0
 30
0.0
  0
POINT
  5
F7
  8
DEFPOINTS
  6
BYBLOCK
 62
     0
 10
7400.0
 20
92321.707486
 30
0.0
  0
ENDBLK
  5
F9
  8
0
  0
BLOCK
  8
0
  2
*D16
 70
     1
 10
0.0
 20
0.0
 30
0.0
  3
*D16
  1

  0
LINE
  5
B4
  8
0
  6
BYBLOCK
 62
     9
 10
7300.0
 20
93030.0
 30
0.0
 11
7300.0
 21
92981.427183
 31
0.0
  0
LINE
  5
B5
  8
0
  6
BYBLOCK
 62
     9
 10
8000.0
 20
93030.0
 30
0.0
 11
8000.0
 21
92981.427183
 31
0.0
  0
LINE
  5
B6
  8
0
  6
BYBLOCK
 62
     9
 10
7320.0
 20
92982.427183
 30
0.0
 11
7602.166667
 21
92982.427183
 31
0.0
  0
LINE
  5
B7
  8
0
  6
BYBLOCK
 62
     9
 10
7980.0
 20
92982.427183
 30
0.0
 11
7697.833333
 21
92982.427183
 31
0.0
  0
SOLID
  5
B8
  8
0
  6
BYBLOCK
 62
     9
 10
7320.0
 20
92985.760516
 30
0.0
 11
7320.0
 21
92979.093849
 31
0.0
 12
7300.0
 22
92982.427183
 32
0.0
 13
7300.0
 23
92982.427183
 33
0.0
  0
SOLID
  5
B9
  8
0
  6
BYBLOCK
 62
     9
 10
7980.0
 20
92985.760516
 30
0.0
 11
7980.0
 21
92979.093849
 31
0.0
 12
8000.0
 22
92982.427183
 32
0.0
 13
8000.0
 23
92982.427183
 33
0.0
  0
TEXT
  5
BA
  8
0
  6
BYBLOCK
 62
    11
 10
7609.166667
 20
92964.927183
 30
0.0
 40
35.0
  1
700
  0
POINT
  5
BB
  8
DEFPOINTS
  6
BYBLOCK
 62
     0
 10
7300.0
 20
93040.0
 30
0.0
  0
POINT
  5
BC
  8
DEFPOINTS
  6
BYBLOCK
 62
     0
 10
8000.0
 20
93040.0
 30
0.0
  0
POINT
  5
BD
  8
DEFPOINTS
  6
BYBLOCK
 62
     0
 10
8000.0
 20
92982.427183
 30
0.0
  0
ENDBLK
  5
BF
  8
0
  0
BLOCK
  8
0
  2
*D17
 70
     1
 10
0.0
 20
0.0
 30
0.0
  3
*D17
  1

  0
LINE
  5
A6
  8
0
  6
BYBLOCK
 62
     9
 10
7223.5
 20
93010.0
 30
0.0
 11
7223.5
 21
92944.071679
 31
0.0
  0
LINE
  5
A7
  8
0
  6
BYBLOCK
 62
     9
 10
7376.5
 20
93010.0
 30
0.0
 11
7376.5
 21
92944.071679
 31
0.0
  0
LINE
  5
A8
  8
0
  6
BYBLOCK
 62
     9
 10
7243.5
 20
92945.071679
 30
0.0
 11
7252.166667
 21
92945.071679
 31
0.0
  0
LINE
  5
A9
  8
0
  6
BYBLOCK
 62
     9
 10
7356.5
 20
92945.071679
 30
0.0
 11
7347.833333
 21
92945.071679
 31
0.0
  0
TEXT
  5
AA
  8
0
  6
BYBLOCK
 62
    11
 10
7259.166667
 20
92927.571679
 30
0.0
 40
35.0
  1
153
  0
SOLID
  5
AB
  8
0
  6
BYBLOCK
 62
     9
 10
7243.5
 20
92948.405013
 30
0.0
 11
7243.5
 21
92941.738346
 31
0.0
 12
7223.5
 22
92945.071679
 32
0.0
 13
7223.5
 23
92945.071679
 33
0.0
  0
SOLID
  5
AC
  8
0
  6
BYBLOCK
 62
     9
 10
7356.5
 20
92948.405013
 30
0.0
 11
7356.5
 21
92941.738346
 31
0.0
 12
7376.5
 22
92945.071679
 32
0.0
 13
7376.5
 23
92945.071679
 33
0.0
  0
POINT
  5
AD
  8
DEFPOINTS
  6
BYBLOCK
 62
     0
 10
7223.5
 20
93020.0
 30
0.0
  0
POINT
  5
AE
  8
DEFPOINTS
  6
BYBLOCK
 62
     0
 10
7376.5
 20
93020.0
 30
0.0
  0
POINT
  5
AF
  8
DEFPOINTS
  6
BYBLOCK
 62
     0
 10
7376.5
 20
92945.071679
 30
0.0
  0
ENDBLK
  5
B1
  8
0
  0
BLOCK
  8
0
  2
*D18
 70
     1
 10
0.0
 20
0.0
 30
0.0
  3
*D18
  1

  0
LINE
  5
17F
  8
0
  6
BYBLOCK
 62
     9
 10
9060.0
 20
92842.003237
 30
0.0
 11
9107.419463
 21
92842.003237
 31
0.0
  0
LINE
  5
180
  8
0
  6
BYBLOCK
 62
     9
 10
9057.534952
 20
92800.0
 30
0.0
 11
9107.419463
 21
92800.0
 31
0.0
  0
LINE
  5
181
  8
0
  6
BYBLOCK
 62
     9
 10
9106.419463
 20
92862.003237
 30
0.0
 11
9106.419463
 21
92882.003237
 31
0.0
  0
LINE
  5
182
  8
0
  6
BYBLOCK
 62
     9
 10
9106.419463
 20
92780.0
 30
0.0
 11
9106.419463
 21
92760.0
 31
0.0
  0
TEXT
  5
183
  8
0
  6
BYBLOCK
 62
    11
 10
9123.919463
 20
92878.790178
 30
0.0
 40
35.0
  1
42
 50
90.0
  0
LINE
  5
184
  8
0
  6
BYBLOCK
 62
     9
 10
9106.419463
 20
92842.003237
 30
0.0
 11
9106.419463
 21
92800.0
 31
0.0
  0
SOLID
  5
185
  8
0
  6
BYBLOCK
 62
     9
 10
9103.086129
 20
92862.003237
 30
0.0
 11
9109.752796
 21
92862.003237
 31
0.0
 12
9106.419463
 22
92842.003237
 32
0.0
 13
9106.419463
 23
92842.003237
 33
0.0
  0
SOLID
  5
186
  8
0
  6
BYBLOCK
 62
     9
 10
9103.086129
 20
92780.0
 30
0.0
 11
9109.752796
 21
92780.0
 31
0.0
 12
9106.419463
 22
92800.0
 32
0.0
 13
9106.419463
 23
92800.0
 33
0.0
  0
POINT
  5
187
  8
DEFPOINTS
  6
BYBLOCK
 62
     0
 10
9050.0
 20
92842.003237
 30
0.0
  0
POINT
  5
188
  8
DEFPOINTS
  6
BYBLOCK
 62
     0
 10
9047.534952
 20
92800.0
 30
0.0
  0
POINT
  5
189
  8
DEFPOINTS
  6
BYBLOCK
 62
     0
 10
9106.419463
 20
92800.0
 30
0.0
  0
ENDBLK
  5
18B
  8
0
  0
BLOCK
  8
0
  2
*D19
 70
     1
 10
0.0
 20
0.0
 30
0.0
  3
*D19
  1

  0
LINE
  5
E0
  8
0
  6
BYBLOCK
 62
     9
 10
8623.5
 20
93010.0
 30
0.0
 11
8623.5
 21
92944.071679
 31
0.0
  0
LINE
  5
E1
  8
0
  6
BYBLOCK
 62
     9
 10
8776.5
 20
93010.0
 30
0.0
 11
8776.5
 21
92944.071679
 31
0.0
  0
LINE
  5
E2
  8
0
  6
BYBLOCK
 62
     9
 10
8643.5
 20
92945.071679
 30
0.0
 11
8652.166667
 21
92945.071679
 31
0.0
  0
LINE
  5
E3
  8
0
  6
BYBLOCK
 62
     9
 10
8756.5
 20
92945.071679
 30
0.0
 11
8747.833333
 21
92945.071679
 31
0.0
  0
TEXT
  5
E4
  8
0
  6
BYBLOCK
 62
    11
 10
8659.166667
 20
92927.571679
 30
0.0
 40
35.0
  1
153
  0
SOLID
  5
E5
  8
0
  6
BYBLOCK
 62
     9
 10
8643.5
 20
92948.405013
 30
0.0
 11
8643.5
 21
92941.738346
 31
0.0
 12
8623.5
 22
92945.071679
 32
0.0
 13
8623.5
 23
92945.071679
 33
0.0
  0
SOLID
  5
E6
  8
0
  6
BYBLOCK
 62
     9
 10
8756.5
 20
92948.405013
 30
0.0
 11
8756.5
 21
92941.738346
 31
0.0
 12
8776.5
 22
92945.071679
 32
0.0
 13
8776.5
 23
92945.071679
 33
0.0
  0
POINT
  5
E7
  8
DEFPOINTS
  6
BYBLOCK
 62
     0
 10
8623.5
 20
93020.0
 30
0.0
  0
POINT
  5
E8
  8
DEFPOINTS
  6
BYBLOCK
 62
     0
 10
8776.5
 20
93020.0
 30
0.0
  0
POINT
  5
E9
  8
DEFPOINTS
  6
BYBLOCK
 62
     0
 10
8776.5
 20
92945.071679
 30
0.0
  0
ENDBLK
  5
EB
  8
0
  0
ENDSEC
  0
SECTION
  2
ENTITIES
  0
DIMENSION
  5
20
  8
TEAM-MAS
  2
*D13
 10
1050.0
 20
1062.532451
 30
0.0
 11
0.0
 21
1062.532451
 31
0.0
 12
-8000.0
 22
-92000.0
 32
0.0
 13
-1050.0
 23
842.003237
 33
0.0
 14
1050.0
 24
842.003237
 34
0.0
  0
DIMENSION
  5
2F
  8
TEAM-MAS
  2
*D12
 10
1106.419463
 20
592.0
 30
0.0
 11
1083.631782
 21
701.5
 31
0.0
 12
-8000.0
 22
-92000.0
 32
0.0
 70
   128
 13
1047.534952
 23
800.0
 33
0.0
 14
-9.032239
 24
592.0
 34
0.0
 50
90.0
  0
DIMENSION
  5
3D
  8
TEAM-MAS
  2
*D11
 10
1154.379213
 20
460.0
 30
0.0
 11
1154.379213
 21
645.5
 31
0.0
 12
-8000.0
 22
-92000.0
 32
0.0
 70
   128
 13
1020.990976
 23
800.0
 33
0.0
 14
-9.032239
 24
460.0
 34
0.0
 50
90.0
  0
DIMENSION
  5
4B
  8
TEAM-MAS
  2
*D10
 10
1154.379213
 20
460.0
 30
0.0
 11
1154.379213
 21
230.0
 31
0.0
 12
-8000.0
 22
-92000.0
 32
0.0
  1
300-500
 13
-9.032239
 23
0.0
 33
0.0
 14
-9.032239
 24
460.0
 34
0.0
 50
90.0
  0
DIMENSION
  5
59
  8
TEAM-MAS
  2
*D9
 10
1106.419463
 20
460.0
 30
0.0
 11
1106.419463
 21
230.0
 31
0.0
 12
-8000.0
 22
-92000.0
 32
0.0
 13
-9.032239
 23
0.0
 33
0.0
 14
-9.032239
 24
460.0
 34
0.0
 50
90.0
  0
DIMENSION
  5
67
  8
TEAM-MAS
  2
*D8
 10
1200.618506
 20
800.0
 30
0.0
 11
1200.618506
 21
400.0
 31
0.0
 12
-8000.0
 22
-92000.0
 32
0.0
 13
-9.032239
 23
0.0
 33
0.0
 14
1037.534952
 24
800.0
 34
0.0
 50
90.0
  0
DIMENSION
  5
75
  8
TEAM-MAS
  2
*D7
 10
1246.857798
 20
800.0
 30
0.0
 11
1246.857798
 21
400.0
 31
0.0
 12
-8000.0
 22
-92000.0
 32
0.0
  1
600-850
 13
-9.032239
 23
0.0
 33
0.0
 14
1037.534952
 24
800.0
 34
0.0
 50
90.0
  0
DIMENSION
  5
83
  8
TEAM-MAS
  2
*D6
 10
1294.817549
 20
1020.0
 30
0.0
 11
1294.817549
 21
550.0
 31
0.0
 12
-8000.0
 22
-92000.0
 32
0.0
 70
   128
 13
-9.032239
 23
0.0
 33
0.0
 14
776.5
 24
1020.0
 34
0.0
 50
90.0
  0
DIMENSION
  5
91
  8
TEAM-MAS
  2
*D5
 10
1339.337369
 20
1020.0
 30
0.0
 11
1339.337369
 21
550.0
 31
0.0
 12
-8000.0
 22
-92000.0
 32
0.0
 70
   128
  1
950-1200
 13
-9.032239
 23
0.0
 33
0.0
 14
776.5
 24
1020.0
 34
0.0
 50
90.0
  0
ARC
  5
9F
  8
TEAM-BODY
 10
907.52086
 20
700.331813
 30
0.0
 40
108.589683
 50
273.949387
 51
8.201286
  0
LINE
  5
A1
  8
TEAM-BODY
 10
1050.0
 20
842.003237
 30
0.0
 11
-1050.0
 21
842.003237
 31
0.0
  0
LINE
  5
A2
  8
TEAM-BODY
 10
1050.0
 20
800.0
 30
0.0
 11
-1050.0
 21
800.0
 31
0.0
  0
LINE
  5
A3
  8
TEAM-BODY
 10
1050.0
 20
715.822257
 30
0.0
 11
-1050.0
 21
715.822257
 31
0.0
  0
DIMENSION
  5
A4
  8
TEAM-MAS
  2
*D17
 10
-623.5
 20
945.071679
 30
0.0
 11
-700.0
 21
945.071679
 31
0.0
 12
-8000.0
 22
-92000.0
 32
0.0
 70
   128
 13
-776.5
 23
1020.0
 33
0.0
 14
-623.5
 24
1020.0
 34
0.0
  0
DIMENSION
  5
B2
  8
TEAM-MAS
  2
*D16
 10
0.0
 20
982.427183
 30
0.0
 11
-350.0
 21
982.427183
 31
0.0
 12
-8000.0
 22
-92000.0
 32
0.0
 13
-700.0
 23
1040.0
 33
0.0
 14
0.0
 24
1040.0
 34
0.0
  0
DIMENSION
  5
C0
  8
TEAM-MAS
  2
*D14
 10
0.0
 20
882.444865
 30
0.0
 11
-455.0
 21
882.444865
 31
0.0
 12
-8000.0
 22
-92000.0
 32
0.0
 13
-910.0
 23
756.0
 33
0.0
 14
0.0
 24
826.576435
 34
0.0
1001
ACAD
1000
DSTYLE
1002
{
1070
    40
1040
1.0
1002
}
  0
LINE
  5
CE
  8
TEAM-AXE
 10
-720.0
 20
1020.0
 30
0.0
 11
-680.0
 21
1020.0
 31
0.0
  0
LINE
  5
D1
  8
TEAM-BODY
 10
-915.0
 20
592.0
 30
0.0
 11
915.0
 21
592.0
 31
0.0
  0
LINE
  5
D2
  8
TEAM-BODY
 10
-1050.0
 20
842.003237
 30
0.0
 11
-1050.0
 21
715.822257
 31
0.0
  0
LINE
  5
D3
  8
TEAM-AXE
 10
-776.5
 20
1000.0
 30
0.0
 11
-776.5
 21
1040.0
 31
0.0
  0
LINE
  5
D4
  8
TEAM-AXE
 10
-796.5
 20
1020.0
 30
0.0
 11
-756.5
 21
1020.0
 31
0.0
  0
CIRCLE
  5
D5
  8
TEAM-WARM
 10
-776.5
 20
1020.0
 30
0.0
 40
15.0
  0
ARC
  5
D7
  8
TEAM-BODY
 10
-907.52086
 20
700.331813
 30
0.0
 40
108.589683
 50
171.798714
 51
266.050613
  0
CIRCLE
  5
D8
  8
TEAM-HIDE
 10
-910.0
 20
750.0
 30
0.0
 40
5.0
  0
LINE
  5
DB
  8
TEAM-AXE
 10
-910.0
 20
756.0
 30
0.0
 11
-910.0
 21
744.0
 31
0.0
  0
LINE
  5
DC
  8
TEAM-AXE
 10
-916.0
 20
750.0
 30
0.0
 11
-904.0
 21
750.0
 31
0.0
  0
LINE
  5
DD
  8
TEAM-AXE
 10
-700.0
 20
1000.0
 30
0.0
 11
-700.0
 21
1040.0
 31
0.0
  0
DIMENSION
  5
DE
  8
TEAM-MAS
  2
*D19
 10
776.5
 20
945.071679
 30
0.0
 11
700.0
 21
945.071679
 31
0.0
 12
-8000.0
 22
-92000.0
 32
0.0
 70
   128
 13
623.5
 23
1020.0
 33
0.0
 14
776.5
 24
1020.0
 34
0.0
  0
DIMENSION
  5
EC
  8
TEAM-MAS
  2
*D15
 10
-600.0
 20
321.707486
 30
0.0
 11
-300.0
 21
321.707486
 31
0.0
 12
-8000.0
 22
-92000.0
 32
0.0
 13
0.0
 23
430.0
 33
0.0
 14
-600.0
 24
552.0
 34
0.0
1001
ACAD
1000
DSTYLE
1002
{
1070
    40
1040
1.0
1002
}
  0
DIMENSION
  5
FA
  8
TEAM-MAS
  2
*D4
 10
100.0
 20
258.30533
 30
0.0
 11
0.0
 21
258.30533
 31
0.0
 12
-8000.0
 22
-92000.0
 32
0.0
 13
-100.0
 23
555.0
 33
0.0
 14
100.0
 24
555.0
 34
0.0
  0
DIMENSION
  5
108
  8
TEAM-MAS
  2
*D3
 10
76.5
 20
945.071679
 30
0.0
 11
0.0
 21
945.071679
 31
0.0
 12
-8000.0
 22
-92000.0
 32
0.0
 70
   128
 13
-76.5
 23
1020.0
 33
0.0
 14
76.5
 24
1020.0
 34
0.0
  0
DIMENSION
  5
116
  8
TEAM-MAS
  2
*D2
 10
600.0
 20
321.707486
 30
0.0
 11
300.0
 21
321.707486
 31
0.0
 12
-8000.0
 22
-92000.0
 32
0.0
 13
0.0
 23
430.0
 33
0.0
 14
600.0
 24
552.0
 34
0.0
1001
ACAD
1000
DSTYLE
1002
{
1070
    40
1040
1.0
1002
}
  0
DIMENSION
  5
124
  8
TEAM-MAS
  2
*D1
 10
700.0
 20
982.427183
 30
0.0
 11
350.0
 21
982.427183
 31
0.0
 12
-8000.0
 22
-92000.0
 32
0.0
 13
0.0
 23
1040.0
 33
0.0
 14
700.0
 24
1040.0
 34
0.0
  0
DIMENSION
  5
132
  8
TEAM-MAS
  2
*D0
 10
0.0
 20
882.444865
 30
0.0
 11
455.0
 21
882.444865
 31
0.0
 12
-8000.0
 22
-92000.0
 32
0.0
 13
910.0
 23
756.0
 33
0.0
 14
0.0
 24
826.576435
 34
0.0
1001
ACAD
1000
DSTYLE
1002
{
1070
    40
1040
1.0
1002
}
  0
LINE
  5
140
  8
TEAM-AXE
 10
916.0
 20
750.0
 30
0.0
 11
904.0
 21
750.0
 31
0.0
  0
CIRCLE
  5
141
  8
TEAM-HIDE
 10
910.0
 20
750.0
 30
0.0
 40
5.0
  0
LINE
  5
142
  8
TEAM-AXE
 10
776.5
 20
1000.0
 30
0.0
 11
776.5
 21
1040.0
 31
0.0
  0
LINE
  5
143
  8
TEAM-AXE
 10
680.0
 20
1020.0
 30
0.0
 11
720.0
 21
1020.0
 31
0.0
  0
LINE
  5
144
  8
TEAM-AXE
 10
700.0
 20
1000.0
 30
0.0
 11
700.0
 21
1040.0
 31
0.0
  0
CIRCLE
  5
145
  8
TEAM-WARM
 10
623.5
 20
1020.0
 30
0.0
 40
15.0
  0
LINE
  5
146
  8
TEAM-AXE
 10
603.5
 20
1020.0
 30
0.0
 11
643.5
 21
1020.0
 31
0.0
  0
LINE
  5
147
  8
TEAM-AXE
 10
623.5
 20
1000.0
 30
0.0
 11
623.5
 21
1040.0
 31
0.0
  0
CIRCLE
  5
148
  8
TEAM-COLD
 10
776.5
 20
1020.0
 30
0.0
 40
15.0
  0
LINE
  5
14A
  8
TEAM-AXE
 10
756.5
 20
1020.0
 30
0.0
 11
796.5
 21
1020.0
 31
0.0
  0
CIRCLE
  5
14B
  8
TEAM-HIDE
 10
600.0
 20
558.0
 30
0.0
 40
5.0
  0
LINE
  5
14C
  8
TEAM-AXE
 10
600.0
 20
564.0
 30
0.0
 11
600.0
 21
552.0
 31
0.0
  0
LINE
  5
14D
  8
TEAM-AXE
 10
606.0
 20
558.0
 30
0.0
 11
594.0
 21
558.0
 31
0.0
  0
LINE
  5
14E
  8
TEAM-AXE
 10
910.0
 20
756.0
 30
0.0
 11
910.0
 21
744.0
 31
0.0
  0
POLYLINE
  5
14F
  8
TEAM-BODY
 66
     1
 10
0.0
 20
0.0
 30
0.0
  0
VERTEX
  5
1EE
  8
TEAM-BODY
 10
625.0
 20
592.0
 30
0.0
  0
VERTEX
  5
1EF
  8
TEAM-BODY
 10
625.0
 20
534.402371
 30
0.0
  0
VERTEX
  5
1F0
  8
TEAM-BODY
 10
575.0
 20
534.402371
 30
0.0
  0
VERTEX
  5
1F1
  8
TEAM-BODY
 10
575.0
 20
592.0
 30
0.0
  0
SEQEND
  5
1F2
  8
TEAM-BODY
  0
CIRCLE
  5
150
  8
TEAM-COLD
 10
76.5
 20
1020.0
 30
0.0
 40
15.0
  0
LINE
  5
151
  8
TEAM-AXE
 10
76.5
 20
1000.0
 30
0.0
 11
76.5
 21
1040.0
 31
0.0
  0
LINE
  5
152
  8
TEAM-COLD
 10
90.0
 20
555.0
 30
0.0
 11
110.0
 21
555.0
 31
0.0
  0
LINE
  5
153
  8
TEAM-COLD
 10
90.0
 20
592.0
 30
0.0
 11
90.0
 21
555.0
 31
0.0
  0
LINE
  5
154
  8
TEAM-AXE
 10
100.0
 20
592.0
 30
0.0
 11
100.0
 21
555.0
 31
0.0
  0
LINE
  5
155
  8
TEAM-COLD
 10
110.0
 20
592.0
 30
0.0
 11
110.0
 21
555.0
 31
0.0
  0
LINE
  5
156
  8
TEAM-AXE
 10
0.0
 20
826.576435
 30
0.0
 11
0.0
 21
555.0
 31
0.0
  0
LINE
  5
157
  8
TEAM-DET1
 10
-21.0
 20
515.0
 30
0.0
 11
-21.0
 21
365.0
 31
0.0
  0
LINE
  5
159
  8
TEAM-DET1
 10
21.0
 20
515.0
 30
0.0
 11
21.0
 21
365.0
 31
0.0
  0
CIRCLE
  5
15A
  8
TEAM-KAN
 10
0.0
 20
460.0
 30
0.0
 40
20.0
  0
LINE
  5
15C
  8
TEAM-AXE
 10
0.0
 20
430.0
 30
0.0
 11
0.0
 21
490.0
 31
0.0
  0
LINE
  5
15D
  8
TEAM-DET1
 10
-21.0
 20
365.0
 30
0.0
 11
21.0
 21
365.0
 31
0.0
  0
CIRCLE
  5
15E
  8
TEAM-WARM
 10
-76.5
 20
1020.0
 30
0.0
 40
15.0
  0
LINE
  5
15F
  8
TEAM-AXE
 10
-96.5
 20
1020.0
 30
0.0
 11
-56.5
 21
1020.0
 31
0.0
  0
LINE
  5
160
  8
TEAM-AXE
 10
-20.0
 20
1020.0
 30
0.0
 11
20.0
 21
1020.0
 31
0.0
  0
LINE
  5
161
  8
TEAM-AXE
 10
0.0
 20
1000.0
 30
0.0
 11
0.0
 21
1040.0
 31
0.0
  0
LINE
  5
162
  8
TEAM-AXE
 10
-76.5
 20
1000.0
 30
0.0
 11
-76.5
 21
1040.0
 31
0.0
  0
LINE
  5
163
  8
TEAM-DET1
 10
-21.0
 20
515.0
 30
0.0
 11
21.0
 21
515.0
 31
0.0
  0
LINE
  5
164
  8
TEAM-AXE
 10
6.0
 20
750.0
 30
0.0
 11
-6.0
 21
750.0
 31
0.0
  0
LINE
  5
165
  8
TEAM-AXE
 10
0.0
 20
756.0
 30
0.0
 11
0.0
 21
744.0
 31
0.0
  0
CIRCLE
  5
166
  8
TEAM-HIDE
 10
0.0
 20
750.0
 30
0.0
 40
5.0
  0
LINE
  5
167
  8
TEAM-WARM
 10
-110.0
 20
555.0
 30
0.0
 11
-90.0
 21
555.0
 31
0.0
  0
LINE
  5
168
  8
TEAM-AXE
 10
-30.0
 20
460.0
 30
0.0
 11
30.0
 21
460.0
 31
0.0
  0
LINE
  5
169
  8
TEAM-BODY
 10
-21.0
 20
555.0
 30
0.0
 11
21.0
 21
555.0
 31
0.0
  0
LINE
  5
16A
  8
TEAM-BODY
 10
21.0
 20
592.0
 30
0.0
 11
21.0
 21
555.0
 31
0.0
  0
LINE
  5
16B
  8
TEAM-BODY
 10
-21.0
 20
592.0
 30
0.0
 11
-21.0
 21
555.0
 31
0.0
  0
LINE
  5
16C
  8
TEAM-BODY
 10
0.0
 20
515.0
 30
0.0
 11
0.0
 21
592.0
 31
0.0
  0
LINE
  5
16D
  8
TEAM-AXE
 10
-100.0
 20
592.0
 30
0.0
 11
-100.0
 21
555.0
 31
0.0
  0
LINE
  5
16E
  8
TEAM-WARM
 10
-90.0
 20
592.0
 30
0.0
 11
-90.0
 21
555.0
 31
0.0
  0
LINE
  5
16F
  8
TEAM-WARM
 10
-110.0
 20
592.0
 30
0.0
 11
-110.0
 21
555.0
 31
0.0
  0
LINE
  5
170
  8
TEAM-AXE
 10
-623.5
 20
1000.0
 30
0.0
 11
-623.5
 21
1040.0
 31
0.0
  0
LINE
  5
171
  8
TEAM-AXE
 10
-643.5
 20
1020.0
 30
0.0
 11
-603.5
 21
1020.0
 31
0.0
  0
CIRCLE
  5
172
  8
TEAM-COLD
 10
-623.5
 20
1020.0
 30
0.0
 40
15.0
  0
LINE
  5
173
  8
TEAM-AXE
 10
-606.0
 20
558.0
 30
0.0
 11
-594.0
 21
558.0
 31
0.0
  0
LINE
  5
174
  8
TEAM-AXE
 10
-600.0
 20
564.0
 30
0.0
 11
-600.0
 21
552.0
 31
0.0
  0
CIRCLE
  5
175
  8
TEAM-HIDE
 10
-600.0
 20
558.0
 30
0.0
 40
5.0
  0
POLYLINE
  5
176
  8
TEAM-BODY
 66
     1
 10
0.0
 20
0.0
 30
0.0
  0
VERTEX
  5
1F3
  8
TEAM-BODY
 10
-625.0
 20
592.0
 30
0.0
  0
VERTEX
  5
1F4
  8
TEAM-BODY
 10
-625.0
 20
534.402371
 30
0.0
  0
VERTEX
  5
1F5
  8
TEAM-BODY
 10
-575.0
 20
534.402371
 30
0.0
  0
VERTEX
  5
1F6
  8
TEAM-BODY
 10
-575.0
 20
592.0
 30
0.0
  0
SEQEND
  5
1F7
  8
TEAM-BODY
  0
CIRCLE
  5
177
  8
TEAM-INSP
 10
0.0
 20
0.0
 30
0.0
 40
10.0
  0
LINE
  5
179
  8
TEAM-AXE
 10
56.5
 20
1020.0
 30
0.0
 11
96.5
 21
1020.0
 31
0.0
  0
TEXT
  5
17A
  8
TEAM-TXT
 10
-113.427831
 20
620.591986
 30
0.0
 40
30.0
  1
team 421044
 41
0.8
 51
15.0
  7
TEAM
  0
DIMENSION
  5
17D
  8
TEAM-MAS
  2
*D18
 10
1106.419463
 20
800.0
 30
0.0
 11
1106.419463
 21
907.956844
 31
0.0
 12
-8000.0
 22
-92000.0
 32
0.0
 70
   128
 13
1050.0
 23
842.003237
 33
0.0
 14
1047.534952
 24
800.0
 34
0.0
 50
90.0
1001
ACAD
1000
DSTYLE
1002
{
1070
    40
1040
1.0
1002
}
  0
LINE
  5
18C
  8
TEAM-BODY
 10
1050.0
 20
842.003237
 30
0.0
 11
1050.0
 21
715.822257
 31
0.0
  0
ENDSEC
  0
EOF
