  0
SECTION
  2
HEADER
  9
$ACADVER
  1
AC1009
  9
$INSBASE
 10
0.0
 20
0.0
 30
0.0
  9
$EXTMIN
 10
-798.43155
 20
-10.067943
 30
-20.000243
  9
$EXTMAX
 10
998.186042
 20
992.966843
 30
20.001384
  9
$LIMMIN
 10
-798.43155
 20
-10.067943
  9
$LIMMAX
 10
998.186042
 20
992.966843
  9
$ORTHOMODE
 70
     1
  9
$REGENMODE
 70
     1
  9
$FILLMODE
 70
     1
  9
$QTEXTMODE
 70
     0
  9
$MIRRTEXT
 70
     0
  9
$DRAGMODE
 70
     2
  9
$LTSCALE
 40
50.0
  9
$OSMODE
 70
     0
  9
$ATTMODE
 70
     1
  9
$TEXTSIZE
 40
200.0
  9
$TRACEWID
 40
1.0
  9
$TEXTSTYLE
  7
STANDARD
  9
$CLAYER
  8
TEAM-MAS
  9
$CELTYPE
  6
BYLAYER
  9
$CECOLOR
 62
   256
  9
$DIMSCALE
 40
0.0
  9
$DIMASZ
 40
20.0
  9
$DIMEXO
 40
10.0
  9
$DIMDLI
 40
1.0
  9
$DIMRND
 40
0.0
  9
$DIMDLE
 40
0.0
  9
$DIMEXE
 40
1.0
  9
$DIMTP
 40
0.0
  9
$DIMTM
 40
0.0
  9
$DIMTXT
 40
35.0
  9
$DIMCEN
 40
1.0
  9
$DIMTSZ
 40
0.0
  9
$DIMTOL
 70
     0
  9
$DIMLIM
 70
     0
  9
$DIMTIH
 70
     0
  9
$DIMTOH
 70
     0
  9
$DIMSE1
 70
     0
  9
$DIMSE2
 70
     0
  9
$DIMTAD
 70
     0
  9
$DIMZIN
 70
     0
  9
$DIMBLK
  1

  9
$DIMASO
 70
     1
  9
$DIMSHO
 70
     0
  9
$DIMPOST
  1

  9
$DIMAPOST
  1

  9
$DIMALT
 70
     0
  9
$DIMALTD
 70
     2
  9
$DIMALTF
 40
25.4
  9
$DIMLFAC
 40
1.0
  9
$DIMTOFL
 70
     0
  9
$DIMTVP
 40
0.0
  9
$DIMTIX
 70
     0
  9
$DIMSOXD
 70
     0
  9
$DIMSAH
 70
     0
  9
$DIMBLK1
  1

  9
$DIMBLK2
  1

  9
$DIMSTYLE
  2
TEAM
  9
$DIMCLRD
 70
     9
  9
$DIMCLRE
 70
     9
  9
$DIMCLRT
 70
    11
  9
$DIMTFAC
 40
1.0
  9
$DIMGAP
 40
7.0
  9
$LUNITS
 70
     2
  9
$LUPREC
 70
     1
  9
$SKETCHINC
 40
1.0
  9
$FILLETRAD
 40
50.0
  9
$AUNITS
 70
     0
  9
$AUPREC
 70
     0
  9
$MENU
  1
ROPLANS
  9
$ELEVATION
 40
0.0
  9
$PELEVATION
 40
0.0
  9
$THICKNESS
 40
0.0
  9
$LIMCHECK
 70
     0
  9
$BLIPMODE
 70
     1
  9
$CHAMFERA
 40
0.0
  9
$CHAMFERB
 40
0.0
  9
$SKPOLY
 70
     0
  9
$TDCREATE
 40
2450392.957851
  9
$TDUPDATE
 40
2456272.033233
  9
$TDINDWG
 40
2.315654
  9
$TDUSRTIMER
 40
2.315654
  9
$USRTIMER
 70
     1
  9
$ANGBASE
 50
0.0
  9
$ANGDIR
 70
     0
  9
$PDMODE
 70
     0
  9
$PDSIZE
 40
0.0
  9
$PLINEWID
 40
0.0
  9
$COORDS
 70
     2
  9
$SPLFRAME
 70
     0
  9
$SPLINETYPE
 70
     6
  9
$SPLINESEGS
 70
     8
  9
$ATTDIA
 70
     0
  9
$ATTREQ
 70
     0
  9
$HANDLING
 70
     1
  9
$HANDSEED
  5
1E7
  9
$SURFTAB1
 70
    24
  9
$SURFTAB2
 70
    24
  9
$SURFTYPE
 70
     6
  9
$SURFU
 70
     6
  9
$SURFV
 70
     6
  9
$UCSNAME
  2

  9
$UCSORG
 10
0.0
 20
0.0
 30
0.0
  9
$UCSXDIR
 10
1.0
 20
0.0
 30
0.0
  9
$UCSYDIR
 10
0.0
 20
1.0
 30
0.0
  9
$PUCSNAME
  2

  9
$PUCSORG
 10
0.0
 20
0.0
 30
0.0
  9
$PUCSXDIR
 10
1.0
 20
0.0
 30
0.0
  9
$PUCSYDIR
 10
0.0
 20
1.0
 30
0.0
  9
$USERI1
 70
     0
  9
$USERI2
 70
     0
  9
$USERI3
 70
     0
  9
$USERI4
 70
     0
  9
$USERI5
 70
     0
  9
$USERR1
 40
0.0
  9
$USERR2
 40
0.0
  9
$USERR3
 40
0.0
  9
$USERR4
 40
0.0
  9
$USERR5
 40
0.0
  9
$WORLDVIEW
 70
     1
  9
$SHADEDGE
 70
     0
  9
$SHADEDIF
 70
    70
  9
$TILEMODE
 70
     1
  9
$MAXACTVP
 70
    16
  9
$PLIMCHECK
 70
     0
  9
$PEXTMIN
 10
-0.805942
 20
0.005011
 30
0.0
  9
$PEXTMAX
 10
20.250094
 20
11.356329
 30
0.0
  9
$PLIMMIN
 10
0.0
 20
0.0
  9
$PLIMMAX
 10
12.0
 20
9.0
  9
$UNITMODE
 70
     0
  9
$VISRETAIN
 70
     0
  9
$PLINEGEN
 70
     0
  9
$PSLTSCALE
 70
     0
  0
ENDSEC
  0
SECTION
  2
TABLES
  0
TABLE
  2
VPORT
 70
     2
  0
VPORT
  2
*ACTIVE
 70
     0
 10
0.0
 20
0.0
 11
1.0
 21
1.0
 12
99.877246
 22
491.44945
 13
0.0
 23
0.0
 14
1.0
 24
1.0
 15
50.0
 25
50.0
 16
0.0
 26
0.0
 36
1.0
 17
0.0
 27
0.0
 37
0.0
 40
1009.349801
 41
1.911765
 42
50.0
 43
0.0
 44
0.0
 50
0.0
 51
0.0
 71
     0
 72
   100
 73
     1
 74
     1
 75
     0
 76
     0
 77
     0
 78
     0
  0
ENDTAB
  0
TABLE
  2
LTYPE
 70
     3
  0
LTYPE
  2
CONTINUOUS
 70
     0
  3
Solid Line
 72
    65
 73
     0
 40
0.0
  0
LTYPE
  2
31
 70
     0
  3

 72
    65
 73
     4
 40
2.1
 49
1.5
 49
-0.3
 49
0.0
 49
-0.3
  0
LTYPE
  2
22
 70
     0
  3

 72
    65
 73
     2
 40
1.4
 49
1.2
 49
-0.2
  0
ENDTAB
  0
TABLE
  2
LAYER
 70
    12
  0
LAYER
  2
0
 70
     0
 62
     7
  6
CONTINUOUS
  0
LAYER
  2
DEFPOINTS
 70
     0
 62
     7
  6
CONTINUOUS
  0
LAYER
  2
TEAM-BODY
 70
     0
 62
     2
  6
CONTINUOUS
  0
LAYER
  2
TEAM-AXE
 70
     0
 62
    10
  6
31
  0
LAYER
  2
TEAM-MAS
 70
     0
 62
     9
  6
CONTINUOUS
  0
LAYER
  2
TEAM-TXT
 70
     0
 62
    11
  6
CONTINUOUS
  0
LAYER
  2
TEAM-COLD
 70
     0
 62
     3
  6
CONTINUOUS
  0
LAYER
  2
TEAM-HIDE
 70
     0
 62
     8
  6
22
  0
LAYER
  2
TEAM-KAN
 70
     0
 62
     6
  6
CONTINUOUS
  0
LAYER
  2
TEAM-DET3
 70
     0
 62
    14
  6
CONTINUOUS
  0
LAYER
  2
TEAM-WARM
 70
     0
 62
     1
  6
CONTINUOUS
  0
LAYER
  2
TEAM-INSP
 70
     0
 62
     5
  6
CONTINUOUS
  0
ENDTAB
  0
TABLE
  2
STYLE
 70
     2
  0
STYLE
  2
STANDARD
 70
     0
 40
0.0
 41
1.0
 50
0.0
 71
     0
 42
200.0
  3
txt
  4

  0
STYLE
  2
TEAM
 70
     0
 40
0.0
 41
0.8
 50
15.0
 71
     0
 42
7.0
  3
ROMANS.shx
  4

  0
ENDTAB
  0
TABLE
  2
VIEW
 70
     0
  0
ENDTAB
  0
TABLE
  2
UCS
 70
     0
  0
ENDTAB
  0
TABLE
  2
APPID
 70
     1
  0
APPID
  2
ACAD
 70
     0
  0
ENDTAB
  0
TABLE
  2
DIMSTYLE
 70
     1
  0
DIMSTYLE
  2
TEAM
 70
     0
  3

  4

  5

  6

  7

 40
0.0
 41
20.0
 42
10.0
 43
1.0
 44
1.0
 45
0.0
 46
0.0
 47
0.0
 48
0.0
140
35.0
141
1.0
142
0.0
143
25.4
144
1.0
145
0.0
146
1.0
147
7.0
 71
     0
 72
     0
 73
     0
 74
     0
 75
     0
 76
     0
 77
     0
 78
     0
170
     0
171
     2
172
     0
173
     0
174
     0
175
     0
176
     9
177
     9
178
    11
  0
ENDTAB
  0
ENDSEC
  0
SECTION
  2
BLOCKS
  0
BLOCK
  8
0
  2
$MODEL_SPACE
 70
     0
 10
0.0
 20
0.0
 30
0.0
  3
$MODEL_SPACE
  1

  0
ENDBLK
  5
1C2
  8
0
  0
BLOCK
 67
     1
  8
0
  2
$PAPER_SPACE
 70
     0
 10
0.0
 20
0.0
 30
0.0
  3
$PAPER_SPACE
  1

  0
ENDBLK
  5
1C0
 67
     1
  8
0
  0
BLOCK
  8
0
  2
*D0
 70
     1
 10
0.0
 20
0.0
 30
0.0
  3
*D0
  1

  0
LINE
  5
77
  8
0
  6
BYBLOCK
 62
     9
 10
8444.949874
 20
112600.0
 30
0.0
 11
8869.017137
 21
112600.0
 31
0.0
  0
LINE
  5
78
  8
0
  6
BYBLOCK
 62
     9
 10
8570.0
 20
112000.0
 30
0.0
 11
8869.017137
 21
112000.0
 31
0.0
  0
LINE
  5
79
  8
0
  6
BYBLOCK
 62
     9
 10
8868.017137
 20
112580.0
 30
0.0
 11
8868.017137
 21
112347.833333
 31
0.0
  0
LINE
  5
7A
  8
0
  6
BYBLOCK
 62
     9
 10
8868.017137
 20
112020.0
 30
0.0
 11
8868.017137
 21
112252.166667
 31
0.0
  0
SOLID
  5
7B
  8
0
  6
BYBLOCK
 62
     9
 10
8864.683804
 20
112580.0
 30
0.0
 11
8871.350471
 21
112580.0
 31
0.0
 12
8868.017137
 22
112600.0
 32
0.0
 13
8868.017137
 23
112600.0
 33
0.0
  0
SOLID
  5
7C
  8
0
  6
BYBLOCK
 62
     9
 10
8864.683804
 20
112020.0
 30
0.0
 11
8871.350471
 21
112020.0
 31
0.0
 12
8868.017137
 22
112000.0
 32
0.0
 13
8868.017137
 23
112000.0
 33
0.0
  0
TEXT
  5
7D
  8
0
  6
BYBLOCK
 62
    11
 10
8885.517137
 20
112259.166667
 30
0.0
 40
35.0
  1
600
 50
90.0
  0
POINT
  5
7E
  8
DEFPOINTS
  6
BYBLOCK
 62
     0
 10
8434.949874
 20
112600.0
 30
0.0
  0
POINT
  5
7F
  8
DEFPOINTS
  6
BYBLOCK
 62
     0
 10
8560.0
 20
112000.0
 30
10.0
  0
POINT
  5
80
  8
DEFPOINTS
  6
BYBLOCK
 62
     0
 10
8868.017137
 20
112000.0
 30
20.0
  0
ENDBLK
  5
82
  8
0
  0
BLOCK
  8
0
  2
*D1
 70
     1
 10
0.0
 20
0.0
 30
0.0
  3
*D1
  1

  0
LINE
  5
69
  8
0
  6
BYBLOCK
 62
     9
 10
8360.0
 20
112850.0
 30
0.0
 11
8928.152933
 21
112850.0
 31
0.0
  0
LINE
  5
6A
  8
0
  6
BYBLOCK
 62
     9
 10
8380.0
 20
112530.0
 30
0.0
 11
8928.152933
 21
112530.0
 31
0.0
  0
LINE
  5
6B
  8
0
  6
BYBLOCK
 62
     9
 10
8927.152933
 20
112830.0
 30
0.0
 11
8927.152933
 21
112740.75
 31
0.0
  0
LINE
  5
6C
  8
0
  6
BYBLOCK
 62
     9
 10
8927.152933
 20
112550.0
 30
0.0
 11
8927.152933
 21
112639.25
 31
0.0
  0
SOLID
  5
6D
  8
0
  6
BYBLOCK
 62
     9
 10
8923.8196
 20
112830.0
 30
0.0
 11
8930.486266
 21
112830.0
 31
0.0
 12
8927.152933
 22
112850.0
 32
0.0
 13
8927.152933
 23
112850.0
 33
0.0
  0
SOLID
  5
6E
  8
0
  6
BYBLOCK
 62
     9
 10
8923.8196
 20
112550.0
 30
0.0
 11
8930.486266
 21
112550.0
 31
0.0
 12
8927.152933
 22
112530.0
 32
0.0
 13
8927.152933
 23
112530.0
 33
0.0
  0
TEXT
  5
6F
  8
0
  6
BYBLOCK
 62
    11
 10
8944.652933
 20
112646.25
 30
0.0
 40
35.0
  1
320
 50
90.0
  0
POINT
  5
70
  8
DEFPOINTS
  6
BYBLOCK
 62
     0
 10
8350.0
 20
112850.0
 30
10.0
  0
POINT
  5
71
  8
DEFPOINTS
  6
BYBLOCK
 62
     0
 10
8370.0
 20
112530.0
 30
10.0
  0
POINT
  5
72
  8
DEFPOINTS
  6
BYBLOCK
 62
     0
 10
8927.152933
 20
112530.0
 30
20.0
  0
ENDBLK
  5
74
  8
0
  0
BLOCK
  8
0
  2
*D2
 70
     1
 10
0.0
 20
0.0
 30
0.0
  3
*D2
  1

  0
LINE
  5
5B
  8
0
  6
BYBLOCK
 62
     9
 10
8380.0
 20
112530.0
 30
0.0
 11
8928.152933
 21
112530.0
 31
0.0
  0
LINE
  5
5C
  8
0
  6
BYBLOCK
 62
     9
 10
8510.0
 20
112000.0
 30
0.0
 11
8928.152933
 21
112000.0
 31
0.0
  0
LINE
  5
5D
  8
0
  6
BYBLOCK
 62
     9
 10
8927.152933
 20
112510.0
 30
0.0
 11
8927.152933
 21
112315.75
 31
0.0
  0
LINE
  5
5E
  8
0
  6
BYBLOCK
 62
     9
 10
8927.152933
 20
112020.0
 30
0.0
 11
8927.152933
 21
112214.25
 31
0.0
  0
SOLID
  5
5F
  8
0
  6
BYBLOCK
 62
     9
 10
8923.8196
 20
112510.0
 30
0.0
 11
8930.486266
 21
112510.0
 31
0.0
 12
8927.152933
 22
112530.0
 32
0.0
 13
8927.152933
 23
112530.0
 33
0.0
  0
SOLID
  5
60
  8
0
  6
BYBLOCK
 62
     9
 10
8923.8196
 20
112020.0
 30
0.0
 11
8930.486266
 21
112020.0
 31
0.0
 12
8927.152933
 22
112000.0
 32
0.0
 13
8927.152933
 23
112000.0
 33
0.0
  0
TEXT
  5
61
  8
0
  6
BYBLOCK
 62
    11
 10
8944.652933
 20
112221.25
 30
0.0
 40
35.0
  1
530
 50
90.0
  0
POINT
  5
62
  8
DEFPOINTS
  6
BYBLOCK
 62
     0
 10
8370.0
 20
112530.0
 30
10.0
  0
POINT
  5
63
  8
DEFPOINTS
  6
BYBLOCK
 62
     0
 10
8500.0
 20
112000.0
 30
20.0
  0
POINT
  5
64
  8
DEFPOINTS
  6
BYBLOCK
 62
     0
 10
8927.152933
 20
112000.0
 30
10.0
  0
ENDBLK
  5
66
  8
0
  0
BLOCK
  8
0
  2
*D3
 70
     1
 10
0.0
 20
0.0
 30
0.0
  3
*D3
  1

  0
LINE
  5
4D
  8
0
  6
BYBLOCK
 62
     9
 10
7575.0
 20
112579.783522
 30
0.0
 11
7575.0
 21
112450.0
 31
0.0
  0
LINE
  5
4E
  8
0
  6
BYBLOCK
 62
     9
 10
7725.0
 20
112580.0
 30
0.0
 11
7725.0
 21
112450.0
 31
0.0
  0
LINE
  5
4F
  8
0
  6
BYBLOCK
 62
     9
 10
7595.0
 20
112451.0
 30
0.0
 11
7605.083333
 21
112451.0
 31
0.0
  0
LINE
  5
50
  8
0
  6
BYBLOCK
 62
     9
 10
7705.0
 20
112451.0
 30
0.0
 11
7694.916667
 21
112451.0
 31
0.0
  0
TEXT
  5
51
  8
0
  6
BYBLOCK
 62
    11
 10
7612.083333
 20
112433.5
 30
0.0
 40
35.0
  1
150
  0
SOLID
  5
52
  8
0
  6
BYBLOCK
 62
     9
 10
7595.0
 20
112454.333333
 30
0.0
 11
7595.0
 21
112447.666667
 31
0.0
 12
7575.0
 22
112451.0
 32
0.0
 13
7575.0
 23
112451.0
 33
0.0
  0
SOLID
  5
53
  8
0
  6
BYBLOCK
 62
     9
 10
7705.0
 20
112454.333333
 30
0.0
 11
7705.0
 21
112447.666667
 31
0.0
 12
7725.0
 22
112451.0
 32
0.0
 13
7725.0
 23
112451.0
 33
0.0
  0
POINT
  5
54
  8
DEFPOINTS
  6
BYBLOCK
 62
     0
 10
7575.0
 20
112589.783522
 30
20.0
  0
POINT
  5
55
  8
DEFPOINTS
  6
BYBLOCK
 62
     0
 10
7725.0
 20
112590.0
 30
20.0
  0
POINT
  5
56
  8
DEFPOINTS
  6
BYBLOCK
 62
     0
 10
7725.0
 20
112451.0
 30
30.0
  0
ENDBLK
  5
58
  8
0
  0
BLOCK
  8
0
  2
*D4
 70
     1
 10
0.0
 20
0.0
 30
0.0
  3
*D4
  1

  0
LINE
  5
3F
  8
0
  6
BYBLOCK
 62
     9
 10
8275.0
 20
112579.783522
 30
0.0
 11
8275.0
 21
112450.0
 31
0.0
  0
LINE
  5
40
  8
0
  6
BYBLOCK
 62
     9
 10
8425.0
 20
112580.0
 30
0.0
 11
8425.0
 21
112450.0
 31
0.0
  0
LINE
  5
41
  8
0
  6
BYBLOCK
 62
     9
 10
8295.0
 20
112451.0
 30
0.0
 11
8305.083333
 21
112451.0
 31
0.0
  0
LINE
  5
42
  8
0
  6
BYBLOCK
 62
     9
 10
8405.0
 20
112451.0
 30
0.0
 11
8394.916667
 21
112451.0
 31
0.0
  0
TEXT
  5
43
  8
0
  6
BYBLOCK
 62
    11
 10
8312.083333
 20
112433.5
 30
0.0
 40
35.0
  1
150
  0
SOLID
  5
44
  8
0
  6
BYBLOCK
 62
     9
 10
8295.0
 20
112454.333333
 30
0.0
 11
8295.0
 21
112447.666667
 31
0.0
 12
8275.0
 22
112451.0
 32
0.0
 13
8275.0
 23
112451.0
 33
0.0
  0
SOLID
  5
45
  8
0
  6
BYBLOCK
 62
     9
 10
8405.0
 20
112454.333333
 30
0.0
 11
8405.0
 21
112447.666667
 31
0.0
 12
8425.0
 22
112451.0
 32
0.0
 13
8425.0
 23
112451.0
 33
0.0
  0
POINT
  5
46
  8
DEFPOINTS
  6
BYBLOCK
 62
     0
 10
8275.0
 20
112589.783522
 30
20.0
  0
POINT
  5
47
  8
DEFPOINTS
  6
BYBLOCK
 62
     0
 10
8425.0
 20
112590.0
 30
20.0
  0
POINT
  5
48
  8
DEFPOINTS
  6
BYBLOCK
 62
     0
 10
8425.0
 20
112451.0
 30
30.0
  0
ENDBLK
  5
4A
  8
0
  0
BLOCK
  8
0
  2
*D5
 70
     1
 10
0.0
 20
0.0
 30
0.0
  3
*D5
  1

  0
LINE
  5
F9
  8
0
  6
BYBLOCK
 62
     9
 10
7510.0
 20
112824.0
 30
0.0
 11
7510.0
 21
112883.683797
 31
0.0
  0
LINE
  5
FA
  8
0
  6
BYBLOCK
 62
     9
 10
7790.0
 20
112824.0
 30
0.0
 11
7790.0
 21
112883.683797
 31
0.0
  0
LINE
  5
FB
  8
0
  6
BYBLOCK
 62
     9
 10
7530.0
 20
112882.683797
 30
0.0
 11
7599.25
 21
112882.683797
 31
0.0
  0
LINE
  5
FC
  8
0
  6
BYBLOCK
 62
     9
 10
7770.0
 20
112882.683797
 30
0.0
 11
7700.75
 21
112882.683797
 31
0.0
  0
SOLID
  5
FD
  8
0
  6
BYBLOCK
 62
     9
 10
7530.0
 20
112886.01713
 30
0.0
 11
7530.0
 21
112879.350464
 31
0.0
 12
7510.0
 22
112882.683797
 32
0.0
 13
7510.0
 23
112882.683797
 33
0.0
  0
SOLID
  5
FE
  8
0
  6
BYBLOCK
 62
     9
 10
7770.0
 20
112886.01713
 30
0.0
 11
7770.0
 21
112879.350464
 31
0.0
 12
7790.0
 22
112882.683797
 32
0.0
 13
7790.0
 23
112882.683797
 33
0.0
  0
TEXT
  5
FF
  8
0
  6
BYBLOCK
 62
    11
 10
7606.25
 20
112865.183797
 30
0.0
 40
35.0
  1
280
  0
POINT
  5
100
  8
DEFPOINTS
  6
BYBLOCK
 62
     0
 10
7510.0
 20
112814.0
 30
0.0
  0
POINT
  5
101
  8
DEFPOINTS
  6
BYBLOCK
 62
     0
 10
7790.0
 20
112814.0
 30
0.0
  0
POINT
  5
102
  8
DEFPOINTS
  6
BYBLOCK
 62
     0
 10
7790.0
 20
112882.683797
 30
0.0
  0
ENDBLK
  5
104
  8
0
  0
BLOCK
  8
0
  2
*D6
 70
     1
 10
0.0
 20
0.0
 30
0.0
  3
*D6
  1

  0
LINE
  5
85
  8
0
  6
BYBLOCK
 62
     9
 10
8700.0
 20
112860.0
 30
0.0
 11
8700.0
 21
112976.414595
 31
0.0
  0
LINE
  5
86
  8
0
  6
BYBLOCK
 62
     9
 10
7300.0
 20
112860.0
 30
0.0
 11
7300.0
 21
112976.414595
 31
0.0
  0
LINE
  5
87
  8
0
  6
BYBLOCK
 62
     9
 10
8680.0
 20
112975.414595
 30
0.0
 11
8059.5
 21
112975.414595
 31
0.0
  0
LINE
  5
88
  8
0
  6
BYBLOCK
 62
     9
 10
7320.0
 20
112975.414595
 30
0.0
 11
7940.5
 21
112975.414595
 31
0.0
  0
SOLID
  5
89
  8
0
  6
BYBLOCK
 62
     9
 10
8680.0
 20
112978.747929
 30
0.0
 11
8680.0
 21
112972.081262
 31
0.0
 12
8700.0
 22
112975.414595
 32
0.0
 13
8700.0
 23
112975.414595
 33
0.0
  0
SOLID
  5
8A
  8
0
  6
BYBLOCK
 62
     9
 10
7320.0
 20
112978.747929
 30
0.0
 11
7320.0
 21
112972.081262
 31
0.0
 12
7300.0
 22
112975.414595
 32
0.0
 13
7300.0
 23
112975.414595
 33
0.0
  0
TEXT
  5
8B
  8
0
  6
BYBLOCK
 62
    11
 10
7947.5
 20
112957.914595
 30
0.0
 40
35.0
  1
1400
  0
POINT
  5
8C
  8
DEFPOINTS
  6
BYBLOCK
 62
     0
 10
8700.0
 20
112850.0
 30
0.0
  0
POINT
  5
8D
  8
DEFPOINTS
  6
BYBLOCK
 62
     0
 10
7300.0
 20
112850.0
 30
0.0
  0
POINT
  5
8E
  8
DEFPOINTS
  6
BYBLOCK
 62
     0
 10
7300.0
 20
112975.414595
 30
0.0
  0
ENDBLK
  5
90
  8
0
  0
BLOCK
  8
0
  2
*D7
 70
     1
 10
0.0
 20
0.0
 30
0.0
  3
*D7
  1

  0
LINE
  5
EB
  8
0
  6
BYBLOCK
 62
     9
 10
7510.0
 20
112870.911894
 30
0.0
 11
7510.0
 21
112929.073208
 31
0.0
  0
LINE
  5
EC
  8
0
  6
BYBLOCK
 62
     9
 10
8490.0
 20
112870.911894
 30
0.0
 11
8490.0
 21
112929.073208
 31
0.0
  0
LINE
  5
ED
  8
0
  6
BYBLOCK
 62
     9
 10
7530.0
 20
112928.073208
 30
0.0
 11
7949.25
 21
112928.073208
 31
0.0
  0
LINE
  5
EE
  8
0
  6
BYBLOCK
 62
     9
 10
8470.0
 20
112928.073208
 30
0.0
 11
8050.75
 21
112928.073208
 31
0.0
  0
SOLID
  5
EF
  8
0
  6
BYBLOCK
 62
     9
 10
7530.0
 20
112931.406541
 30
0.0
 11
7530.0
 21
112924.739875
 31
0.0
 12
7510.0
 22
112928.073208
 32
0.0
 13
7510.0
 23
112928.073208
 33
0.0
  0
SOLID
  5
F0
  8
0
  6
BYBLOCK
 62
     9
 10
8470.0
 20
112931.406541
 30
0.0
 11
8470.0
 21
112924.739875
 31
0.0
 12
8490.0
 22
112928.073208
 32
0.0
 13
8490.0
 23
112928.073208
 33
0.0
  0
TEXT
  5
F1
  8
0
  6
BYBLOCK
 62
    11
 10
7956.25
 20
112910.573208
 30
0.0
 40
35.0
  1
980
  0
POINT
  5
F2
  8
DEFPOINTS
  6
BYBLOCK
 62
     0
 10
7510.0
 20
112860.911894
 30
0.0
  0
POINT
  5
F3
  8
DEFPOINTS
  6
BYBLOCK
 62
     0
 10
8490.0
 20
112860.911894
 30
0.0
  0
POINT
  5
F4
  8
DEFPOINTS
  6
BYBLOCK
 62
     0
 10
8490.0
 20
112928.073208
 30
0.0
  0
ENDBLK
  5
F6
  8
0
  0
BLOCK
  8
0
  2
*D8
 70
     1
 10
0.0
 20
0.0
 30
0.0
  3
*D8
  1

  0
LINE
  5
96
  8
0
  6
BYBLOCK
 62
     9
 10
7290.0
 20
112850.0
 30
0.0
 11
7247.19466
 21
112850.0
 31
0.0
  0
LINE
  5
97
  8
0
  6
BYBLOCK
 62
     9
 10
7290.0
 20
112790.0
 30
0.0
 11
7247.19466
 21
112790.0
 31
0.0
  0
LINE
  5
98
  8
0
  6
BYBLOCK
 62
     9
 10
7248.19466
 20
112830.0
 30
0.0
 11
7248.19466
 21
112810.0
 31
0.0
  0
TEXT
  5
99
  8
0
  6
BYBLOCK
 62
    11
 10
7236.69466
 20
112793.75
 30
0.0
 40
35.0
  1
60
 50
90.0
  0
SOLID
  5
9A
  8
0
  6
BYBLOCK
 62
     9
 10
7244.861327
 20
112830.0
 30
0.0
 11
7251.527993
 21
112830.0
 31
0.0
 12
7248.19466
 22
112850.0
 32
0.0
 13
7248.19466
 23
112850.0
 33
0.0
  0
SOLID
  5
9B
  8
0
  6
BYBLOCK
 62
     9
 10
7244.861327
 20
112810.0
 30
0.0
 11
7251.527993
 21
112810.0
 31
0.0
 12
7248.19466
 22
112790.0
 32
0.0
 13
7248.19466
 23
112790.0
 33
0.0
  0
POINT
  5
9C
  8
DEFPOINTS
  6
BYBLOCK
 62
     0
 10
7300.0
 20
112850.0
 30
0.0
  0
POINT
  5
9D
  8
DEFPOINTS
  6
BYBLOCK
 62
     0
 10
7300.0
 20
112790.0
 30
0.0
  0
POINT
  5
9E
  8
DEFPOINTS
  6
BYBLOCK
 62
     0
 10
7248.19466
 20
112790.0
 30
0.0
  0
ENDBLK
  5
A0
  8
0
  0
BLOCK
  8
0
  2
*D9
 70
     1
 10
0.0
 20
0.0
 30
0.0
  3
*D9
  1

  0
LINE
  5
31
  8
0
  6
BYBLOCK
 62
     9
 10
8360.0
 20
112850.0
 30
0.0
 11
8810.558925
 21
112850.0
 31
0.0
  0
LINE
  5
32
  8
0
  6
BYBLOCK
 62
     9
 10
8395.0
 20
112725.0
 30
0.0
 11
8810.558925
 21
112725.0
 31
0.0
  0
LINE
  5
33
  8
0
  6
BYBLOCK
 62
     9
 10
8809.558925
 20
112830.0
 30
0.0
 11
8809.558925
 21
112823.0
 31
0.0
  0
LINE
  5
34
  8
0
  6
BYBLOCK
 62
     9
 10
8809.558925
 20
112745.0
 30
0.0
 11
8809.558925
 21
112752.0
 31
0.0
  0
TEXT
  5
35
  8
0
  6
BYBLOCK
 62
    11
 10
8827.058925
 20
112746.666667
 30
0.0
 40
35.0
  1
125
 50
90.0
  0
SOLID
  5
36
  8
0
  6
BYBLOCK
 62
     9
 10
8806.225592
 20
112830.0
 30
0.0
 11
8812.892259
 21
112830.0
 31
0.0
 12
8809.558925
 22
112850.0
 32
0.0
 13
8809.558925
 23
112850.0
 33
0.0
  0
SOLID
  5
37
  8
0
  6
BYBLOCK
 62
     9
 10
8806.225592
 20
112745.0
 30
0.0
 11
8812.892259
 21
112745.0
 31
0.0
 12
8809.558925
 22
112725.0
 32
0.0
 13
8809.558925
 23
112725.0
 33
0.0
  0
POINT
  5
38
  8
DEFPOINTS
  6
BYBLOCK
 62
     0
 10
8350.0
 20
112850.0
 30
0.0
  0
POINT
  5
39
  8
DEFPOINTS
  6
BYBLOCK
 62
     0
 10
8385.0
 20
112725.0
 30
0.0
  0
POINT
  5
3A
  8
DEFPOINTS
  6
BYBLOCK
 62
     0
 10
8809.558925
 20
112725.0
 30
10.0
  0
ENDBLK
  5
3C
  8
0
  0
BLOCK
  8
0
  2
*D10
 70
     1
 10
0.0
 20
0.0
 30
0.0
  3
*D10
  1

  0
LINE
  5
DD
  8
0
  6
BYBLOCK
 62
     9
 10
8444.949874
 20
112600.0
 30
0.0
 11
8869.017137
 21
112600.0
 31
0.0
  0
LINE
  5
DE
  8
0
  6
BYBLOCK
 62
     9
 10
8360.0
 20
112850.0
 30
0.0
 11
8869.017137
 21
112850.0
 31
0.0
  0
LINE
  5
DF
  8
0
  6
BYBLOCK
 62
     9
 10
8868.017137
 20
112620.0
 30
0.0
 11
8868.017137
 21
112674.25
 31
0.0
  0
LINE
  5
E0
  8
0
  6
BYBLOCK
 62
     9
 10
8868.017137
 20
112830.0
 30
0.0
 11
8868.017137
 21
112775.75
 31
0.0
  0
SOLID
  5
E1
  8
0
  6
BYBLOCK
 62
     9
 10
8864.683804
 20
112620.0
 30
0.0
 11
8871.350471
 21
112620.0
 31
0.0
 12
8868.017137
 22
112600.0
 32
0.0
 13
8868.017137
 23
112600.0
 33
0.0
  0
SOLID
  5
E2
  8
0
  6
BYBLOCK
 62
     9
 10
8864.683804
 20
112830.0
 30
0.0
 11
8871.350471
 21
112830.0
 31
0.0
 12
8868.017137
 22
112850.0
 32
0.0
 13
8868.017137
 23
112850.0
 33
0.0
  0
TEXT
  5
E3
  8
0
  6
BYBLOCK
 62
    11
 10
8885.517137
 20
112681.25
 30
0.0
 40
35.0
  1
250
 50
90.0
  0
POINT
  5
E4
  8
DEFPOINTS
  6
BYBLOCK
 62
     0
 10
8434.949874
 20
112600.0
 30
0.0
  0
POINT
  5
E5
  8
DEFPOINTS
  6
BYBLOCK
 62
     0
 10
8350.0
 20
112850.0
 30
0.0
  0
POINT
  5
E6
  8
DEFPOINTS
  6
BYBLOCK
 62
     0
 10
8868.017137
 20
112850.0
 30
0.0
  0
ENDBLK
  5
E8
  8
0
  0
BLOCK
  8
0
  2
*D11
 70
     1
 10
0.0
 20
0.0
 30
0.0
  3
*D11
  1

  0
LINE
  5
CE
  8
0
  6
BYBLOCK
 62
     9
 10
8360.0
 20
112850.0
 30
0.0
 11
8750.897149
 21
112850.0
 31
0.0
  0
LINE
  5
CF
  8
0
  6
BYBLOCK
 62
     9
 10
8525.0
 20
112800.0
 30
0.0
 11
8750.897149
 21
112800.0
 31
0.0
  0
LINE
  5
D0
  8
0
  6
BYBLOCK
 62
     9
 10
8749.897149
 20
112870.0
 30
0.0
 11
8749.897149
 21
112890.0
 31
0.0
  0
LINE
  5
D1
  8
0
  6
BYBLOCK
 62
     9
 10
8749.897149
 20
112780.0
 30
0.0
 11
8749.897149
 21
112760.0
 31
0.0
  0
TEXT
  5
D2
  8
0
  6
BYBLOCK
 62
    11
 10
8764.063816
 20
112876.350618
 30
0.0
 40
35.0
  1
50
 50
90.0
  0
LINE
  5
D3
  8
0
  6
BYBLOCK
 62
     9
 10
8749.897149
 20
112850.0
 30
0.0
 11
8749.897149
 21
112800.0
 31
0.0
  0
SOLID
  5
D4
  8
0
  6
BYBLOCK
 62
     9
 10
8746.563816
 20
112870.0
 30
0.0
 11
8753.230483
 21
112870.0
 31
0.0
 12
8749.897149
 22
112850.0
 32
0.0
 13
8749.897149
 23
112850.0
 33
0.0
  0
SOLID
  5
D5
  8
0
  6
BYBLOCK
 62
     9
 10
8746.563816
 20
112780.0
 30
0.0
 11
8753.230483
 21
112780.0
 31
0.0
 12
8749.897149
 22
112800.0
 32
0.0
 13
8749.897149
 23
112800.0
 33
0.0
  0
POINT
  5
D6
  8
DEFPOINTS
  6
BYBLOCK
 62
     0
 10
8350.0
 20
112850.0
 30
0.0
  0
POINT
  5
D7
  8
DEFPOINTS
  6
BYBLOCK
 62
     0
 10
8515.0
 20
112800.0
 30
0.0
  0
POINT
  5
D8
  8
DEFPOINTS
  6
BYBLOCK
 62
     0
 10
8749.897149
 20
112800.0
 30
0.0
  0
ENDBLK
  5
DA
  8
0
  0
BLOCK
  8
0
  2
*D12
 70
     1
 10
0.0
 20
0.0
 30
0.0
  3
*D12
  1

  0
LINE
  5
C0
  8
0
  6
BYBLOCK
 62
     9
 10
7790.0
 20
112824.0
 30
0.0
 11
7790.0
 21
112883.683797
 31
0.0
  0
LINE
  5
C1
  8
0
  6
BYBLOCK
 62
     9
 10
8210.0
 20
112824.0
 30
0.0
 11
8210.0
 21
112883.683797
 31
0.0
  0
LINE
  5
C2
  8
0
  6
BYBLOCK
 62
     9
 10
7810.0
 20
112882.683797
 30
0.0
 11
7949.25
 21
112882.683797
 31
0.0
  0
LINE
  5
C3
  8
0
  6
BYBLOCK
 62
     9
 10
8190.0
 20
112882.683797
 30
0.0
 11
8050.75
 21
112882.683797
 31
0.0
  0
SOLID
  5
C4
  8
0
  6
BYBLOCK
 62
     9
 10
7810.0
 20
112886.01713
 30
0.0
 11
7810.0
 21
112879.350464
 31
0.0
 12
7790.0
 22
112882.683797
 32
0.0
 13
7790.0
 23
112882.683797
 33
0.0
  0
SOLID
  5
C5
  8
0
  6
BYBLOCK
 62
     9
 10
8190.0
 20
112886.01713
 30
0.0
 11
8190.0
 21
112879.350464
 31
0.0
 12
8210.0
 22
112882.683797
 32
0.0
 13
8210.0
 23
112882.683797
 33
0.0
  0
TEXT
  5
C6
  8
0
  6
BYBLOCK
 62
    11
 10
7956.25
 20
112865.183797
 30
0.0
 40
35.0
  1
420
  0
POINT
  5
C7
  8
DEFPOINTS
  6
BYBLOCK
 62
     0
 10
7790.0
 20
112814.0
 30
0.0
  0
POINT
  5
C8
  8
DEFPOINTS
  6
BYBLOCK
 62
     0
 10
8210.0
 20
112814.0
 30
0.0
  0
POINT
  5
C9
  8
DEFPOINTS
  6
BYBLOCK
 62
     0
 10
8210.0
 20
112882.683797
 30
0.0
  0
ENDBLK
  5
CB
  8
0
  0
BLOCK
  8
0
  2
*D13
 70
     1
 10
0.0
 20
0.0
 30
0.0
  3
*D13
  1

  0
LINE
  5
22
  8
0
  6
BYBLOCK
 62
     9
 10
8360.0
 20
112850.0
 30
0.0
 11
8981.628169
 21
112850.0
 31
0.0
  0
LINE
  5
23
  8
0
  6
BYBLOCK
 62
     9
 10
8010.0
 20
112000.0
 30
0.0
 11
8981.628169
 21
112000.0
 31
0.0
  0
LINE
  5
24
  8
0
  6
BYBLOCK
 62
     9
 10
8980.628169
 20
112830.0
 30
0.0
 11
8980.628169
 21
112475.75
 31
0.0
  0
LINE
  5
25
  8
0
  6
BYBLOCK
 62
     9
 10
8980.628169
 20
112020.0
 30
0.0
 11
8980.628169
 21
112374.25
 31
0.0
  0
SOLID
  5
26
  8
0
  6
BYBLOCK
 62
     9
 10
8977.294835
 20
112830.0
 30
0.0
 11
8983.961502
 21
112830.0
 31
0.0
 12
8980.628169
 22
112850.0
 32
0.0
 13
8980.628169
 23
112850.0
 33
0.0
  0
SOLID
  5
27
  8
0
  6
BYBLOCK
 62
     9
 10
8977.294835
 20
112020.0
 30
0.0
 11
8983.961502
 21
112020.0
 31
0.0
 12
8980.628169
 22
112000.0
 32
0.0
 13
8980.628169
 23
112000.0
 33
0.0
  0
TEXT
  5
28
  8
0
  6
BYBLOCK
 62
    11
 10
8998.128169
 20
112381.25
 30
0.0
 40
35.0
  1
850
 50
90.0
  0
POINT
  5
29
  8
DEFPOINTS
  6
BYBLOCK
 62
     0
 10
8350.0
 20
112850.0
 30
0.0
  0
POINT
  5
2B
  8
DEFPOINTS
  6
BYBLOCK
 62
     0
 10
8000.0
 20
112000.0
 30
0.0
  0
POINT
  5
2C
  8
DEFPOINTS
  6
BYBLOCK
 62
     0
 10
8980.628169
 20
112000.0
 30
10.0
  0
ENDBLK
  5
2E
  8
0
  0
BLOCK
  8
0
  2
*D14
 70
     1
 10
0.0
 20
0.0
 30
0.0
  3
*D14
  1

  0
LINE
  5
B2
  8
0
  6
BYBLOCK
 62
     9
 10
8210.0
 20
112824.0
 30
0.0
 11
8210.0
 21
112883.683797
 31
0.0
  0
LINE
  5
B3
  8
0
  6
BYBLOCK
 62
     9
 10
8490.0
 20
112824.0
 30
0.0
 11
8490.0
 21
112883.683797
 31
0.0
  0
LINE
  5
B4
  8
0
  6
BYBLOCK
 62
     9
 10
8230.0
 20
112882.683797
 30
0.0
 11
8299.25
 21
112882.683797
 31
0.0
  0
LINE
  5
B5
  8
0
  6
BYBLOCK
 62
     9
 10
8470.0
 20
112882.683797
 30
0.0
 11
8400.75
 21
112882.683797
 31
0.0
  0
SOLID
  5
B6
  8
0
  6
BYBLOCK
 62
     9
 10
8230.0
 20
112886.01713
 30
0.0
 11
8230.0
 21
112879.350464
 31
0.0
 12
8210.0
 22
112882.683797
 32
0.0
 13
8210.0
 23
112882.683797
 33
0.0
  0
SOLID
  5
B7
  8
0
  6
BYBLOCK
 62
     9
 10
8470.0
 20
112886.01713
 30
0.0
 11
8470.0
 21
112879.350464
 31
0.0
 12
8490.0
 22
112882.683797
 32
0.0
 13
8490.0
 23
112882.683797
 33
0.0
  0
TEXT
  5
B8
  8
0
  6
BYBLOCK
 62
    11
 10
8306.25
 20
112865.183797
 30
0.0
 40
35.0
  1
280
  0
POINT
  5
B9
  8
DEFPOINTS
  6
BYBLOCK
 62
     0
 10
8210.0
 20
112814.0
 30
0.0
  0
POINT
  5
BA
  8
DEFPOINTS
  6
BYBLOCK
 62
     0
 10
8490.0
 20
112814.0
 30
0.0
  0
POINT
  5
BB
  8
DEFPOINTS
  6
BYBLOCK
 62
     0
 10
8490.0
 20
112882.683797
 30
0.0
  0
ENDBLK
  5
BD
  8
0
  0
BLOCK
  8
0
  2
*D15
 70
     1
 10
0.0
 20
0.0
 30
0.0
  3
*D15
  1

  0
LINE
  5
A4
  8
0
  6
BYBLOCK
 62
     9
 10
7650.0
 20
112520.0
 30
0.0
 11
7650.0
 21
112573.673356
 31
0.0
  0
LINE
  5
A5
  8
0
  6
BYBLOCK
 62
     9
 10
8350.0
 20
112520.0
 30
0.0
 11
8350.0
 21
112573.673356
 31
0.0
  0
LINE
  5
A6
  8
0
  6
BYBLOCK
 62
     9
 10
7670.0
 20
112572.673356
 30
0.0
 11
7952.166667
 21
112572.673356
 31
0.0
  0
LINE
  5
A7
  8
0
  6
BYBLOCK
 62
     9
 10
8330.0
 20
112572.673356
 30
0.0
 11
8047.833333
 21
112572.673356
 31
0.0
  0
SOLID
  5
A8
  8
0
  6
BYBLOCK
 62
     9
 10
7670.0
 20
112576.006689
 30
0.0
 11
7670.0
 21
112569.340023
 31
0.0
 12
7650.0
 22
112572.673356
 32
0.0
 13
7650.0
 23
112572.673356
 33
0.0
  0
SOLID
  5
A9
  8
0
  6
BYBLOCK
 62
     9
 10
8330.0
 20
112576.006689
 30
0.0
 11
8330.0
 21
112569.340023
 31
0.0
 12
8350.0
 22
112572.673356
 32
0.0
 13
8350.0
 23
112572.673356
 33
0.0
  0
TEXT
  5
AA
  8
0
  6
BYBLOCK
 62
    11
 10
7959.166667
 20
112555.173356
 30
0.0
 40
35.0
  1
700
  0
POINT
  5
AB
  8
DEFPOINTS
  6
BYBLOCK
 62
     0
 10
7650.0
 20
112510.0
 30
0.0
  0
POINT
  5
AC
  8
DEFPOINTS
  6
BYBLOCK
 62
     0
 10
8350.0
 20
112510.0
 30
0.0
  0
POINT
  5
AD
  8
DEFPOINTS
  6
BYBLOCK
 62
     0
 10
8350.0
 20
112572.673356
 30
0.0
  0
ENDBLK
  5
AF
  8
0
  0
ENDSEC
  0
SECTION
  2
ENTITIES
  0
DIMENSION
  5
20
  8
TEAM-MAS
  2
*D13
 10
980.628169
 20
0.0
 30
10.0
 11
980.628169
 21
425.0
 31
0.0
 12
-8000.0
 22
-112000.0
 32
0.0
 13
350.0
 23
850.0
 33
0.0
 14
0.0
 24
0.0
 34
0.0
 50
90.0
  0
DIMENSION
  5
2F
  8
TEAM-MAS
  2
*D9
 10
809.558925
 20
725.0
 30
10.0
 11
809.558925
 21
787.5
 31
0.0
 12
-8000.0
 22
-112000.0
 32
0.0
 70
   128
 13
350.0
 23
850.0
 33
0.0
 14
385.0
 24
725.0
 34
0.0
 50
90.0
  0
DIMENSION
  5
3D
  8
TEAM-MAS
  2
*D4
 10
425.0
 20
451.0
 30
10.0
 11
350.0
 21
451.0
 31
-20.0
 12
-8000.0
 22
-112000.0
 32
-20.0
 70
   128
 13
275.0
 23
589.783522
 33
0.0
 14
425.0
 24
590.0
 34
0.0
  0
DIMENSION
  5
4B
  8
TEAM-MAS
  2
*D3
 10
-275.0
 20
451.0
 30
10.0
 11
-350.0
 21
451.0
 31
-20.0
 12
-8000.0
 22
-112000.0
 32
-20.0
 70
   128
 13
-425.0
 23
589.783522
 33
0.0
 14
-275.0
 24
590.0
 34
0.0
  0
DIMENSION
  5
59
  8
TEAM-MAS
  2
*D2
 10
927.152933
 20
0.0
 30
0.0
 11
927.152933
 21
265.0
 31
-10.0
 12
-8000.0
 22
-112000.0
 32
-10.0
 13
370.0
 23
530.0
 33
0.0
 14
500.0
 24
0.0
 34
10.0
 50
90.0
  0
DIMENSION
  5
67
  8
TEAM-MAS
  2
*D1
 10
927.152933
 20
530.0
 30
10.0
 11
927.152933
 21
690.0
 31
-10.0
 12
-8000.0
 22
-112000.0
 32
-10.0
 13
350.0
 23
850.0
 33
0.0
 14
370.0
 24
530.0
 34
0.0
 50
90.0
  0
DIMENSION
  5
75
  8
TEAM-MAS
  2
*D0
 10
868.017137
 20
0.0
 30
20.0
 11
868.017137
 21
300.0
 31
0.0
 12
-8000.0
 22
-112000.0
 32
0.0
 13
434.949874
 23
600.0
 33
0.0
 14
560.0
 24
0.0
 34
10.0
 50
90.0
  0
DIMENSION
  5
83
  8
TEAM-MAS
  2
*D6
 10
-700.0
 20
975.414595
 30
0.0
 11
0.0
 21
975.414595
 31
0.0
 12
-8000.0
 22
-112000.0
 32
0.0
 13
700.0
 23
850.0
 33
0.0
 14
-700.0
 24
850.0
 34
0.0
1001
ACAD
1000
DSTYLE
1002
{
1070
    78
1070
     0
1070
    40
1040
1.0
1002
}
  0
LINE
  5
91
  8
TEAM-BODY
 10
0.0
 20
790.0
 30
0.0
 11
-700.0
 21
790.0
 31
0.0
  0
LINE
  5
93
  8
TEAM-BODY
 10
0.0
 20
850.0
 30
0.0
 11
-700.0
 21
850.0
 31
0.0
  0
DIMENSION
  5
94
  8
TEAM-MAS
  2
*D8
 10
-751.80534
 20
790.0
 30
0.0
 11
-780.80534
 21
820.0
 31
0.0
 12
-8000.0
 22
-112000.0
 32
0.0
 13
-700.0
 23
850.0
 33
0.0
 14
-700.0
 24
790.0
 34
0.0
 50
90.0
  0
LINE
  5
A1
  8
TEAM-BODY
 10
-700.0
 20
850.0
 30
0.0
 11
-700.0
 21
790.0
 31
0.0
  0
DIMENSION
  5
A2
  8
TEAM-MAS
  2
*D15
 10
350.0
 20
572.673356
 30
0.0
 11
0.0
 21
572.673356
 31
0.0
 12
-8000.0
 22
-112000.0
 32
0.0
 13
-350.0
 23
510.0
 33
0.0
 14
350.0
 24
510.0
 34
0.0
  0
DIMENSION
  5
B0
  8
TEAM-MAS
  2
*D14
 10
490.0
 20
882.683797
 30
0.0
 11
350.0
 21
882.683797
 31
0.0
 12
-8000.0
 22
-112000.0
 32
0.0
 13
210.0
 23
814.0
 33
0.0
 14
490.0
 24
814.0
 34
0.0
  0
DIMENSION
  5
BE
  8
TEAM-MAS
  2
*D12
 10
210.0
 20
882.683797
 30
0.0
 11
0.0
 21
882.683797
 31
0.0
 12
-8000.0
 22
-112000.0
 32
0.0
 13
-210.0
 23
814.0
 33
0.0
 14
210.0
 24
814.0
 34
0.0
  0
DIMENSION
  5
CC
  8
TEAM-MAS
  2
*D11
 10
749.897149
 20
800.0
 30
0.0
 11
746.563816
 21
902.600618
 31
0.0
 12
-8000.0
 22
-112000.0
 32
0.0
 70
   128
 13
350.0
 23
850.0
 33
0.0
 14
515.0
 24
800.0
 34
0.0
 50
90.0
  0
DIMENSION
  5
DB
  8
TEAM-MAS
  2
*D10
 10
868.017137
 20
850.0
 30
0.0
 11
868.017137
 21
725.0
 31
0.0
 12
-8000.0
 22
-112000.0
 32
0.0
 13
434.949874
 23
600.0
 33
0.0
 14
350.0
 24
850.0
 34
0.0
 50
90.0
1001
ACAD
1000
DSTYLE
1002
{
1070
    78
1070
     0
1070
    40
1040
1.0
1002
}
  0
DIMENSION
  5
E9
  8
TEAM-MAS
  2
*D7
 10
490.0
 20
928.073208
 30
0.0
 11
0.0
 21
928.073208
 31
0.0
 12
-8000.0
 22
-112000.0
 32
0.0
 13
-490.0
 23
860.911894
 33
0.0
 14
490.0
 24
860.911894
 34
0.0
  0
DIMENSION
  5
F7
  8
TEAM-MAS
  2
*D5
 10
-210.0
 20
882.683797
 30
0.0
 11
-350.0
 21
882.683797
 31
0.0
 12
-8000.0
 22
-112000.0
 32
0.0
 13
-490.0
 23
814.0
 33
0.0
 14
-210.0
 24
814.0
 34
0.0
  0
POLYLINE
  5
105
  8
TEAM-DET3
 66
     1
 10
0.0
 20
0.0
 30
0.0
  0
VERTEX
  5
1C8
  8
TEAM-DET3
 10
500.0
 20
756.237527
 30
0.0
  0
VERTEX
  5
1C9
  8
TEAM-DET3
 10
500.0
 20
725.0
 30
0.0
  0
VERTEX
  5
1CA
  8
TEAM-DET3
 10
200.0
 20
725.0
 30
0.0
  0
VERTEX
  5
1CB
  8
TEAM-DET3
 10
200.0
 20
756.19982
 30
0.0
  0
SEQEND
  5
1CC
  8
TEAM-DET3
  0
ARC
  5
107
  8
TEAM-BODY
 10
327.919943
 20
1127.598129
 30
0.0
 40
392.810661
 50
239.254031
 51
268.115144
  0
LINE
  5
108
  8
TEAM-BODY
 10
700.0
 20
790.0
 30
0.0
 11
0.0
 21
790.0
 31
0.0
  0
LINE
  5
109
  8
TEAM-BODY
 10
700.0
 20
850.0
 30
0.0
 11
0.0
 21
850.0
 31
0.0
  0
CIRCLE
  5
10A
  8
TEAM-INSP
 10
0.0
 20
0.0
 30
0.0
 40
10.0
  0
LINE
  5
10C
  8
TEAM-AXE
 10
185.0
 20
800.0
 30
0.0
 11
235.0
 21
800.0
 31
0.0
  0
LINE
  5
10F
  8
TEAM-AXE
 10
210.0
 20
814.0
 30
0.0
 11
210.0
 21
786.0
 31
0.0
  0
POLYLINE
  5
110
  8
TEAM-HIDE
 66
     1
 10
0.0
 20
0.0
 30
0.0
 70
     1
  0
VERTEX
  5
1CD
  8
TEAM-HIDE
 10
221.0
 20
791.0
 30
0.0
 42
1.0
  0
VERTEX
  5
1CE
  8
TEAM-HIDE
 10
221.0
 20
809.0
 30
0.0
  0
VERTEX
  5
1CF
  8
TEAM-HIDE
 10
199.0
 20
809.0
 30
0.0
 42
1.0
  0
VERTEX
  5
1D0
  8
TEAM-HIDE
 10
199.0
 20
791.0
 30
0.0
  0
SEQEND
  5
1D1
  8
TEAM-HIDE
  0
LINE
  5
113
  8
TEAM-AXE
 10
284.949874
 20
599.783522
 30
0.0
 11
265.050126
 21
599.783522
 31
0.0
  0
CIRCLE
  5
114
  8
TEAM-WARM
 10
275.0
 20
599.783522
 30
0.0
 40
10.0
  0
LINE
  5
116
  8
TEAM-AXE
 10
275.0
 20
589.783522
 30
0.0
 11
275.0
 21
609.783522
 31
0.0
  0
ARC
  5
117
  8
TEAM-BODY
 10
-328.131923
 20
1128.086606
 30
0.0
 40
393.305895
 50
271.91338
 51
300.728055
  0
LINE
  5
118
  8
TEAM-BODY
 10
-385.0
 20
725.0
 30
0.0
 11
-315.0
 21
725.0
 31
0.0
  0
LINE
  5
119
  8
TEAM-BODY
 10
-385.0
 20
735.0
 30
0.0
 11
-315.0
 21
735.0
 31
0.0
  0
LINE
  5
11A
  8
TEAM-BODY
 10
-385.0
 20
735.0
 30
0.0
 11
-385.0
 21
725.0
 31
0.0
  0
LINE
  5
11B
  8
TEAM-BODY
 10
-315.0
 20
725.0
 30
0.0
 11
-315.0
 21
735.0
 31
0.0
  0
LINE
  5
11C
  8
TEAM-AXE
 10
-275.0
 20
590.0
 30
0.0
 11
-275.0
 21
610.0
 31
0.0
  0
CIRCLE
  5
11D
  8
TEAM-COLD
 10
-275.0
 20
600.0
 30
0.0
 40
10.0
  0
LINE
  5
11F
  8
TEAM-AXE
 10
-265.050126
 20
600.0
 30
0.0
 11
-284.949874
 21
600.0
 31
0.0
  0
POLYLINE
  5
120
  8
TEAM-HIDE
 66
     1
 10
0.0
 20
0.0
 30
0.0
 70
     1
  0
VERTEX
  5
1D2
  8
TEAM-HIDE
 10
-199.0
 20
791.0
 30
0.0
 42
1.0
  0
VERTEX
  5
1D3
  8
TEAM-HIDE
 10
-199.0
 20
809.0
 30
0.0
  0
VERTEX
  5
1D4
  8
TEAM-HIDE
 10
-221.0
 20
809.0
 30
0.0
 42
1.0
  0
VERTEX
  5
1D5
  8
TEAM-HIDE
 10
-221.0
 20
791.0
 30
0.0
  0
SEQEND
  5
1D6
  8
TEAM-HIDE
  0
LINE
  5
121
  8
TEAM-AXE
 10
-210.0
 20
814.0
 30
0.0
 11
-210.0
 21
786.0
 31
0.0
  0
LINE
  5
122
  8
TEAM-AXE
 10
-235.0
 20
800.0
 30
0.0
 11
-185.0
 21
800.0
 31
0.0
  0
CIRCLE
  5
123
  8
TEAM-KAN
 10
-350.0
 20
530.0
 30
0.0
 40
20.0
  0
LINE
  5
125
  8
TEAM-AXE
 10
-330.0
 20
530.0
 30
0.0
 11
-370.0
 21
530.0
 31
0.0
  0
LINE
  5
126
  8
TEAM-AXE
 10
-350.0
 20
510.0
 30
0.0
 11
-350.0
 21
550.0
 31
0.0
  0
LINE
  5
127
  8
TEAM-AXE
 10
-350.0
 20
658.523386
 30
0.0
 11
-350.0
 21
850.0
 31
0.0
  0
LINE
  5
128
  8
TEAM-BODY
 10
700.0
 20
850.0
 30
0.0
 11
700.0
 21
790.0
 31
0.0
  0
LINE
  5
129
  8
TEAM-AXE
 10
350.0
 20
658.523386
 30
0.0
 11
350.0
 21
850.0
 31
0.0
  0
LINE
  5
12A
  8
TEAM-AXE
 10
350.0
 20
510.0
 30
0.0
 11
350.0
 21
550.0
 31
0.0
  0
LINE
  5
12B
  8
TEAM-AXE
 10
370.0
 20
530.0
 30
0.0
 11
330.0
 21
530.0
 31
0.0
  0
CIRCLE
  5
12C
  8
TEAM-KAN
 10
350.0
 20
530.0
 30
0.0
 40
20.0
  0
LINE
  5
12D
  8
TEAM-AXE
 10
465.0
 20
800.0
 30
0.0
 11
515.0
 21
800.0
 31
0.0
  0
LINE
  5
12E
  8
TEAM-AXE
 10
490.0
 20
814.0
 30
0.0
 11
490.0
 21
786.0
 31
0.0
  0
POLYLINE
  5
12F
  8
TEAM-HIDE
 66
     1
 10
0.0
 20
0.0
 30
0.0
 70
     1
  0
VERTEX
  5
1D7
  8
TEAM-HIDE
 10
501.0
 20
791.0
 30
0.0
 42
1.0
  0
VERTEX
  5
1D8
  8
TEAM-HIDE
 10
501.0
 20
809.0
 30
0.0
  0
VERTEX
  5
1D9
  8
TEAM-HIDE
 10
479.0
 20
809.0
 30
0.0
 42
1.0
  0
VERTEX
  5
1DA
  8
TEAM-HIDE
 10
479.0
 20
791.0
 30
0.0
  0
SEQEND
  5
1DB
  8
TEAM-HIDE
  0
LINE
  5
130
  8
TEAM-AXE
 10
434.949874
 20
600.0
 30
0.0
 11
415.050126
 21
600.0
 31
0.0
  0
CIRCLE
  5
131
  8
TEAM-COLD
 10
425.0
 20
600.0
 30
0.0
 40
10.0
  0
LINE
  5
132
  8
TEAM-AXE
 10
425.0
 20
590.0
 30
0.0
 11
425.0
 21
610.0
 31
0.0
  0
LINE
  5
133
  8
TEAM-BODY
 10
385.0
 20
725.0
 30
0.0
 11
385.0
 21
735.0
 31
0.0
  0
LINE
  5
134
  8
TEAM-BODY
 10
315.0
 20
735.0
 30
0.0
 11
315.0
 21
725.0
 31
0.0
  0
LINE
  5
135
  8
TEAM-BODY
 10
315.0
 20
735.0
 30
0.0
 11
385.0
 21
735.0
 31
0.0
  0
LINE
  5
136
  8
TEAM-BODY
 10
315.0
 20
725.0
 30
0.0
 11
385.0
 21
725.0
 31
0.0
  0
ARC
  5
137
  8
TEAM-BODY
 10
371.868077
 20
1128.086606
 30
0.0
 40
393.305895
 50
271.91338
 51
300.728055
  0
LINE
  5
138
  8
TEAM-AXE
 10
-425.0
 20
589.783522
 30
0.0
 11
-425.0
 21
609.783522
 31
0.0
  0
CIRCLE
  5
139
  8
TEAM-WARM
 10
-425.0
 20
599.783522
 30
0.0
 40
10.0
  0
LINE
  5
13A
  8
TEAM-AXE
 10
-415.050126
 20
599.783522
 30
0.0
 11
-434.949874
 21
599.783522
 31
0.0
  0
POLYLINE
  5
13B
  8
TEAM-HIDE
 66
     1
 10
0.0
 20
0.0
 30
0.0
 70
     1
  0
VERTEX
  5
1DC
  8
TEAM-HIDE
 10
-479.0
 20
791.0
 30
0.0
 42
1.0
  0
VERTEX
  5
1DD
  8
TEAM-HIDE
 10
-479.0
 20
809.0
 30
0.0
  0
VERTEX
  5
1DE
  8
TEAM-HIDE
 10
-501.0
 20
809.0
 30
0.0
 42
1.0
  0
VERTEX
  5
1DF
  8
TEAM-HIDE
 10
-501.0
 20
791.0
 30
0.0
  0
SEQEND
  5
1E0
  8
TEAM-HIDE
  0
LINE
  5
13C
  8
TEAM-AXE
 10
-490.0
 20
814.0
 30
0.0
 11
-490.0
 21
786.0
 31
0.0
  0
LINE
  5
13D
  8
TEAM-AXE
 10
-515.0
 20
800.0
 30
0.0
 11
-465.0
 21
800.0
 31
0.0
  0
TEXT
  5
13E
  8
TEAM-TXT
 10
-455.116187
 20
685.422206
 30
0.0
 40
30.0
  1
team 421412
 41
0.8
 51
15.0
  7
TEAM
  0
ARC
  5
141
  8
TEAM-BODY
 10
-372.080057
 20
1127.598129
 30
0.0
 40
392.810661
 50
239.254031
 51
268.115144
  0
POLYLINE
  5
142
  8
TEAM-DET3
 66
     1
 10
0.0
 20
0.0
 30
0.0
  0
VERTEX
  5
1E1
  8
TEAM-DET3
 10
-200.0
 20
756.237527
 30
0.0
  0
VERTEX
  5
1E2
  8
TEAM-DET3
 10
-200.0
 20
725.0
 30
0.0
  0
VERTEX
  5
1E3
  8
TEAM-DET3
 10
-500.0
 20
725.0
 30
0.0
  0
VERTEX
  5
1E4
  8
TEAM-DET3
 10
-500.0
 20
756.19982
 30
0.0
  0
SEQEND
  5
1E5
  8
TEAM-DET3
  0
ENDSEC
  0
EOF
