  0
SECTION
  2
HEADER
  9
$ACADVER
  1
AC1009
  9
$INSBASE
 10
0.0
 20
0.0
 30
0.0
  9
$EXTMIN
 10
-563.3176
 20
-579.960997
 30
-0.000006
  9
$EXTMAX
 10
558.269951
 20
87.157567
 30
0.0
  9
$LIMMIN
 10
-563.3176
 20
-579.960997
  9
$LIMMAX
 10
558.269951
 20
87.157567
  9
$ORTHOMODE
 70
     1
  9
$REGENMODE
 70
     1
  9
$FILLMODE
 70
     1
  9
$QTEXTMODE
 70
     0
  9
$MIRRTEXT
 70
     0
  9
$DRAGMODE
 70
     2
  9
$LTSCALE
 40
25.0
  9
$OSMODE
 70
     0
  9
$ATTMODE
 70
     1
  9
$TEXTSIZE
 40
200.0
  9
$TRACEWID
 40
1.0
  9
$TEXTSTYLE
  7
STANDARD
  9
$CLAYER
  8
TEAM-MAS
  9
$CELTYPE
  6
BYLAYER
  9
$CECOLOR
 62
   256
  9
$DIMSCALE
 40
1.0
  9
$DIMASZ
 40
20.0
  9
$DIMEXO
 40
10.0
  9
$DIMDLI
 40
1.0
  9
$DIMRND
 40
0.0
  9
$DIMDLE
 40
0.0
  9
$DIMEXE
 40
1.0
  9
$DIMTP
 40
0.0
  9
$DIMTM
 40
0.0
  9
$DIMTXT
 40
35.0
  9
$DIMCEN
 40
1.0
  9
$DIMTSZ
 40
0.0
  9
$DIMTOL
 70
     0
  9
$DIMLIM
 70
     0
  9
$DIMTIH
 70
     0
  9
$DIMTOH
 70
     0
  9
$DIMSE1
 70
     0
  9
$DIMSE2
 70
     0
  9
$DIMTAD
 70
     0
  9
$DIMZIN
 70
     0
  9
$DIMBLK
  1

  9
$DIMASO
 70
     1
  9
$DIMSHO
 70
     0
  9
$DIMPOST
  1

  9
$DIMAPOST
  1

  9
$DIMALT
 70
     0
  9
$DIMALTD
 70
     2
  9
$DIMALTF
 40
25.4
  9
$DIMLFAC
 40
1.0
  9
$DIMTOFL
 70
     0
  9
$DIMTVP
 40
0.0
  9
$DIMTIX
 70
     0
  9
$DIMSOXD
 70
     0
  9
$DIMSAH
 70
     0
  9
$DIMBLK1
  1

  9
$DIMBLK2
  1

  9
$DIMSTYLE
  2
TEAM
  9
$DIMCLRD
 70
     9
  9
$DIMCLRE
 70
     9
  9
$DIMCLRT
 70
    11
  9
$DIMTFAC
 40
1.0
  9
$DIMGAP
 40
15.0
  9
$LUNITS
 70
     2
  9
$LUPREC
 70
     1
  9
$SKETCHINC
 40
1.0
  9
$FILLETRAD
 40
150.0
  9
$AUNITS
 70
     0
  9
$AUPREC
 70
     0
  9
$MENU
  1
ROPLANS
  9
$ELEVATION
 40
0.0
  9
$PELEVATION
 40
0.0
  9
$THICKNESS
 40
0.0
  9
$LIMCHECK
 70
     0
  9
$BLIPMODE
 70
     1
  9
$CHAMFERA
 40
0.0
  9
$CHAMFERB
 40
0.0
  9
$SKPOLY
 70
     0
  9
$TDCREATE
 40
2450392.957851
  9
$TDUPDATE
 40
2455542.932003
  9
$TDINDWG
 40
2.580587
  9
$TDUSRTIMER
 40
2.580587
  9
$USRTIMER
 70
     1
  9
$ANGBASE
 50
0.0
  9
$ANGDIR
 70
     0
  9
$PDMODE
 70
     0
  9
$PDSIZE
 40
0.0
  9
$PLINEWID
 40
0.0
  9
$COORDS
 70
     2
  9
$SPLFRAME
 70
     0
  9
$SPLINETYPE
 70
     6
  9
$SPLINESEGS
 70
     8
  9
$ATTDIA
 70
     0
  9
$ATTREQ
 70
     0
  9
$HANDLING
 70
     1
  9
$HANDSEED
  5
C1
  9
$SURFTAB1
 70
    12
  9
$SURFTAB2
 70
    12
  9
$SURFTYPE
 70
     6
  9
$SURFU
 70
     6
  9
$SURFV
 70
     6
  9
$UCSNAME
  2

  9
$UCSORG
 10
0.0
 20
0.0
 30
0.0
  9
$UCSXDIR
 10
1.0
 20
0.0
 30
0.0
  9
$UCSYDIR
 10
0.0
 20
1.0
 30
0.0
  9
$PUCSNAME
  2

  9
$PUCSORG
 10
0.0
 20
0.0
 30
0.0
  9
$PUCSXDIR
 10
1.0
 20
0.0
 30
0.0
  9
$PUCSYDIR
 10
0.0
 20
1.0
 30
0.0
  9
$USERI1
 70
     0
  9
$USERI2
 70
     0
  9
$USERI3
 70
     0
  9
$USERI4
 70
     0
  9
$USERI5
 70
     0
  9
$USERR1
 40
0.0
  9
$USERR2
 40
0.0
  9
$USERR3
 40
0.0
  9
$USERR4
 40
0.0
  9
$USERR5
 40
0.0
  9
$WORLDVIEW
 70
     1
  9
$SHADEDGE
 70
     0
  9
$SHADEDIF
 70
    70
  9
$TILEMODE
 70
     1
  9
$MAXACTVP
 70
    16
  9
$PLIMCHECK
 70
     0
  9
$PEXTMIN
 10
-0.805942
 20
0.005011
 30
0.0
  9
$PEXTMAX
 10
20.250094
 20
11.356329
 30
0.0
  9
$PLIMMIN
 10
0.0
 20
0.0
  9
$PLIMMAX
 10
12.0
 20
9.0
  9
$UNITMODE
 70
     0
  9
$VISRETAIN
 70
     0
  9
$PLINEGEN
 70
     0
  9
$PSLTSCALE
 70
     0
  0
ENDSEC
  0
SECTION
  2
TABLES
  0
TABLE
  2
VPORT
 70
     2
  0
VPORT
  2
*ACTIVE
 70
     0
 10
0.0
 20
0.0
 11
1.0
 21
1.0
 12
-2.523825
 22
-246.401715
 13
0.0
 23
0.0
 14
1.0
 24
1.0
 15
50.0
 25
50.0
 16
0.0
 26
0.0
 36
1.0
 17
0.0
 27
0.0
 37
0.0
 40
671.215505
 41
1.865779
 42
50.0
 43
0.0
 44
0.0
 50
0.0
 51
0.0
 71
     0
 72
   100
 73
     1
 74
     1
 75
     0
 76
     0
 77
     0
 78
     0
  0
ENDTAB
  0
TABLE
  2
LTYPE
 70
     2
  0
LTYPE
  2
CONTINUOUS
 70
     0
  3
Solid Line
 72
    65
 73
     0
 40
0.0
  0
LTYPE
  2
31
 70
     0
  3

 72
    65
 73
     4
 40
2.1
 49
1.5
 49
-0.3
 49
0.0
 49
-0.3
  0
ENDTAB
  0
TABLE
  2
LAYER
 70
     9
  0
LAYER
  2
0
 70
     0
 62
     7
  6
CONTINUOUS
  0
LAYER
  2
DEFPOINTS
 70
     0
 62
     7
  6
CONTINUOUS
  0
LAYER
  2
TEAM-BODY
 70
     0
 62
     2
  6
CONTINUOUS
  0
LAYER
  2
TEAM-AXE
 70
     0
 62
    10
  6
31
  0
LAYER
  2
TEAM-MAS
 70
     0
 62
     9
  6
CONTINUOUS
  0
LAYER
  2
TEAM-TXT
 70
     0
 62
    11
  6
CONTINUOUS
  0
LAYER
  2
TEAM-DET1
 70
     0
 62
     4
  6
CONTINUOUS
  0
LAYER
  2
TEAM-COLD
 70
     0
 62
     3
  6
CONTINUOUS
  0
LAYER
  2
TEAM-INSP
 70
     0
 62
     5
  6
CONTINUOUS
  0
ENDTAB
  0
TABLE
  2
STYLE
 70
     2
  0
STYLE
  2
STANDARD
 70
     0
 40
0.0
 41
1.0
 50
0.0
 71
     0
 42
200.0
  3
txt
  4

  0
STYLE
  2
TEAM
 70
     0
 40
0.0
 41
0.8
 50
15.0
 71
     0
 42
7.0
  3
ROMANS.shx
  4

  0
ENDTAB
  0
TABLE
  2
VIEW
 70
     0
  0
ENDTAB
  0
TABLE
  2
UCS
 70
     0
  0
ENDTAB
  0
TABLE
  2
APPID
 70
     1
  0
APPID
  2
ACAD
 70
     0
  0
ENDTAB
  0
TABLE
  2
DIMSTYLE
 70
     1
  0
DIMSTYLE
  2
TEAM
 70
     0
  3

  4

  5

  6

  7

 40
1.0
 41
20.0
 42
10.0
 43
1.0
 44
1.0
 45
0.0
 46
0.0
 47
0.0
 48
0.0
140
35.0
141
1.0
142
0.0
143
25.4
144
1.0
145
0.0
146
1.0
147
15.0
 71
     0
 72
     0
 73
     0
 74
     0
 75
     0
 76
     0
 77
     0
 78
     0
170
     0
171
     2
172
     0
173
     0
174
     0
175
     0
176
     9
177
     9
178
    11
  0
ENDTAB
  0
ENDSEC
  0
SECTION
  2
BLOCKS
  0
BLOCK
  8
0
  2
$MODEL_SPACE
 70
     0
 10
0.0
 20
0.0
 30
0.0
  3
$MODEL_SPACE
  1

  0
ENDBLK
  5
BA
  8
0
  0
BLOCK
 67
     1
  8
0
  2
$PAPER_SPACE
 70
     0
 10
0.0
 20
0.0
 30
0.0
  3
$PAPER_SPACE
  1

  0
ENDBLK
  5
B8
 67
     1
  8
0
  0
BLOCK
  8
0
  2
*D0
 70
     1
 10
0.0
 20
0.0
 30
0.0
  3
*D0
  1

  0
LINE
  5
6C
  8
0
  6
BYBLOCK
 62
     9
 10
4500.0
 20
12010.0
 30
0.0
 11
4500.0
 21
12034.676565
 31
0.0
  0
LINE
  5
6D
  8
0
  6
BYBLOCK
 62
     9
 10
4000.0
 20
11840.0
 30
0.0
 11
4000.0
 21
12034.676565
 31
0.0
  0
LINE
  5
6E
  8
0
  6
BYBLOCK
 62
     9
 10
4480.0
 20
12033.676565
 30
0.0
 11
4296.51378
 21
12033.676565
 31
0.0
  0
LINE
  5
6F
  8
0
  6
BYBLOCK
 62
     9
 10
4020.0
 20
12033.676565
 30
0.0
 11
4203.48622
 21
12033.676565
 31
0.0
  0
SOLID
  5
70
  8
0
  6
BYBLOCK
 62
     9
 10
4480.0
 20
12037.009898
 30
0.0
 11
4480.0
 21
12030.343231
 31
0.0
 12
4500.0
 22
12033.676565
 32
0.0
 13
4500.0
 23
12033.676565
 33
0.0
  0
SOLID
  5
71
  8
0
  6
BYBLOCK
 62
     9
 10
4020.0
 20
12037.009898
 30
0.0
 11
4020.0
 21
12030.343231
 31
0.0
 12
4000.0
 22
12033.676565
 32
0.0
 13
4000.0
 23
12033.676565
 33
0.0
  0
TEXT
  5
72
  8
0
  6
BYBLOCK
 62
    11
 10
4213.23622
 20
12016.176565
 30
0.0
 40
35.0
  1
500
  0
POINT
  5
73
  8
DEFPOINTS
  6
BYBLOCK
 62
     0
 10
4500.0
 20
12000.0
 30
0.0
  0
POINT
  5
74
  8
DEFPOINTS
  6
BYBLOCK
 62
     0
 10
4000.0
 20
11830.0
 30
0.0
  0
POINT
  5
75
  8
DEFPOINTS
  6
BYBLOCK
 62
     0
 10
4000.0
 20
12033.676565
 30
0.0
  0
ENDBLK
  5
77
  8
0
  0
BLOCK
  8
0
  2
*D1
 70
     1
 10
0.0
 20
0.0
 30
0.0
  3
*D1
  1

  0
LINE
  5
33
  8
0
  6
BYBLOCK
 62
     9
 10
4510.0
 20
12000.0
 30
0.0
 11
4541.997616
 21
12000.0
 31
0.0
  0
LINE
  5
34
  8
0
  6
BYBLOCK
 62
     9
 10
4490.0
 20
11470.0
 30
0.0
 11
4541.997616
 21
11470.0
 31
0.0
  0
LINE
  5
35
  8
0
  6
BYBLOCK
 62
     9
 10
4540.997616
 20
11980.0
 30
0.0
 11
4540.997616
 21
11781.51378
 31
0.0
  0
LINE
  5
36
  8
0
  6
BYBLOCK
 62
     9
 10
4540.997616
 20
11490.0
 30
0.0
 11
4540.997616
 21
11688.48622
 31
0.0
  0
SOLID
  5
37
  8
0
  6
BYBLOCK
 62
     9
 10
4537.664283
 20
11980.0
 30
0.0
 11
4544.330949
 21
11980.0
 31
0.0
 12
4540.997616
 22
12000.0
 32
0.0
 13
4540.997616
 23
12000.0
 33
0.0
  0
SOLID
  5
38
  8
0
  6
BYBLOCK
 62
     9
 10
4537.664283
 20
11490.0
 30
0.0
 11
4544.330949
 21
11490.0
 31
0.0
 12
4540.997616
 22
11470.0
 32
0.0
 13
4540.997616
 23
11470.0
 33
0.0
  0
TEXT
  5
39
  8
0
  6
BYBLOCK
 62
    11
 10
4558.497616
 20
11698.23622
 30
0.0
 40
35.0
  1
530
 50
90.0
  0
POINT
  5
3A
  8
DEFPOINTS
  6
BYBLOCK
 62
     0
 10
4500.0
 20
12000.0
 30
0.0
  0
POINT
  5
3B
  8
DEFPOINTS
  6
BYBLOCK
 62
     0
 10
4480.0
 20
11470.0
 30
0.0
  0
POINT
  5
3C
  8
DEFPOINTS
  6
BYBLOCK
 62
     0
 10
4540.997616
 20
11470.0
 30
0.0
  0
ENDBLK
  5
3E
  8
0
  0
BLOCK
  8
0
  2
*D2
 70
     1
 10
0.0
 20
0.0
 30
0.0
  3
*D2
  1

  0
LINE
  5
5B
  8
0
  6
BYBLOCK
 62
     9
 10
3500.0
 20
12010.0
 30
0.0
 11
3500.0
 21
12072.349771
 31
0.0
  0
LINE
  5
5C
  8
0
  6
BYBLOCK
 62
     9
 10
4500.0
 20
12010.0
 30
0.0
 11
4500.0
 21
12072.349771
 31
0.0
  0
LINE
  5
5D
  8
0
  6
BYBLOCK
 62
     9
 10
3520.0
 20
12071.349771
 30
0.0
 11
3944.73622
 21
12071.349771
 31
0.0
  0
LINE
  5
5E
  8
0
  6
BYBLOCK
 62
     9
 10
4480.0
 20
12071.349771
 30
0.0
 11
4055.26378
 21
12071.349771
 31
0.0
  0
SOLID
  5
5F
  8
0
  6
BYBLOCK
 62
     9
 10
3520.0
 20
12074.683105
 30
0.0
 11
3520.0
 21
12068.016438
 31
0.0
 12
3500.0
 22
12071.349771
 32
0.0
 13
3500.0
 23
12071.349771
 33
0.0
  0
SOLID
  5
60
  8
0
  6
BYBLOCK
 62
     9
 10
4480.0
 20
12074.683105
 30
0.0
 11
4480.0
 21
12068.016438
 31
0.0
 12
4500.0
 22
12071.349771
 32
0.0
 13
4500.0
 23
12071.349771
 33
0.0
  0
TEXT
  5
61
  8
0
  6
BYBLOCK
 62
    11
 10
3954.48622
 20
12053.849771
 30
0.0
 40
35.0
  1
1000
  0
POINT
  5
62
  8
DEFPOINTS
  6
BYBLOCK
 62
     0
 10
3500.0
 20
12000.0
 30
0.0
  0
POINT
  5
63
  8
DEFPOINTS
  6
BYBLOCK
 62
     0
 10
4500.0
 20
12000.0
 30
0.0
  0
POINT
  5
64
  8
DEFPOINTS
  6
BYBLOCK
 62
     0
 10
4500.0
 20
12071.349771
 30
0.0
  0
ENDBLK
  5
66
  8
0
  0
BLOCK
  8
0
  2
*D3
 70
     1
 10
0.0
 20
0.0
 30
0.0
  3
*D3
  1

  0
LINE
  5
4D
  8
0
  6
BYBLOCK
 62
     9
 10
4290.0
 20
11530.0
 30
0.0
 11
4290.0
 21
11436.259414
 31
0.0
  0
LINE
  5
4E
  8
0
  6
BYBLOCK
 62
     9
 10
3710.0
 20
11530.0
 30
0.0
 11
3710.0
 21
11436.259414
 31
0.0
  0
LINE
  5
4F
  8
0
  6
BYBLOCK
 62
     9
 10
4270.0
 20
11437.259414
 30
0.0
 11
4046.51378
 21
11437.259414
 31
0.0
  0
LINE
  5
50
  8
0
  6
BYBLOCK
 62
     9
 10
3730.0
 20
11437.259414
 30
0.0
 11
3953.48622
 21
11437.259414
 31
0.0
  0
SOLID
  5
51
  8
0
  6
BYBLOCK
 62
     9
 10
4270.0
 20
11440.592748
 30
0.0
 11
4270.0
 21
11433.926081
 31
0.0
 12
4290.0
 22
11437.259414
 32
0.0
 13
4290.0
 23
11437.259414
 33
0.0
  0
SOLID
  5
52
  8
0
  6
BYBLOCK
 62
     9
 10
3730.0
 20
11440.592748
 30
0.0
 11
3730.0
 21
11433.926081
 31
0.0
 12
3710.0
 22
11437.259414
 32
0.0
 13
3710.0
 23
11437.259414
 33
0.0
  0
TEXT
  5
53
  8
0
  6
BYBLOCK
 62
    11
 10
3963.23622
 20
11419.759414
 30
0.0
 40
35.0
  1
580
  0
POINT
  5
54
  8
DEFPOINTS
  6
BYBLOCK
 62
     0
 10
4290.0
 20
11540.0
 30
0.0
  0
POINT
  5
55
  8
DEFPOINTS
  6
BYBLOCK
 62
     0
 10
3710.0
 20
11540.0
 30
0.0
  0
POINT
  5
56
  8
DEFPOINTS
  6
BYBLOCK
 62
     0
 10
3710.0
 20
11437.259414
 30
0.0
  0
ENDBLK
  5
58
  8
0
  0
BLOCK
  8
0
  2
*D4
 70
     1
 10
0.0
 20
0.0
 30
0.0
  3
*D4
  1

  0
LINE
  5
22
  8
0
  6
BYBLOCK
 62
     9
 10
3720.0
 20
11880.0
 30
0.0
 11
3453.085114
 21
11880.0
 31
0.0
  0
LINE
  5
23
  8
0
  6
BYBLOCK
 62
     9
 10
3720.0
 20
11520.0
 30
0.0
 11
3453.085114
 21
11520.0
 31
0.0
  0
LINE
  5
24
  8
0
  6
BYBLOCK
 62
     9
 10
3454.085114
 20
11860.0
 30
0.0
 11
3454.085114
 21
11746.51378
 31
0.0
  0
LINE
  5
25
  8
0
  6
BYBLOCK
 62
     9
 10
3454.085114
 20
11540.0
 30
0.0
 11
3454.085114
 21
11653.48622
 31
0.0
  0
SOLID
  5
26
  8
0
  6
BYBLOCK
 62
     9
 10
3450.75178
 20
11860.0
 30
0.0
 11
3457.418447
 21
11860.0
 31
0.0
 12
3454.085114
 22
11880.0
 32
0.0
 13
3454.085114
 23
11880.0
 33
0.0
  0
SOLID
  5
27
  8
0
  6
BYBLOCK
 62
     9
 10
3450.75178
 20
11540.0
 30
0.0
 11
3457.418447
 21
11540.0
 31
0.0
 12
3454.085114
 22
11520.0
 32
0.0
 13
3454.085114
 23
11520.0
 33
0.0
  0
TEXT
  5
28
  8
0
  6
BYBLOCK
 62
    11
 10
3471.585114
 20
11663.23622
 30
0.0
 40
35.0
  1
360
 50
90.0
  0
POINT
  5
29
  8
DEFPOINTS
  6
BYBLOCK
 62
     0
 10
3730.0
 20
11880.0
 30
0.0
  0
POINT
  5
2B
  8
DEFPOINTS
  6
BYBLOCK
 62
     0
 10
3730.0
 20
11520.0
 30
0.0
  0
POINT
  5
2C
  8
DEFPOINTS
  6
BYBLOCK
 62
     0
 10
3454.085114
 20
11520.0
 30
0.0
  0
ENDBLK
  5
2E
  8
0
  0
ENDSEC
  0
SECTION
  2
ENTITIES
  0
DIMENSION
  5
20
  8
TEAM-MAS
  2
*D4
 10
-545.914886
 20
-480.0
 30
0.0
 11
-545.914886
 21
-300.0
 31
0.0
 12
-4000.0
 22
-12000.0
 32
0.0
 13
-270.0
 23
-120.0
 33
0.0
 14
-270.0
 24
-480.0
 34
0.0
 50
90.0
1001
ACAD
1000
DSTYLE
1002
{
1070
    40
1040
1.0
1002
}
  0
LINE
  5
2F
  8
TEAM-BODY
 10
290.0
 20
-460.0
 30
0.0
 11
290.0
 21
-140.0
 31
0.0
  0
DIMENSION
  5
31
  8
TEAM-MAS
  2
*D1
 10
540.997616
 20
-530.0
 30
0.0
 11
540.997616
 21
-265.0
 31
0.0
 12
-4000.0
 22
-12000.0
 32
0.0
 13
500.0
 23
0.0
 33
0.0
 14
480.0
 24
-530.0
 34
0.0
 50
90.0
  0
LINE
  5
3F
  8
TEAM-BODY
 10
500.0
 20
-510.0
 30
0.0
 11
500.0
 21
0.0
 31
0.0
  0
LINE
  5
40
  8
TEAM-BODY
 10
-290.0
 20
-460.0
 30
0.0
 11
-290.0
 21
-140.0
 31
0.0
  0
LINE
  5
41
  8
TEAM-BODY
 10
-500.0
 20
0.0
 30
0.0
 11
-500.0
 21
-510.0
 31
0.0
  0
LINE
  5
42
  8
TEAM-BODY
 10
-480.0
 20
-530.0
 30
0.0
 11
480.0
 21
-530.0
 31
0.0
  0
ARC
  5
43
  8
TEAM-BODY
 10
-480.0
 20
-510.0
 30
0.0
 40
20.0
 50
180.0
 51
270.0
  0
LINE
  5
44
  8
TEAM-BODY
 10
-270.0
 20
-480.0
 30
0.0
 11
270.0
 21
-480.0
 31
0.0
  0
ARC
  5
45
  8
TEAM-BODY
 10
480.0
 20
-510.0
 30
0.0
 40
20.0
 50
270.0
 51
0.0
  0
ARC
  5
46
  8
TEAM-BODY
 10
270.0
 20
-460.0
 30
0.0
 40
20.0
 50
270.0
 51
0.0
  0
TEXT
  5
47
  8
TEAM-TXT
 10
-106.59353
 20
-411.412921
 30
0.0
 40
30.0
  1
team 421417
 41
0.8
 51
15.0
  7
TEAM
  0
ARC
  5
4A
  8
TEAM-BODY
 10
-270.0
 20
-460.0
 30
0.0
 40
20.0
 50
180.0
 51
270.0
  0
DIMENSION
  5
4B
  8
TEAM-MAS
  2
*D3
 10
-290.0
 20
-562.740586
 30
0.0
 11
0.0
 21
-562.740586
 31
0.0
 12
-4000.0
 22
-12000.0
 32
0.0
 13
290.0
 23
-460.0
 33
0.0
 14
-290.0
 24
-460.0
 34
0.0
  0
DIMENSION
  5
59
  8
TEAM-MAS
  2
*D2
 10
500.0
 20
71.349771
 30
0.0
 11
0.0
 21
71.349771
 31
0.0
 12
-4000.0
 22
-12000.0
 32
0.0
 13
-500.0
 23
0.0
 33
0.0
 14
500.0
 24
0.0
 34
0.0
  0
LINE
  5
67
  8
TEAM-BODY
 10
500.0
 20
0.0
 30
0.0
 11
-500.0
 21
0.0
 31
0.0
  0
LINE
  5
68
  8
TEAM-BODY
 10
-270.0
 20
-120.0
 30
0.0
 11
270.0
 21
-120.0
 31
0.0
  0
ARC
  5
69
  8
TEAM-BODY
 10
270.0
 20
-140.0
 30
0.0
 40
20.0
 50
0.0
 51
90.0
  0
DIMENSION
  5
6A
  8
TEAM-MAS
  2
*D0
 10
0.0
 20
33.676565
 30
0.0
 11
250.0
 21
33.676565
 31
0.0
 12
-4000.0
 22
-12000.0
 32
0.0
 13
500.0
 23
0.0
 33
0.0
 14
0.0
 24
-170.0
 34
0.0
  0
CIRCLE
  5
78
  8
TEAM-COLD
 10
0.0
 20
-67.0
 30
0.0
 40
15.0
  0
LINE
  5
7A
  8
TEAM-AXE
 10
0.0
 20
-87.0
 30
0.0
 11
0.0
 21
-47.0
 31
0.0
  0
LINE
  5
7D
  8
TEAM-AXE
 10
31.0
 20
-170.0
 30
0.0
 11
-31.0
 21
-170.0
 31
0.0
  0
CIRCLE
  5
7E
  8
TEAM-DET1
 10
0.0
 20
-170.0
 30
0.0
 40
21.0
  0
CIRCLE
  5
80
  8
TEAM-BODY
 10
0.0
 20
-170.0
 30
0.0
 40
26.0
  0
LINE
  5
81
  8
TEAM-AXE
 10
0.0
 20
-201.0
 30
0.0
 11
0.0
 21
-139.0
 31
0.0
  0
LINE
  5
82
  8
TEAM-AXE
 10
-20.0
 20
-67.0
 30
0.0
 11
20.0
 21
-67.0
 31
0.0
  0
CIRCLE
  5
83
  8
TEAM-INSP
 10
0.0
 20
0.0
 30
0.0
 40
10.0
  0
ARC
  5
85
  8
TEAM-BODY
 10
-270.0
 20
-140.0
 30
0.0
 40
20.0
 50
90.0
 51
180.0
  0
ENDSEC
  0
EOF
