  0
SECTION
  2
HEADER
  9
$ACADVER
  1
AC1009
  9
$INSBASE
 10
0.0
 20
0.0
 30
0.0
  9
$EXTMIN
 10
-592.69198
 20
-10.059046
 30
-0.000006
  9
$EXTMAX
 10
646.150304
 20
934.304376
 30
0.0
  9
$LIMMIN
 10
-592.69198
 20
-10.059046
  9
$LIMMAX
 10
646.150304
 20
934.304376
  9
$ORTHOMODE
 70
     1
  9
$REGENMODE
 70
     1
  9
$FILLMODE
 70
     1
  9
$QTEXTMODE
 70
     0
  9
$MIRRTEXT
 70
     0
  9
$DRAGMODE
 70
     2
  9
$LTSCALE
 40
25.0
  9
$OSMODE
 70
     0
  9
$ATTMODE
 70
     1
  9
$TEXTSIZE
 40
200.0
  9
$TRACEWID
 40
1.0
  9
$TEXTSTYLE
  7
STANDARD
  9
$CLAYER
  8
TEAM-MAS
  9
$CELTYPE
  6
BYLAYER
  9
$CECOLOR
 62
   256
  9
$DIMSCALE
 40
1.0
  9
$DIMASZ
 40
20.0
  9
$DIMEXO
 40
10.0
  9
$DIMDLI
 40
1.0
  9
$DIMRND
 40
0.0
  9
$DIMDLE
 40
0.0
  9
$DIMEXE
 40
1.0
  9
$DIMTP
 40
0.0
  9
$DIMTM
 40
0.0
  9
$DIMTXT
 40
35.0
  9
$DIMCEN
 40
1.0
  9
$DIMTSZ
 40
0.0
  9
$DIMTOL
 70
     0
  9
$DIMLIM
 70
     0
  9
$DIMTIH
 70
     0
  9
$DIMTOH
 70
     0
  9
$DIMSE1
 70
     0
  9
$DIMSE2
 70
     0
  9
$DIMTAD
 70
     0
  9
$DIMZIN
 70
     0
  9
$DIMBLK
  1

  9
$DIMASO
 70
     1
  9
$DIMSHO
 70
     0
  9
$DIMPOST
  1

  9
$DIMAPOST
  1

  9
$DIMALT
 70
     0
  9
$DIMALTD
 70
     2
  9
$DIMALTF
 40
25.4
  9
$DIMLFAC
 40
1.0
  9
$DIMTOFL
 70
     0
  9
$DIMTVP
 40
0.0
  9
$DIMTIX
 70
     0
  9
$DIMSOXD
 70
     0
  9
$DIMSAH
 70
     0
  9
$DIMBLK1
  1

  9
$DIMBLK2
  1

  9
$DIMSTYLE
  2
TEAM
  9
$DIMCLRD
 70
     9
  9
$DIMCLRE
 70
     9
  9
$DIMCLRT
 70
    11
  9
$DIMTFAC
 40
1.0
  9
$DIMGAP
 40
15.0
  9
$LUNITS
 70
     2
  9
$LUPREC
 70
     1
  9
$SKETCHINC
 40
1.0
  9
$FILLETRAD
 40
150.0
  9
$AUNITS
 70
     0
  9
$AUPREC
 70
     0
  9
$MENU
  1
ROPLANS
  9
$ELEVATION
 40
0.0
  9
$PELEVATION
 40
0.0
  9
$THICKNESS
 40
0.0
  9
$LIMCHECK
 70
     0
  9
$BLIPMODE
 70
     1
  9
$CHAMFERA
 40
0.0
  9
$CHAMFERB
 40
0.0
  9
$SKPOLY
 70
     0
  9
$TDCREATE
 40
2450392.957851
  9
$TDUPDATE
 40
2455542.932003
  9
$TDINDWG
 40
2.580587
  9
$TDUSRTIMER
 40
2.580587
  9
$USRTIMER
 70
     1
  9
$ANGBASE
 50
0.0
  9
$ANGDIR
 70
     0
  9
$PDMODE
 70
     0
  9
$PDSIZE
 40
0.0
  9
$PLINEWID
 40
0.0
  9
$COORDS
 70
     2
  9
$SPLFRAME
 70
     0
  9
$SPLINETYPE
 70
     6
  9
$SPLINESEGS
 70
     8
  9
$ATTDIA
 70
     0
  9
$ATTREQ
 70
     0
  9
$HANDLING
 70
     1
  9
$HANDSEED
  5
136
  9
$SURFTAB1
 70
    12
  9
$SURFTAB2
 70
    12
  9
$SURFTYPE
 70
     6
  9
$SURFU
 70
     6
  9
$SURFV
 70
     6
  9
$UCSNAME
  2

  9
$UCSORG
 10
0.0
 20
0.0
 30
0.0
  9
$UCSXDIR
 10
1.0
 20
0.0
 30
0.0
  9
$UCSYDIR
 10
0.0
 20
1.0
 30
0.0
  9
$PUCSNAME
  2

  9
$PUCSORG
 10
0.0
 20
0.0
 30
0.0
  9
$PUCSXDIR
 10
1.0
 20
0.0
 30
0.0
  9
$PUCSYDIR
 10
0.0
 20
1.0
 30
0.0
  9
$USERI1
 70
     0
  9
$USERI2
 70
     0
  9
$USERI3
 70
     0
  9
$USERI4
 70
     0
  9
$USERI5
 70
     0
  9
$USERR1
 40
0.0
  9
$USERR2
 40
0.0
  9
$USERR3
 40
0.0
  9
$USERR4
 40
0.0
  9
$USERR5
 40
0.0
  9
$WORLDVIEW
 70
     1
  9
$SHADEDGE
 70
     0
  9
$SHADEDIF
 70
    70
  9
$TILEMODE
 70
     1
  9
$MAXACTVP
 70
    16
  9
$PLIMCHECK
 70
     0
  9
$PEXTMIN
 10
-0.805942
 20
0.005011
 30
0.0
  9
$PEXTMAX
 10
20.250094
 20
11.356329
 30
0.0
  9
$PLIMMIN
 10
0.0
 20
0.0
  9
$PLIMMAX
 10
12.0
 20
9.0
  9
$UNITMODE
 70
     0
  9
$VISRETAIN
 70
     0
  9
$PLINEGEN
 70
     0
  9
$PSLTSCALE
 70
     0
  0
ENDSEC
  0
SECTION
  2
TABLES
  0
TABLE
  2
VPORT
 70
     2
  0
VPORT
  2
*ACTIVE
 70
     0
 10
0.0
 20
0.0
 11
1.0
 21
1.0
 12
26.729162
 22
462.122665
 13
0.0
 23
0.0
 14
1.0
 24
1.0
 15
50.0
 25
50.0
 16
0.0
 26
0.0
 36
1.0
 17
0.0
 27
0.0
 37
0.0
 40
950.162993
 41
1.865779
 42
50.0
 43
0.0
 44
0.0
 50
0.0
 51
0.0
 71
     0
 72
   100
 73
     1
 74
     1
 75
     0
 76
     0
 77
     0
 78
     0
  0
ENDTAB
  0
TABLE
  2
LTYPE
 70
     3
  0
LTYPE
  2
CONTINUOUS
 70
     0
  3
Solid Line
 72
    65
 73
     0
 40
0.0
  0
LTYPE
  2
31
 70
     0
  3

 72
    65
 73
     4
 40
2.1
 49
1.5
 49
-0.3
 49
0.0
 49
-0.3
  0
LTYPE
  2
22
 70
     0
  3

 72
    65
 73
     2
 40
1.4
 49
1.2
 49
-0.2
  0
ENDTAB
  0
TABLE
  2
LAYER
 70
    11
  0
LAYER
  2
0
 70
     0
 62
     7
  6
CONTINUOUS
  0
LAYER
  2
DEFPOINTS
 70
     0
 62
     7
  6
CONTINUOUS
  0
LAYER
  2
TEAM-BODY
 70
     0
 62
     2
  6
CONTINUOUS
  0
LAYER
  2
TEAM-AXE
 70
     0
 62
    10
  6
31
  0
LAYER
  2
TEAM-MAS
 70
     0
 62
     9
  6
CONTINUOUS
  0
LAYER
  2
TEAM-TXT
 70
     0
 62
    11
  6
CONTINUOUS
  0
LAYER
  2
TEAM-COLD
 70
     0
 62
     3
  6
CONTINUOUS
  0
LAYER
  2
TEAM-HIDE
 70
     0
 62
     8
  6
22
  0
LAYER
  2
TEAM-KAN
 70
     0
 62
     6
  6
CONTINUOUS
  0
LAYER
  2
TEAM-WARM
 70
     0
 62
     1
  6
CONTINUOUS
  0
LAYER
  2
TEAM-INSP
 70
     0
 62
     5
  6
CONTINUOUS
  0
ENDTAB
  0
TABLE
  2
STYLE
 70
     2
  0
STYLE
  2
STANDARD
 70
     0
 40
0.0
 41
1.0
 50
0.0
 71
     0
 42
200.0
  3
txt
  4

  0
STYLE
  2
TEAM
 70
     0
 40
0.0
 41
0.8
 50
15.0
 71
     0
 42
7.0
  3
ROMANS.shx
  4

  0
ENDTAB
  0
TABLE
  2
VIEW
 70
     0
  0
ENDTAB
  0
TABLE
  2
UCS
 70
     0
  0
ENDTAB
  0
TABLE
  2
APPID
 70
     1
  0
APPID
  2
ACAD
 70
     0
  0
ENDTAB
  0
TABLE
  2
DIMSTYLE
 70
     1
  0
DIMSTYLE
  2
TEAM
 70
     0
  3

  4

  5

  6

  7

 40
1.0
 41
20.0
 42
10.0
 43
1.0
 44
1.0
 45
0.0
 46
0.0
 47
0.0
 48
0.0
140
35.0
141
1.0
142
0.0
143
25.4
144
1.0
145
0.0
146
1.0
147
15.0
 71
     0
 72
     0
 73
     0
 74
     0
 75
     0
 76
     0
 77
     0
 78
     0
170
     0
171
     2
172
     0
173
     0
174
     0
175
     0
176
     9
177
     9
178
    11
  0
ENDTAB
  0
ENDSEC
  0
SECTION
  2
BLOCKS
  0
BLOCK
  8
0
  2
$MODEL_SPACE
 70
     0
 10
0.0
 20
0.0
 30
0.0
  3
$MODEL_SPACE
  1

  0
ENDBLK
  5
125
  8
0
  0
BLOCK
 67
     1
  8
0
  2
$PAPER_SPACE
 70
     0
 10
0.0
 20
0.0
 30
0.0
  3
$PAPER_SPACE
  1

  0
ENDBLK
  5
123
 67
     1
  8
0
  0
BLOCK
  8
0
  2
*D0
 70
     1
 10
0.0
 20
0.0
 30
0.0
  3
*D0
  1

  0
LINE
  5
74
  8
0
  6
BYBLOCK
 62
     9
 10
8010.0
 20
12000.0
 30
0.0
 11
8587.370451
 21
12000.0
 31
0.0
  0
LINE
  5
75
  8
0
  6
BYBLOCK
 62
     9
 10
8010.0
 20
12530.0
 30
0.0
 11
8587.370451
 21
12530.0
 31
0.0
  0
LINE
  5
76
  8
0
  6
BYBLOCK
 62
     9
 10
8586.370451
 20
12020.0
 30
0.0
 11
8586.370451
 21
12218.48622
 31
0.0
  0
LINE
  5
77
  8
0
  6
BYBLOCK
 62
     9
 10
8586.370451
 20
12510.0
 30
0.0
 11
8586.370451
 21
12311.51378
 31
0.0
  0
SOLID
  5
78
  8
0
  6
BYBLOCK
 62
     9
 10
8583.037117
 20
12020.0
 30
0.0
 11
8589.703784
 21
12020.0
 31
0.0
 12
8586.370451
 22
12000.0
 32
0.0
 13
8586.370451
 23
12000.0
 33
0.0
  0
SOLID
  5
79
  8
0
  6
BYBLOCK
 62
     9
 10
8583.037117
 20
12510.0
 30
0.0
 11
8589.703784
 21
12510.0
 31
0.0
 12
8586.370451
 22
12530.0
 32
0.0
 13
8586.370451
 23
12530.0
 33
0.0
  0
TEXT
  5
7A
  8
0
  6
BYBLOCK
 62
    11
 10
8603.870451
 20
12228.23622
 30
0.0
 40
35.0
  1
530
 50
90.0
  0
POINT
  5
7B
  8
DEFPOINTS
  6
BYBLOCK
 62
     0
 10
8000.0
 20
12000.0
 30
0.0
  0
POINT
  5
7C
  8
DEFPOINTS
  6
BYBLOCK
 62
     0
 10
8000.0
 20
12530.0
 30
0.0
  0
POINT
  5
7D
  8
DEFPOINTS
  6
BYBLOCK
 62
     0
 10
8586.370451
 20
12530.0
 30
0.0
  0
ENDBLK
  5
7F
  8
0
  0
BLOCK
  8
0
  2
*D1
 70
     1
 10
0.0
 20
0.0
 30
0.0
  3
*D1
  1

  0
LINE
  5
5D
  8
0
  6
BYBLOCK
 62
     9
 10
7925.0
 20
12590.0
 30
0.0
 11
7925.0
 21
12422.124074
 31
0.0
  0
LINE
  5
5E
  8
0
  6
BYBLOCK
 62
     9
 10
8075.0
 20
12590.0
 30
0.0
 11
8075.0
 21
12422.124074
 31
0.0
  0
LINE
  5
5F
  8
0
  6
BYBLOCK
 62
     9
 10
7905.0
 20
12423.124074
 30
0.0
 11
7885.0
 21
12423.124074
 31
0.0
  0
LINE
  5
60
  8
0
  6
BYBLOCK
 62
     9
 10
8095.0
 20
12423.124074
 30
0.0
 11
8115.0
 21
12423.124074
 31
0.0
  0
SOLID
  5
61
  8
0
  6
BYBLOCK
 62
     9
 10
7905.0
 20
12426.457408
 30
0.0
 11
7905.0
 21
12419.790741
 31
0.0
 12
7925.0
 22
12423.124074
 32
0.0
 13
7925.0
 23
12423.124074
 33
0.0
  0
SOLID
  5
62
  8
0
  6
BYBLOCK
 62
     9
 10
8095.0
 20
12426.457408
 30
0.0
 11
8095.0
 21
12419.790741
 31
0.0
 12
8075.0
 22
12423.124074
 32
0.0
 13
8075.0
 23
12423.124074
 33
0.0
  0
TEXT
  5
63
  8
0
  6
BYBLOCK
 62
    11
 10
7966.73622
 20
12405.624074
 30
0.0
 40
35.0
  1
150
  0
POINT
  5
64
  8
DEFPOINTS
  6
BYBLOCK
 62
     0
 10
7925.0
 20
12600.0
 30
0.0
  0
POINT
  5
65
  8
DEFPOINTS
  6
BYBLOCK
 62
     0
 10
8075.0
 20
12600.0
 30
0.0
  0
POINT
  5
66
  8
DEFPOINTS
  6
BYBLOCK
 62
     0
 10
8075.0
 20
12423.124074
 30
0.0
  0
ENDBLK
  5
68
  8
0
  0
BLOCK
  8
0
  2
*D2
 70
     1
 10
0.0
 20
0.0
 30
0.0
  3
*D2
  1

  0
LINE
  5
4F
  8
0
  6
BYBLOCK
 62
     9
 10
8510.0
 20
12850.0
 30
0.0
 11
8587.370451
 21
12850.0
 31
0.0
  0
LINE
  5
50
  8
0
  6
BYBLOCK
 62
     9
 10
8010.0
 20
12530.0
 30
0.0
 11
8587.370451
 21
12530.0
 31
0.0
  0
LINE
  5
51
  8
0
  6
BYBLOCK
 62
     9
 10
8586.370451
 20
12830.0
 30
0.0
 11
8586.370451
 21
12736.51378
 31
0.0
  0
LINE
  5
52
  8
0
  6
BYBLOCK
 62
     9
 10
8586.370451
 20
12550.0
 30
0.0
 11
8586.370451
 21
12643.48622
 31
0.0
  0
SOLID
  5
53
  8
0
  6
BYBLOCK
 62
     9
 10
8583.037117
 20
12830.0
 30
0.0
 11
8589.703784
 21
12830.0
 31
0.0
 12
8586.370451
 22
12850.0
 32
0.0
 13
8586.370451
 23
12850.0
 33
0.0
  0
SOLID
  5
54
  8
0
  6
BYBLOCK
 62
     9
 10
8583.037117
 20
12550.0
 30
0.0
 11
8589.703784
 21
12550.0
 31
0.0
 12
8586.370451
 22
12530.0
 32
0.0
 13
8586.370451
 23
12530.0
 33
0.0
  0
TEXT
  5
55
  8
0
  6
BYBLOCK
 62
    11
 10
8603.870451
 20
12653.23622
 30
0.0
 40
35.0
  1
320
 50
90.0
  0
POINT
  5
56
  8
DEFPOINTS
  6
BYBLOCK
 62
     0
 10
8500.0
 20
12850.0
 30
0.0
  0
POINT
  5
57
  8
DEFPOINTS
  6
BYBLOCK
 62
     0
 10
8000.0
 20
12530.0
 30
0.0
  0
POINT
  5
58
  8
DEFPOINTS
  6
BYBLOCK
 62
     0
 10
8586.370451
 20
12530.0
 30
0.0
  0
ENDBLK
  5
5A
  8
0
  0
BLOCK
  8
0
  2
*D3
 70
     1
 10
0.0
 20
0.0
 30
0.0
  3
*D3
  1

  0
LINE
  5
41
  8
0
  6
BYBLOCK
 62
     9
 10
8510.0
 20
12850.0
 30
0.0
 11
8629.931888
 21
12850.0
 31
0.0
  0
LINE
  5
42
  8
0
  6
BYBLOCK
 62
     9
 10
8010.0
 20
12000.0
 30
0.0
 11
8629.931888
 21
12000.0
 31
0.0
  0
LINE
  5
43
  8
0
  6
BYBLOCK
 62
     9
 10
8628.931888
 20
12830.0
 30
0.0
 11
8628.931888
 21
12471.51378
 31
0.0
  0
LINE
  5
44
  8
0
  6
BYBLOCK
 62
     9
 10
8628.931888
 20
12020.0
 30
0.0
 11
8628.931888
 21
12378.48622
 31
0.0
  0
SOLID
  5
45
  8
0
  6
BYBLOCK
 62
     9
 10
8625.598555
 20
12830.0
 30
0.0
 11
8632.265222
 21
12830.0
 31
0.0
 12
8628.931888
 22
12850.0
 32
0.0
 13
8628.931888
 23
12850.0
 33
0.0
  0
SOLID
  5
46
  8
0
  6
BYBLOCK
 62
     9
 10
8625.598555
 20
12020.0
 30
0.0
 11
8632.265222
 21
12020.0
 31
0.0
 12
8628.931888
 22
12000.0
 32
0.0
 13
8628.931888
 23
12000.0
 33
0.0
  0
TEXT
  5
47
  8
0
  6
BYBLOCK
 62
    11
 10
8646.431888
 20
12388.23622
 30
0.0
 40
35.0
  1
850
 50
90.0
  0
POINT
  5
48
  8
DEFPOINTS
  6
BYBLOCK
 62
     0
 10
8500.0
 20
12850.0
 30
0.0
  0
POINT
  5
49
  8
DEFPOINTS
  6
BYBLOCK
 62
     0
 10
8000.0
 20
12000.0
 30
0.0
  0
POINT
  5
4A
  8
DEFPOINTS
  6
BYBLOCK
 62
     0
 10
8628.931888
 20
12000.0
 30
0.0
  0
ENDBLK
  5
4C
  8
0
  0
BLOCK
  8
0
  2
*D4
 70
     1
 10
0.0
 20
0.0
 30
0.0
  3
*D4
  1

  0
LINE
  5
C4
  8
0
  6
BYBLOCK
 62
     9
 10
8510.0
 20
12850.0
 30
0.0
 11
8543.314186
 21
12850.0
 31
0.0
  0
LINE
  5
C5
  8
0
  6
BYBLOCK
 62
     9
 10
8085.0
 20
12600.0
 30
0.0
 11
8543.314186
 21
12600.0
 31
0.0
  0
LINE
  5
C6
  8
0
  6
BYBLOCK
 62
     9
 10
8542.314186
 20
12830.0
 30
0.0
 11
8542.314186
 21
12771.958169
 31
0.0
  0
LINE
  5
C7
  8
0
  6
BYBLOCK
 62
     9
 10
8542.314186
 20
12620.0
 30
0.0
 11
8542.314186
 21
12678.041831
 31
0.0
  0
SOLID
  5
C8
  8
0
  6
BYBLOCK
 62
     9
 10
8538.980853
 20
12830.0
 30
0.0
 11
8545.64752
 21
12830.0
 31
0.0
 12
8542.314186
 22
12850.0
 32
0.0
 13
8542.314186
 23
12850.0
 33
0.0
  0
SOLID
  5
C9
  8
0
  6
BYBLOCK
 62
     9
 10
8538.980853
 20
12620.0
 30
0.0
 11
8545.64752
 21
12620.0
 31
0.0
 12
8542.314186
 22
12600.0
 32
0.0
 13
8542.314186
 23
12600.0
 33
0.0
  0
TEXT
  5
CA
  8
0
  6
BYBLOCK
 62
    11
 10
8559.814186
 20
12688.68061
 30
0.0
 40
35.0
  1
250
 50
90.0
  0
POINT
  5
CB
  8
DEFPOINTS
  6
BYBLOCK
 62
     0
 10
8500.0
 20
12850.0
 30
0.0
  0
POINT
  5
CC
  8
DEFPOINTS
  6
BYBLOCK
 62
     0
 10
8075.0
 20
12600.0
 30
0.0
  0
POINT
  5
CD
  8
DEFPOINTS
  6
BYBLOCK
 62
     0
 10
8542.314186
 20
12600.0
 30
0.0
  0
ENDBLK
  5
CF
  8
0
  0
BLOCK
  8
0
  2
*D5
 70
     1
 10
0.0
 20
0.0
 30
0.0
  3
*D5
  1

  0
LINE
  5
33
  8
0
  6
BYBLOCK
 62
     9
 10
8085.0
 20
12600.0
 30
0.0
 11
8543.314186
 21
12600.0
 31
0.0
  0
LINE
  5
34
  8
0
  6
BYBLOCK
 62
     9
 10
8010.0
 20
12000.0
 30
0.0
 11
8543.314186
 21
12000.0
 31
0.0
  0
LINE
  5
35
  8
0
  6
BYBLOCK
 62
     9
 10
8542.314186
 20
12580.0
 30
0.0
 11
8542.314186
 21
12347.561024
 31
0.0
  0
LINE
  5
36
  8
0
  6
BYBLOCK
 62
     9
 10
8542.314186
 20
12020.0
 30
0.0
 11
8542.314186
 21
12252.438976
 31
0.0
  0
SOLID
  5
37
  8
0
  6
BYBLOCK
 62
     9
 10
8538.980853
 20
12580.0
 30
0.0
 11
8545.64752
 21
12580.0
 31
0.0
 12
8542.314186
 22
12600.0
 32
0.0
 13
8542.314186
 23
12600.0
 33
0.0
  0
SOLID
  5
38
  8
0
  6
BYBLOCK
 62
     9
 10
8538.980853
 20
12020.0
 30
0.0
 11
8545.64752
 21
12020.0
 31
0.0
 12
8542.314186
 22
12000.0
 32
0.0
 13
8542.314186
 23
12000.0
 33
0.0
  0
TEXT
  5
39
  8
0
  6
BYBLOCK
 62
    11
 10
8559.814186
 20
12264.283465
 30
0.0
 40
35.0
  1
600
 50
90.0
  0
POINT
  5
3A
  8
DEFPOINTS
  6
BYBLOCK
 62
     0
 10
8075.0
 20
12600.0
 30
0.0
  0
POINT
  5
3B
  8
DEFPOINTS
  6
BYBLOCK
 62
     0
 10
8000.0
 20
12000.0
 30
0.0
  0
POINT
  5
3C
  8
DEFPOINTS
  6
BYBLOCK
 62
     0
 10
8542.314186
 20
12000.0
 30
0.0
  0
ENDBLK
  5
3E
  8
0
  0
BLOCK
  8
0
  2
*D6
 70
     1
 10
0.0
 20
0.0
 30
0.0
  3
*D6
  1

  0
LINE
  5
A5
  8
0
  6
BYBLOCK
 62
     9
 10
7490.0
 20
12850.0
 30
0.0
 11
7462.134866
 21
12850.0
 31
0.0
  0
LINE
  5
A6
  8
0
  6
BYBLOCK
 62
     9
 10
7490.0
 20
12790.0
 30
0.0
 11
7462.134866
 21
12790.0
 31
0.0
  0
LINE
  5
A7
  8
0
  6
BYBLOCK
 62
     9
 10
7463.134866
 20
12870.0
 30
0.0
 11
7463.134866
 21
12890.0
 31
0.0
  0
LINE
  5
A8
  8
0
  6
BYBLOCK
 62
     9
 10
7463.134866
 20
12770.0
 30
0.0
 11
7463.134866
 21
12750.0
 31
0.0
  0
TEXT
  5
A9
  8
0
  6
BYBLOCK
 62
    11
 10
7480.634866
 20
12697.037944
 30
0.0
 40
35.0
  1
60
 50
90.0
  0
LINE
  5
AA
  8
0
  6
BYBLOCK
 62
     9
 10
7463.134866
 20
12850.0
 30
0.0
 11
7463.134866
 21
12790.0
 31
0.0
  0
SOLID
  5
AB
  8
0
  6
BYBLOCK
 62
     9
 10
7459.801532
 20
12870.0
 30
0.0
 11
7466.468199
 21
12870.0
 31
0.0
 12
7463.134866
 22
12850.0
 32
0.0
 13
7463.134866
 23
12850.0
 33
0.0
  0
SOLID
  5
AC
  8
0
  6
BYBLOCK
 62
     9
 10
7459.801532
 20
12770.0
 30
0.0
 11
7466.468199
 21
12770.0
 31
0.0
 12
7463.134866
 22
12790.0
 32
0.0
 13
7463.134866
 23
12790.0
 33
0.0
  0
POINT
  5
AD
  8
DEFPOINTS
  6
BYBLOCK
 62
     0
 10
7500.0
 20
12850.0
 30
0.0
  0
POINT
  5
AE
  8
DEFPOINTS
  6
BYBLOCK
 62
     0
 10
7500.0
 20
12790.0
 30
0.0
  0
POINT
  5
AF
  8
DEFPOINTS
  6
BYBLOCK
 62
     0
 10
7463.134866
 20
12790.0
 30
0.0
  0
ENDBLK
  5
B1
  8
0
  0
BLOCK
  8
0
  2
*D7
 70
     1
 10
0.0
 20
0.0
 30
0.0
  3
*D7
  1

  0
LINE
  5
97
  8
0
  6
BYBLOCK
 62
     9
 10
7490.0
 20
12850.0
 30
0.0
 11
7423.89661
 21
12850.0
 31
0.0
  0
LINE
  5
98
  8
0
  6
BYBLOCK
 62
     9
 10
7989.420634
 20
12724.999581
 30
0.0
 11
7423.89661
 21
12724.999581
 31
0.0
  0
LINE
  5
99
  8
0
  6
BYBLOCK
 62
     9
 10
7424.89661
 20
12830.0
 30
0.0
 11
7424.89661
 21
12815.0
 31
0.0
  0
LINE
  5
9A
  8
0
  6
BYBLOCK
 62
     9
 10
7424.89661
 20
12744.999581
 30
0.0
 11
7424.89661
 21
12759.999581
 31
0.0
  0
TEXT
  5
9B
  8
0
  6
BYBLOCK
 62
    11
 10
7442.39661
 20
12753.524917
 30
0.0
 40
35.0
  1
125
 50
90.0
  0
SOLID
  5
9C
  8
0
  6
BYBLOCK
 62
     9
 10
7421.563277
 20
12830.0
 30
0.0
 11
7428.229943
 21
12830.0
 31
0.0
 12
7424.89661
 22
12850.0
 32
0.0
 13
7424.89661
 23
12850.0
 33
0.0
  0
SOLID
  5
9D
  8
0
  6
BYBLOCK
 62
     9
 10
7421.563277
 20
12744.999581
 30
0.0
 11
7428.229943
 21
12744.999581
 31
0.0
 12
7424.89661
 22
12724.999581
 32
0.0
 13
7424.89661
 23
12724.999581
 33
0.0
  0
POINT
  5
9E
  8
DEFPOINTS
  6
BYBLOCK
 62
     0
 10
7500.0
 20
12850.0
 30
0.0
  0
POINT
  5
9F
  8
DEFPOINTS
  6
BYBLOCK
 62
     0
 10
7999.420634
 20
12724.999581
 30
0.0
  0
POINT
  5
A0
  8
DEFPOINTS
  6
BYBLOCK
 62
     0
 10
7424.89661
 20
12724.999581
 30
0.0
  0
ENDBLK
  5
A2
  8
0
  0
BLOCK
  8
0
  2
*D8
 70
     1
 10
0.0
 20
0.0
 30
0.0
  3
*D8
  1

  0
LINE
  5
83
  8
0
  6
BYBLOCK
 62
     9
 10
7825.0
 20
12800.0
 30
0.0
 11
7655.022665
 21
12800.0
 31
0.0
  0
LINE
  5
84
  8
0
  6
BYBLOCK
 62
     9
 10
7698.841267
 20
12850.0
 30
0.0
 11
7655.022665
 21
12850.0
 31
0.0
  0
LINE
  5
85
  8
0
  6
BYBLOCK
 62
     9
 10
7656.022665
 20
12780.0
 30
0.0
 11
7656.022665
 21
12760.0
 31
0.0
  0
LINE
  5
86
  8
0
  6
BYBLOCK
 62
     9
 10
7656.022665
 20
12870.0
 30
0.0
 11
7656.022665
 21
12890.0
 31
0.0
  0
TEXT
  5
87
  8
0
  6
BYBLOCK
 62
    11
 10
7673.522665
 20
12890.486552
 30
0.0
 40
35.0
  1
50
 50
90.0
  0
LINE
  5
88
  8
0
  6
BYBLOCK
 62
     9
 10
7656.022665
 20
12800.0
 30
0.0
 11
7656.022665
 21
12850.0
 31
0.0
  0
SOLID
  5
89
  8
0
  6
BYBLOCK
 62
     9
 10
7652.689331
 20
12780.0
 30
0.0
 11
7659.355998
 21
12780.0
 31
0.0
 12
7656.022665
 22
12800.0
 32
0.0
 13
7656.022665
 23
12800.0
 33
0.0
  0
SOLID
  5
8A
  8
0
  6
BYBLOCK
 62
     9
 10
7652.689331
 20
12870.0
 30
0.0
 11
7659.355998
 21
12870.0
 31
0.0
 12
7656.022665
 22
12850.0
 32
0.0
 13
7656.022665
 23
12850.0
 33
0.0
  0
POINT
  5
8B
  8
DEFPOINTS
  6
BYBLOCK
 62
     0
 10
7835.0
 20
12800.0
 30
0.0
  0
POINT
  5
8C
  8
DEFPOINTS
  6
BYBLOCK
 62
     0
 10
7708.841267
 20
12850.0
 30
0.0
  0
POINT
  5
8D
  8
DEFPOINTS
  6
BYBLOCK
 62
     0
 10
7656.022665
 20
12850.0
 30
0.0
  0
ENDBLK
  5
8F
  8
0
  0
BLOCK
  8
0
  2
*D9
 70
     1
 10
0.0
 20
0.0
 30
0.0
  3
*D9
  1

  0
LINE
  5
24
  8
0
  6
BYBLOCK
 62
     9
 10
7860.0
 20
12824.0
 30
0.0
 11
7860.0
 21
12890.52054
 31
0.0
  0
LINE
  5
25
  8
0
  6
BYBLOCK
 62
     9
 10
8140.0
 20
12824.0
 30
0.0
 11
8140.0
 21
12890.52054
 31
0.0
  0
LINE
  5
26
  8
0
  6
BYBLOCK
 62
     9
 10
7880.0
 20
12889.52054
 30
0.0
 11
7953.041831
 21
12889.52054
 31
0.0
  0
LINE
  5
27
  8
0
  6
BYBLOCK
 62
     9
 10
8120.0
 20
12889.52054
 30
0.0
 11
8046.958169
 21
12889.52054
 31
0.0
  0
SOLID
  5
28
  8
0
  6
BYBLOCK
 62
     9
 10
7880.0
 20
12892.853873
 30
0.0
 11
7880.0
 21
12886.187206
 31
0.0
 12
7860.0
 22
12889.52054
 32
0.0
 13
7860.0
 23
12889.52054
 33
0.0
  0
SOLID
  5
29
  8
0
  6
BYBLOCK
 62
     9
 10
8120.0
 20
12892.853873
 30
0.0
 11
8120.0
 21
12886.187206
 31
0.0
 12
8140.0
 22
12889.52054
 32
0.0
 13
8140.0
 23
12889.52054
 33
0.0
  0
TEXT
  5
2A
  8
0
  6
BYBLOCK
 62
    11
 10
7963.68061
 20
12872.02054
 30
0.0
 40
35.0
  1
280
  0
POINT
  5
2B
  8
DEFPOINTS
  6
BYBLOCK
 62
     0
 10
7860.0
 20
12814.0
 30
0.0
  0
POINT
  5
2D
  8
DEFPOINTS
  6
BYBLOCK
 62
     0
 10
8140.0
 20
12814.0
 30
0.0
  0
POINT
  5
2E
  8
DEFPOINTS
  6
BYBLOCK
 62
     0
 10
8140.0
 20
12889.52054
 30
0.0
  0
ENDBLK
  5
30
  8
0
  0
ENDSEC
  0
SECTION
  2
ENTITIES
  0
LINE
  5
20
  8
TEAM-BODY
 10
-254.383592
 20
724.999581
 30
0.0
 11
254.383592
 21
724.999581
 31
0.0
  0
DIMENSION
  5
22
  8
TEAM-MAS
  2
*D9
 10
140.0
 20
889.52054
 30
0.0
 11
0.0
 21
889.52054
 31
0.0
 12
-8000.0
 22
-12000.0
 32
0.0
 13
-140.0
 23
814.0
 33
0.0
 14
140.0
 24
814.0
 34
0.0
1001
ACAD
1000
DSTYLE
1002
{
1070
    40
1040
1.0
1002
}
  0
DIMENSION
  5
31
  8
TEAM-MAS
  2
*D5
 10
542.314186
 20
0.0
 30
0.0
 11
542.314186
 21
300.0
 31
0.0
 12
-8000.0
 22
-12000.0
 32
0.0
 13
75.0
 23
600.0
 33
0.0
 14
0.0
 24
0.0
 34
0.0
 50
90.0
1001
ACAD
1000
DSTYLE
1002
{
1070
    40
1040
1.0
1002
}
  0
DIMENSION
  5
3F
  8
TEAM-MAS
  2
*D3
 10
628.931888
 20
0.0
 30
0.0
 11
628.931888
 21
425.0
 31
0.0
 12
-8000.0
 22
-12000.0
 32
0.0
 13
500.0
 23
850.0
 33
0.0
 14
0.0
 24
0.0
 34
0.0
 50
90.0
1001
ACAD
1000
DSTYLE
1002
{
1070
    40
1040
1.0
1002
}
  0
DIMENSION
  5
4D
  8
TEAM-MAS
  2
*D2
 10
586.370451
 20
530.0
 30
0.0
 11
586.370451
 21
690.0
 31
0.0
 12
-8000.0
 22
-12000.0
 32
0.0
 13
500.0
 23
850.0
 33
0.0
 14
0.0
 24
530.0
 34
0.0
 50
90.0
1001
ACAD
1000
DSTYLE
1002
{
1070
    40
1040
1.0
1002
}
  0
DIMENSION
  5
5B
  8
TEAM-MAS
  2
*D1
 10
75.0
 20
423.124074
 30
0.0
 11
0.0
 21
423.124074
 31
0.0
 12
-8000.0
 22
-12000.0
 32
0.0
 13
-75.0
 23
600.0
 33
0.0
 14
75.0
 24
600.0
 34
0.0
1001
ACAD
1000
DSTYLE
1002
{
1070
    40
1040
1.0
1002
}
  0
LINE
  5
69
  8
TEAM-AXE
 10
55.0
 20
600.0
 30
0.0
 11
95.0
 21
600.0
 31
0.0
  0
ARC
  5
6C
  8
TEAM-BODY
 10
-0.579366
 20
1125.24413
 30
0.0
 40
400.244549
 50
236.887362
 51
303.112638
  0
LINE
  5
6D
  8
TEAM-BODY
 10
500.0
 20
790.0
 30
0.0
 11
-500.0
 21
790.0
 31
0.0
  0
TEXT
  5
6E
  8
TEAM-TXT
 10
-110.128634
 20
749.722045
 30
0.0
 40
30.0
  1
team 421417
 41
0.8
 51
15.0
  7
TEAM
  0
LINE
  5
71
  8
TEAM-BODY
 10
500.0
 20
850.0
 30
0.0
 11
-500.0
 21
850.0
 31
0.0
  0
DIMENSION
  5
72
  8
TEAM-MAS
  2
*D0
 10
586.370451
 20
530.0
 30
0.0
 11
586.370451
 21
265.0
 31
0.0
 12
-8000.0
 22
-12000.0
 32
0.0
 13
0.0
 23
0.0
 33
0.0
 14
0.0
 24
530.0
 34
0.0
 50
90.0
  0
LINE
  5
80
  8
TEAM-BODY
 10
-272.904182
 20
790.0
 30
0.0
 11
-254.383592
 21
724.999581
 31
0.0
  0
DIMENSION
  5
81
  8
TEAM-MAS
  2
*D8
 10
-343.977335
 20
850.0
 30
0.0
 11
-343.977335
 21
915.000332
 31
0.0
 12
-8000.0
 22
-12000.0
 32
0.0
 70
   128
 13
-165.0
 23
800.0
 33
0.0
 14
-291.158733
 24
850.0
 34
0.0
 50
90.0
1001
ACAD
1000
DSTYLE
1002
{
1070
    40
1040
1.0
1002
}
  0
LINE
  5
90
  8
TEAM-AXE
 10
-165.0
 20
800.0
 30
0.0
 11
-115.0
 21
800.0
 31
0.0
  0
LINE
  5
91
  8
TEAM-AXE
 10
-140.0
 20
814.0
 30
0.0
 11
-140.0
 21
786.0
 31
0.0
  0
POLYLINE
  5
92
  8
TEAM-HIDE
 66
     1
 10
0.0
 20
0.0
 30
0.0
 70
     1
  0
VERTEX
  5
12B
  8
TEAM-HIDE
 10
-129.0
 20
791.0
 30
0.0
 42
1.0
  0
VERTEX
  5
12C
  8
TEAM-HIDE
 10
-129.0
 20
809.0
 30
0.0
  0
VERTEX
  5
12D
  8
TEAM-HIDE
 10
-151.0
 20
809.0
 30
0.0
 42
1.0
  0
VERTEX
  5
12E
  8
TEAM-HIDE
 10
-151.0
 20
791.0
 30
0.0
  0
SEQEND
  5
12F
  8
TEAM-HIDE
  0
DIMENSION
  5
95
  8
TEAM-MAS
  2
*D7
 10
-575.10339
 20
724.999581
 30
0.0
 11
-575.10339
 21
787.49979
 31
0.0
 12
-8000.0
 22
-12000.0
 32
0.0
 70
   128
 13
-500.0
 23
850.0
 33
0.0
 14
-0.579366
 24
724.999581
 34
0.0
 50
90.0
1001
ACAD
1000
DSTYLE
1002
{
1070
    40
1040
1.0
1002
}
  0
DIMENSION
  5
A3
  8
TEAM-MAS
  2
*D6
 10
-536.865134
 20
790.0
 30
0.0
 11
-536.865134
 21
720.504479
 31
0.0
 12
-8000.0
 22
-12000.0
 32
0.0
 70
   128
 13
-500.0
 23
850.0
 33
0.0
 14
-500.0
 24
790.0
 34
0.0
 50
90.0
1001
ACAD
1000
DSTYLE
1002
{
1070
    40
1040
1.0
1002
}
  0
CIRCLE
  5
B2
  8
TEAM-WARM
 10
-75.0
 20
600.0
 30
0.0
 40
15.0
  0
LINE
  5
B4
  8
TEAM-AXE
 10
-95.0
 20
600.0
 30
0.0
 11
-55.0
 21
600.0
 31
0.0
  0
LINE
  5
B5
  8
TEAM-AXE
 10
-75.0
 20
580.0
 30
0.0
 11
-75.0
 21
620.0
 31
0.0
  0
ARC
  5
B6
  8
TEAM-HIDE
 10
-0.579366
 20
1125.24413
 30
0.0
 40
400.244549
 50
223.447521
 51
236.887362
  0
LINE
  5
B7
  8
TEAM-AXE
 10
0.0
 20
850.0
 30
0.0
 11
0.0
 21
491.549187
 31
0.0
  0
LINE
  5
B8
  8
TEAM-AXE
 10
-30.0
 20
530.0
 30
0.0
 11
30.0
 21
530.0
 31
0.0
  0
CIRCLE
  5
B9
  8
TEAM-KAN
 10
0.0
 20
530.0
 30
0.0
 40
20.0
  0
LINE
  5
BB
  8
TEAM-BODY
 10
-500.0
 20
850.0
 30
0.0
 11
-500.0
 21
790.0
 31
0.0
  0
CIRCLE
  5
BC
  8
TEAM-INSP
 10
0.0
 20
0.0
 30
0.0
 40
10.0
  0
LINE
  5
BE
  8
TEAM-BODY
 10
272.904182
 20
790.0
 30
0.0
 11
254.383592
 21
724.999581
 31
0.0
  0
LINE
  5
BF
  8
TEAM-AXE
 10
115.0
 20
800.0
 30
0.0
 11
165.0
 21
800.0
 31
0.0
  0
LINE
  5
C0
  8
TEAM-AXE
 10
140.0
 20
814.0
 30
0.0
 11
140.0
 21
786.0
 31
0.0
  0
POLYLINE
  5
C1
  8
TEAM-HIDE
 66
     1
 10
0.0
 20
0.0
 30
0.0
 70
     1
  0
VERTEX
  5
130
  8
TEAM-HIDE
 10
151.0
 20
791.0
 30
0.0
 42
1.0
  0
VERTEX
  5
131
  8
TEAM-HIDE
 10
151.0
 20
809.0
 30
0.0
  0
VERTEX
  5
132
  8
TEAM-HIDE
 10
129.0
 20
809.0
 30
0.0
 42
1.0
  0
VERTEX
  5
133
  8
TEAM-HIDE
 10
129.0
 20
791.0
 30
0.0
  0
SEQEND
  5
134
  8
TEAM-HIDE
  0
DIMENSION
  5
C2
  8
TEAM-MAS
  2
*D4
 10
542.314186
 20
600.0
 30
0.0
 11
542.314186
 21
725.0
 31
0.0
 12
-8000.0
 22
-12000.0
 32
0.0
 13
500.0
 23
850.0
 33
0.0
 14
75.0
 24
600.0
 34
0.0
 50
90.0
1001
ACAD
1000
DSTYLE
1002
{
1070
    40
1040
1.0
1002
}
  0
CIRCLE
  5
D0
  8
TEAM-COLD
 10
75.0
 20
600.0
 30
0.0
 40
15.0
  0
LINE
  5
D2
  8
TEAM-AXE
 10
75.0
 20
580.0
 30
0.0
 11
75.0
 21
620.0
 31
0.0
  0
ARC
  5
D3
  8
TEAM-HIDE
 10
-0.579366
 20
1125.24413
 30
0.0
 40
400.244549
 50
303.112638
 51
316.552479
  0
LINE
  5
D4
  8
TEAM-BODY
 10
500.0
 20
790.0
 30
0.0
 11
500.0
 21
850.0
 31
0.0
  0
ENDSEC
  0
EOF
