  0
SECTION
  2
HEADER
  9
$ACADVER
  1
AC1009
  9
$INSBASE
 10
0.0
 20
0.0
 30
0.0
  9
$EXTMIN
 10
-398.351915
 20
-10.070142
 30
-20.000243
  9
$EXTMAX
 10
598.179272
 20
938.971361
 30
20.001384
  9
$LIMMIN
 10
-398.351915
 20
-10.070142
  9
$LIMMAX
 10
598.179272
 20
938.971361
  9
$ORTHOMODE
 70
     1
  9
$REGENMODE
 70
     1
  9
$FILLMODE
 70
     1
  9
$QTEXTMODE
 70
     0
  9
$MIRRTEXT
 70
     0
  9
$DRAGMODE
 70
     2
  9
$LTSCALE
 40
50.0
  9
$OSMODE
 70
     0
  9
$ATTMODE
 70
     1
  9
$TEXTSIZE
 40
200.0
  9
$TRACEWID
 40
1.0
  9
$TEXTSTYLE
  7
STANDARD
  9
$CLAYER
  8
TEAM-MAS
  9
$CELTYPE
  6
BYLAYER
  9
$CECOLOR
 62
   256
  9
$DIMSCALE
 40
0.0
  9
$DIMASZ
 40
20.0
  9
$DIMEXO
 40
10.0
  9
$DIMDLI
 40
1.0
  9
$DIMRND
 40
0.0
  9
$DIMDLE
 40
0.0
  9
$DIMEXE
 40
1.0
  9
$DIMTP
 40
0.0
  9
$DIMTM
 40
0.0
  9
$DIMTXT
 40
35.0
  9
$DIMCEN
 40
1.0
  9
$DIMTSZ
 40
0.0
  9
$DIMTOL
 70
     0
  9
$DIMLIM
 70
     0
  9
$DIMTIH
 70
     0
  9
$DIMTOH
 70
     0
  9
$DIMSE1
 70
     0
  9
$DIMSE2
 70
     0
  9
$DIMTAD
 70
     0
  9
$DIMZIN
 70
     0
  9
$DIMBLK
  1

  9
$DIMASO
 70
     1
  9
$DIMSHO
 70
     0
  9
$DIMPOST
  1

  9
$DIMAPOST
  1

  9
$DIMALT
 70
     0
  9
$DIMALTD
 70
     2
  9
$DIMALTF
 40
25.4
  9
$DIMLFAC
 40
1.0
  9
$DIMTOFL
 70
     0
  9
$DIMTVP
 40
0.0
  9
$DIMTIX
 70
     0
  9
$DIMSOXD
 70
     0
  9
$DIMSAH
 70
     0
  9
$DIMBLK1
  1

  9
$DIMBLK2
  1

  9
$DIMSTYLE
  2
TEAM
  9
$DIMCLRD
 70
     9
  9
$DIMCLRE
 70
     9
  9
$DIMCLRT
 70
    11
  9
$DIMTFAC
 40
1.0
  9
$DIMGAP
 40
7.0
  9
$LUNITS
 70
     2
  9
$LUPREC
 70
     1
  9
$SKETCHINC
 40
1.0
  9
$FILLETRAD
 40
50.0
  9
$AUNITS
 70
     0
  9
$AUPREC
 70
     0
  9
$MENU
  1
ROPLANS
  9
$ELEVATION
 40
0.0
  9
$PELEVATION
 40
0.0
  9
$THICKNESS
 40
0.0
  9
$LIMCHECK
 70
     0
  9
$BLIPMODE
 70
     1
  9
$CHAMFERA
 40
0.0
  9
$CHAMFERB
 40
0.0
  9
$SKPOLY
 70
     0
  9
$TDCREATE
 40
2450392.957851
  9
$TDUPDATE
 40
2456272.033233
  9
$TDINDWG
 40
2.315654
  9
$TDUSRTIMER
 40
2.315654
  9
$USRTIMER
 70
     1
  9
$ANGBASE
 50
0.0
  9
$ANGDIR
 70
     0
  9
$PDMODE
 70
     0
  9
$PDSIZE
 40
0.0
  9
$PLINEWID
 40
0.0
  9
$COORDS
 70
     2
  9
$SPLFRAME
 70
     0
  9
$SPLINETYPE
 70
     6
  9
$SPLINESEGS
 70
     8
  9
$ATTDIA
 70
     0
  9
$ATTREQ
 70
     0
  9
$HANDLING
 70
     1
  9
$HANDSEED
  5
156
  9
$SURFTAB1
 70
    24
  9
$SURFTAB2
 70
    24
  9
$SURFTYPE
 70
     6
  9
$SURFU
 70
     6
  9
$SURFV
 70
     6
  9
$UCSNAME
  2

  9
$UCSORG
 10
0.0
 20
0.0
 30
0.0
  9
$UCSXDIR
 10
1.0
 20
0.0
 30
0.0
  9
$UCSYDIR
 10
0.0
 20
1.0
 30
0.0
  9
$PUCSNAME
  2

  9
$PUCSORG
 10
0.0
 20
0.0
 30
0.0
  9
$PUCSXDIR
 10
1.0
 20
0.0
 30
0.0
  9
$PUCSYDIR
 10
0.0
 20
1.0
 30
0.0
  9
$USERI1
 70
     0
  9
$USERI2
 70
     0
  9
$USERI3
 70
     0
  9
$USERI4
 70
     0
  9
$USERI5
 70
     0
  9
$USERR1
 40
0.0
  9
$USERR2
 40
0.0
  9
$USERR3
 40
0.0
  9
$USERR4
 40
0.0
  9
$USERR5
 40
0.0
  9
$WORLDVIEW
 70
     1
  9
$SHADEDGE
 70
     0
  9
$SHADEDIF
 70
    70
  9
$TILEMODE
 70
     1
  9
$MAXACTVP
 70
    16
  9
$PLIMCHECK
 70
     0
  9
$PEXTMIN
 10
-0.805942
 20
0.005011
 30
0.0
  9
$PEXTMAX
 10
20.250094
 20
11.356329
 30
0.0
  9
$PLIMMIN
 10
0.0
 20
0.0
  9
$PLIMMAX
 10
12.0
 20
9.0
  9
$UNITMODE
 70
     0
  9
$VISRETAIN
 70
     0
  9
$PLINEGEN
 70
     0
  9
$PSLTSCALE
 70
     0
  0
ENDSEC
  0
SECTION
  2
TABLES
  0
TABLE
  2
VPORT
 70
     2
  0
VPORT
  2
*ACTIVE
 70
     0
 10
0.0
 20
0.0
 11
1.0
 21
1.0
 12
99.913678
 22
464.45061
 13
0.0
 23
0.0
 14
1.0
 24
1.0
 15
50.0
 25
50.0
 16
0.0
 26
0.0
 36
1.0
 17
0.0
 27
0.0
 37
0.0
 40
955.01658
 41
1.911765
 42
50.0
 43
0.0
 44
0.0
 50
0.0
 51
0.0
 71
     0
 72
   100
 73
     1
 74
     1
 75
     0
 76
     0
 77
     0
 78
     0
  0
ENDTAB
  0
TABLE
  2
LTYPE
 70
     3
  0
LTYPE
  2
CONTINUOUS
 70
     0
  3
Solid Line
 72
    65
 73
     0
 40
0.0
  0
LTYPE
  2
31
 70
     0
  3

 72
    65
 73
     4
 40
2.1
 49
1.5
 49
-0.3
 49
0.0
 49
-0.3
  0
LTYPE
  2
22
 70
     0
  3

 72
    65
 73
     2
 40
1.4
 49
1.2
 49
-0.2
  0
ENDTAB
  0
TABLE
  2
LAYER
 70
    12
  0
LAYER
  2
0
 70
     0
 62
     7
  6
CONTINUOUS
  0
LAYER
  2
DEFPOINTS
 70
     0
 62
     7
  6
CONTINUOUS
  0
LAYER
  2
TEAM-BODY
 70
     0
 62
     2
  6
CONTINUOUS
  0
LAYER
  2
TEAM-AXE
 70
     0
 62
    10
  6
31
  0
LAYER
  2
TEAM-MAS
 70
     0
 62
     9
  6
CONTINUOUS
  0
LAYER
  2
TEAM-TXT
 70
     0
 62
    11
  6
CONTINUOUS
  0
LAYER
  2
TEAM-COLD
 70
     0
 62
     3
  6
CONTINUOUS
  0
LAYER
  2
TEAM-HIDE
 70
     0
 62
     8
  6
22
  0
LAYER
  2
TEAM-KAN
 70
     0
 62
     6
  6
CONTINUOUS
  0
LAYER
  2
TEAM-DET3
 70
     0
 62
    14
  6
CONTINUOUS
  0
LAYER
  2
TEAM-WARM
 70
     0
 62
     1
  6
CONTINUOUS
  0
LAYER
  2
TEAM-INSP
 70
     0
 62
     5
  6
CONTINUOUS
  0
ENDTAB
  0
TABLE
  2
STYLE
 70
     2
  0
STYLE
  2
STANDARD
 70
     0
 40
0.0
 41
1.0
 50
0.0
 71
     0
 42
200.0
  3
txt
  4

  0
STYLE
  2
TEAM
 70
     0
 40
0.0
 41
0.8
 50
15.0
 71
     0
 42
7.0
  3
ROMANS.shx
  4

  0
ENDTAB
  0
TABLE
  2
VIEW
 70
     0
  0
ENDTAB
  0
TABLE
  2
UCS
 70
     0
  0
ENDTAB
  0
TABLE
  2
APPID
 70
     1
  0
APPID
  2
ACAD
 70
     0
  0
ENDTAB
  0
TABLE
  2
DIMSTYLE
 70
     1
  0
DIMSTYLE
  2
TEAM
 70
     0
  3

  4

  5

  6

  7

 40
0.0
 41
20.0
 42
10.0
 43
1.0
 44
1.0
 45
0.0
 46
0.0
 47
0.0
 48
0.0
140
35.0
141
1.0
142
0.0
143
25.4
144
1.0
145
0.0
146
1.0
147
7.0
 71
     0
 72
     0
 73
     0
 74
     0
 75
     0
 76
     0
 77
     0
 78
     0
170
     0
171
     2
172
     0
173
     0
174
     0
175
     0
176
     9
177
     9
178
    11
  0
ENDTAB
  0
ENDSEC
  0
SECTION
  2
BLOCKS
  0
BLOCK
  8
0
  2
$MODEL_SPACE
 70
     0
 10
0.0
 20
0.0
 30
0.0
  3
$MODEL_SPACE
  1

  0
ENDBLK
  5
140
  8
0
  0
BLOCK
 67
     1
  8
0
  2
$PAPER_SPACE
 70
     0
 10
0.0
 20
0.0
 30
0.0
  3
$PAPER_SPACE
  1

  0
ENDBLK
  5
13E
 67
     1
  8
0
  0
BLOCK
  8
0
  2
*D0
 70
     1
 10
0.0
 20
0.0
 30
0.0
  3
*D0
  1

  0
LINE
  5
69
  8
0
  6
BYBLOCK
 62
     9
 10
4094.949874
 20
116600.0
 30
0.0
 11
4469.017137
 21
116600.0
 31
0.0
  0
LINE
  5
6A
  8
0
  6
BYBLOCK
 62
     9
 10
4220.0
 20
116000.0
 30
0.0
 11
4469.017137
 21
116000.0
 31
0.0
  0
LINE
  5
6B
  8
0
  6
BYBLOCK
 62
     9
 10
4468.017137
 20
116580.0
 30
0.0
 11
4468.017137
 21
116347.833333
 31
0.0
  0
LINE
  5
6C
  8
0
  6
BYBLOCK
 62
     9
 10
4468.017137
 20
116020.0
 30
0.0
 11
4468.017137
 21
116252.166667
 31
0.0
  0
SOLID
  5
6D
  8
0
  6
BYBLOCK
 62
     9
 10
4464.683804
 20
116580.0
 30
0.0
 11
4471.350471
 21
116580.0
 31
0.0
 12
4468.017137
 22
116600.0
 32
0.0
 13
4468.017137
 23
116600.0
 33
0.0
  0
SOLID
  5
6E
  8
0
  6
BYBLOCK
 62
     9
 10
4464.683804
 20
116020.0
 30
0.0
 11
4471.350471
 21
116020.0
 31
0.0
 12
4468.017137
 22
116000.0
 32
0.0
 13
4468.017137
 23
116000.0
 33
0.0
  0
TEXT
  5
6F
  8
0
  6
BYBLOCK
 62
    11
 10
4485.517137
 20
116259.166667
 30
0.0
 40
35.0
  1
600
 50
90.0
  0
POINT
  5
70
  8
DEFPOINTS
  6
BYBLOCK
 62
     0
 10
4084.949874
 20
116600.0
 30
0.0
  0
POINT
  5
71
  8
DEFPOINTS
  6
BYBLOCK
 62
     0
 10
4210.0
 20
116000.0
 30
10.0
  0
POINT
  5
72
  8
DEFPOINTS
  6
BYBLOCK
 62
     0
 10
4468.017137
 20
116000.0
 30
20.0
  0
ENDBLK
  5
74
  8
0
  0
BLOCK
  8
0
  2
*D1
 70
     1
 10
0.0
 20
0.0
 30
0.0
  3
*D1
  1

  0
LINE
  5
5B
  8
0
  6
BYBLOCK
 62
     9
 10
3925.0
 20
116579.783522
 30
0.0
 11
3925.0
 21
116450.0
 31
0.0
  0
LINE
  5
5C
  8
0
  6
BYBLOCK
 62
     9
 10
4075.0
 20
116580.0
 30
0.0
 11
4075.0
 21
116450.0
 31
0.0
  0
LINE
  5
5D
  8
0
  6
BYBLOCK
 62
     9
 10
3945.0
 20
116451.0
 30
0.0
 11
3955.083333
 21
116451.0
 31
0.0
  0
LINE
  5
5E
  8
0
  6
BYBLOCK
 62
     9
 10
4055.0
 20
116451.0
 30
0.0
 11
4044.916667
 21
116451.0
 31
0.0
  0
TEXT
  5
5F
  8
0
  6
BYBLOCK
 62
    11
 10
3962.083333
 20
116433.5
 30
0.0
 40
35.0
  1
150
  0
SOLID
  5
60
  8
0
  6
BYBLOCK
 62
     9
 10
3945.0
 20
116454.333333
 30
0.0
 11
3945.0
 21
116447.666667
 31
0.0
 12
3925.0
 22
116451.0
 32
0.0
 13
3925.0
 23
116451.0
 33
0.0
  0
SOLID
  5
61
  8
0
  6
BYBLOCK
 62
     9
 10
4055.0
 20
116454.333333
 30
0.0
 11
4055.0
 21
116447.666667
 31
0.0
 12
4075.0
 22
116451.0
 32
0.0
 13
4075.0
 23
116451.0
 33
0.0
  0
POINT
  5
62
  8
DEFPOINTS
  6
BYBLOCK
 62
     0
 10
3925.0
 20
116589.783522
 30
20.0
  0
POINT
  5
63
  8
DEFPOINTS
  6
BYBLOCK
 62
     0
 10
4075.0
 20
116590.0
 30
20.0
  0
POINT
  5
64
  8
DEFPOINTS
  6
BYBLOCK
 62
     0
 10
4075.0
 20
116451.0
 30
30.0
  0
ENDBLK
  5
66
  8
0
  0
BLOCK
  8
0
  2
*D2
 70
     1
 10
0.0
 20
0.0
 30
0.0
  3
*D2
  1

  0
LINE
  5
4D
  8
0
  6
BYBLOCK
 62
     9
 10
4030.0
 20
116530.0
 30
0.0
 11
4528.152933
 21
116530.0
 31
0.0
  0
LINE
  5
4E
  8
0
  6
BYBLOCK
 62
     9
 10
4160.0
 20
116000.0
 30
0.0
 11
4528.152933
 21
116000.0
 31
0.0
  0
LINE
  5
4F
  8
0
  6
BYBLOCK
 62
     9
 10
4527.152933
 20
116510.0
 30
0.0
 11
4527.152933
 21
116315.75
 31
0.0
  0
LINE
  5
50
  8
0
  6
BYBLOCK
 62
     9
 10
4527.152933
 20
116020.0
 30
0.0
 11
4527.152933
 21
116214.25
 31
0.0
  0
SOLID
  5
51
  8
0
  6
BYBLOCK
 62
     9
 10
4523.8196
 20
116510.0
 30
0.0
 11
4530.486266
 21
116510.0
 31
0.0
 12
4527.152933
 22
116530.0
 32
0.0
 13
4527.152933
 23
116530.0
 33
0.0
  0
SOLID
  5
52
  8
0
  6
BYBLOCK
 62
     9
 10
4523.8196
 20
116020.0
 30
0.0
 11
4530.486266
 21
116020.0
 31
0.0
 12
4527.152933
 22
116000.0
 32
0.0
 13
4527.152933
 23
116000.0
 33
0.0
  0
TEXT
  5
53
  8
0
  6
BYBLOCK
 62
    11
 10
4544.652933
 20
116221.25
 30
0.0
 40
35.0
  1
530
 50
90.0
  0
POINT
  5
54
  8
DEFPOINTS
  6
BYBLOCK
 62
     0
 10
4020.0
 20
116530.0
 30
10.0
  0
POINT
  5
55
  8
DEFPOINTS
  6
BYBLOCK
 62
     0
 10
4150.0
 20
116000.0
 30
20.0
  0
POINT
  5
56
  8
DEFPOINTS
  6
BYBLOCK
 62
     0
 10
4527.152933
 20
116000.0
 30
10.0
  0
ENDBLK
  5
58
  8
0
  0
BLOCK
  8
0
  2
*D3
 70
     1
 10
0.0
 20
0.0
 30
0.0
  3
*D3
  1

  0
LINE
  5
3F
  8
0
  6
BYBLOCK
 62
     9
 10
4010.0
 20
116850.0
 30
0.0
 11
4528.152933
 21
116850.0
 31
0.0
  0
LINE
  5
40
  8
0
  6
BYBLOCK
 62
     9
 10
4030.0
 20
116530.0
 30
0.0
 11
4528.152933
 21
116530.0
 31
0.0
  0
LINE
  5
41
  8
0
  6
BYBLOCK
 62
     9
 10
4527.152933
 20
116830.0
 30
0.0
 11
4527.152933
 21
116740.75
 31
0.0
  0
LINE
  5
42
  8
0
  6
BYBLOCK
 62
     9
 10
4527.152933
 20
116550.0
 30
0.0
 11
4527.152933
 21
116639.25
 31
0.0
  0
SOLID
  5
43
  8
0
  6
BYBLOCK
 62
     9
 10
4523.8196
 20
116830.0
 30
0.0
 11
4530.486266
 21
116830.0
 31
0.0
 12
4527.152933
 22
116850.0
 32
0.0
 13
4527.152933
 23
116850.0
 33
0.0
  0
SOLID
  5
44
  8
0
  6
BYBLOCK
 62
     9
 10
4523.8196
 20
116550.0
 30
0.0
 11
4530.486266
 21
116550.0
 31
0.0
 12
4527.152933
 22
116530.0
 32
0.0
 13
4527.152933
 23
116530.0
 33
0.0
  0
TEXT
  5
45
  8
0
  6
BYBLOCK
 62
    11
 10
4544.652933
 20
116646.25
 30
0.0
 40
35.0
  1
320
 50
90.0
  0
POINT
  5
46
  8
DEFPOINTS
  6
BYBLOCK
 62
     0
 10
4000.0
 20
116850.0
 30
10.0
  0
POINT
  5
47
  8
DEFPOINTS
  6
BYBLOCK
 62
     0
 10
4020.0
 20
116530.0
 30
10.0
  0
POINT
  5
48
  8
DEFPOINTS
  6
BYBLOCK
 62
     0
 10
4527.152933
 20
116530.0
 30
20.0
  0
ENDBLK
  5
4A
  8
0
  0
BLOCK
  8
0
  2
*D4
 70
     1
 10
0.0
 20
0.0
 30
0.0
  3
*D4
  1

  0
LINE
  5
31
  8
0
  6
BYBLOCK
 62
     9
 10
4010.0
 20
116850.0
 30
0.0
 11
4581.628169
 21
116850.0
 31
0.0
  0
LINE
  5
32
  8
0
  6
BYBLOCK
 62
     9
 10
4010.0
 20
116000.0
 30
0.0
 11
4581.628169
 21
116000.0
 31
0.0
  0
LINE
  5
33
  8
0
  6
BYBLOCK
 62
     9
 10
4580.628169
 20
116830.0
 30
0.0
 11
4580.628169
 21
116475.75
 31
0.0
  0
LINE
  5
34
  8
0
  6
BYBLOCK
 62
     9
 10
4580.628169
 20
116020.0
 30
0.0
 11
4580.628169
 21
116374.25
 31
0.0
  0
SOLID
  5
35
  8
0
  6
BYBLOCK
 62
     9
 10
4577.294835
 20
116830.0
 30
0.0
 11
4583.961502
 21
116830.0
 31
0.0
 12
4580.628169
 22
116850.0
 32
0.0
 13
4580.628169
 23
116850.0
 33
0.0
  0
SOLID
  5
36
  8
0
  6
BYBLOCK
 62
     9
 10
4577.294835
 20
116020.0
 30
0.0
 11
4583.961502
 21
116020.0
 31
0.0
 12
4580.628169
 22
116000.0
 32
0.0
 13
4580.628169
 23
116000.0
 33
0.0
  0
TEXT
  5
37
  8
0
  6
BYBLOCK
 62
    11
 10
4598.128169
 20
116381.25
 30
0.0
 40
35.0
  1
850
 50
90.0
  0
POINT
  5
38
  8
DEFPOINTS
  6
BYBLOCK
 62
     0
 10
4000.0
 20
116850.0
 30
0.0
  0
POINT
  5
39
  8
DEFPOINTS
  6
BYBLOCK
 62
     0
 10
4000.0
 20
116000.0
 30
0.0
  0
POINT
  5
3A
  8
DEFPOINTS
  6
BYBLOCK
 62
     0
 10
4580.628169
 20
116000.0
 30
10.0
  0
ENDBLK
  5
3C
  8
0
  0
BLOCK
  8
0
  2
*D5
 70
     1
 10
0.0
 20
0.0
 30
0.0
  3
*D5
  1

  0
LINE
  5
A1
  8
0
  6
BYBLOCK
 62
     9
 10
3690.0
 20
116850.0
 30
0.0
 11
3647.19466
 21
116850.0
 31
0.0
  0
LINE
  5
A2
  8
0
  6
BYBLOCK
 62
     9
 10
3690.0
 20
116790.0
 30
0.0
 11
3647.19466
 21
116790.0
 31
0.0
  0
LINE
  5
A3
  8
0
  6
BYBLOCK
 62
     9
 10
3648.19466
 20
116830.0
 30
0.0
 11
3648.19466
 21
116810.0
 31
0.0
  0
TEXT
  5
A4
  8
0
  6
BYBLOCK
 62
    11
 10
3636.69466
 20
116793.75
 30
0.0
 40
35.0
  1
60
 50
90.0
  0
SOLID
  5
A5
  8
0
  6
BYBLOCK
 62
     9
 10
3644.861327
 20
116830.0
 30
0.0
 11
3651.527993
 21
116830.0
 31
0.0
 12
3648.19466
 22
116850.0
 32
0.0
 13
3648.19466
 23
116850.0
 33
0.0
  0
SOLID
  5
A6
  8
0
  6
BYBLOCK
 62
     9
 10
3644.861327
 20
116810.0
 30
0.0
 11
3651.527993
 21
116810.0
 31
0.0
 12
3648.19466
 22
116790.0
 32
0.0
 13
3648.19466
 23
116790.0
 33
0.0
  0
POINT
  5
A7
  8
DEFPOINTS
  6
BYBLOCK
 62
     0
 10
3700.0
 20
116850.0
 30
0.0
  0
POINT
  5
A8
  8
DEFPOINTS
  6
BYBLOCK
 62
     0
 10
3700.0
 20
116790.0
 30
0.0
  0
POINT
  5
A9
  8
DEFPOINTS
  6
BYBLOCK
 62
     0
 10
3648.19466
 20
116790.0
 30
0.0
  0
ENDBLK
  5
AB
  8
0
  0
BLOCK
  8
0
  2
*D6
 70
     1
 10
0.0
 20
0.0
 30
0.0
  3
*D6
  1

  0
LINE
  5
85
  8
0
  6
BYBLOCK
 62
     9
 10
3860.0
 20
116824.0
 30
0.0
 11
3860.0
 21
116880.209769
 31
0.0
  0
LINE
  5
86
  8
0
  6
BYBLOCK
 62
     9
 10
4140.0
 20
116824.0
 30
0.0
 11
4140.0
 21
116880.209769
 31
0.0
  0
LINE
  5
87
  8
0
  6
BYBLOCK
 62
     9
 10
3880.0
 20
116879.209769
 30
0.0
 11
3949.25
 21
116879.209769
 31
0.0
  0
LINE
  5
88
  8
0
  6
BYBLOCK
 62
     9
 10
4120.0
 20
116879.209769
 30
0.0
 11
4050.75
 21
116879.209769
 31
0.0
  0
SOLID
  5
89
  8
0
  6
BYBLOCK
 62
     9
 10
3880.0
 20
116882.543103
 30
0.0
 11
3880.0
 21
116875.876436
 31
0.0
 12
3860.0
 22
116879.209769
 32
0.0
 13
3860.0
 23
116879.209769
 33
0.0
  0
SOLID
  5
8A
  8
0
  6
BYBLOCK
 62
     9
 10
4120.0
 20
116882.543103
 30
0.0
 11
4120.0
 21
116875.876436
 31
0.0
 12
4140.0
 22
116879.209769
 32
0.0
 13
4140.0
 23
116879.209769
 33
0.0
  0
TEXT
  5
8B
  8
0
  6
BYBLOCK
 62
    11
 10
3956.25
 20
116861.709769
 30
0.0
 40
35.0
  1
280
  0
POINT
  5
8C
  8
DEFPOINTS
  6
BYBLOCK
 62
     0
 10
3860.0
 20
116814.0
 30
0.0
  0
POINT
  5
8D
  8
DEFPOINTS
  6
BYBLOCK
 62
     0
 10
4140.0
 20
116814.0
 30
0.0
  0
POINT
  5
8E
  8
DEFPOINTS
  6
BYBLOCK
 62
     0
 10
4140.0
 20
116879.209769
 30
0.0
  0
ENDBLK
  5
90
  8
0
  0
BLOCK
  8
0
  2
*D7
 70
     1
 10
0.0
 20
0.0
 30
0.0
  3
*D7
  1

  0
LINE
  5
77
  8
0
  6
BYBLOCK
 62
     9
 10
4300.0
 20
116860.0
 30
0.0
 11
4300.0
 21
116922.446539
 31
0.0
  0
LINE
  5
78
  8
0
  6
BYBLOCK
 62
     9
 10
3700.0
 20
116860.0
 30
0.0
 11
3700.0
 21
116922.446539
 31
0.0
  0
LINE
  5
79
  8
0
  6
BYBLOCK
 62
     9
 10
4280.0
 20
116921.446539
 30
0.0
 11
4047.833333
 21
116921.446539
 31
0.0
  0
LINE
  5
7A
  8
0
  6
BYBLOCK
 62
     9
 10
3720.0
 20
116921.446539
 30
0.0
 11
3952.166667
 21
116921.446539
 31
0.0
  0
SOLID
  5
7B
  8
0
  6
BYBLOCK
 62
     9
 10
4280.0
 20
116924.779872
 30
0.0
 11
4280.0
 21
116918.113206
 31
0.0
 12
4300.0
 22
116921.446539
 32
0.0
 13
4300.0
 23
116921.446539
 33
0.0
  0
SOLID
  5
7C
  8
0
  6
BYBLOCK
 62
     9
 10
3720.0
 20
116924.779872
 30
0.0
 11
3720.0
 21
116918.113206
 31
0.0
 12
3700.0
 22
116921.446539
 32
0.0
 13
3700.0
 23
116921.446539
 33
0.0
  0
TEXT
  5
7D
  8
0
  6
BYBLOCK
 62
    11
 10
3959.166667
 20
116903.946539
 30
0.0
 40
35.0
  1
600
  0
POINT
  5
7E
  8
DEFPOINTS
  6
BYBLOCK
 62
     0
 10
4300.0
 20
116850.0
 30
0.0
  0
POINT
  5
7F
  8
DEFPOINTS
  6
BYBLOCK
 62
     0
 10
3700.0
 20
116850.0
 30
0.0
  0
POINT
  5
80
  8
DEFPOINTS
  6
BYBLOCK
 62
     0
 10
3700.0
 20
116921.446539
 30
0.0
  0
ENDBLK
  5
82
  8
0
  0
BLOCK
  8
0
  2
*D8
 70
     1
 10
0.0
 20
0.0
 30
0.0
  3
*D8
  1

  0
LINE
  5
C3
  8
0
  6
BYBLOCK
 62
     9
 10
4094.949874
 20
116600.0
 30
0.0
 11
4469.017137
 21
116600.0
 31
0.0
  0
LINE
  5
C4
  8
0
  6
BYBLOCK
 62
     9
 10
4010.0
 20
116850.0
 30
0.0
 11
4469.017137
 21
116850.0
 31
0.0
  0
LINE
  5
C5
  8
0
  6
BYBLOCK
 62
     9
 10
4468.017137
 20
116620.0
 30
0.0
 11
4468.017137
 21
116674.25
 31
0.0
  0
LINE
  5
C6
  8
0
  6
BYBLOCK
 62
     9
 10
4468.017137
 20
116830.0
 30
0.0
 11
4468.017137
 21
116775.75
 31
0.0
  0
SOLID
  5
C7
  8
0
  6
BYBLOCK
 62
     9
 10
4464.683804
 20
116620.0
 30
0.0
 11
4471.350471
 21
116620.0
 31
0.0
 12
4468.017137
 22
116600.0
 32
0.0
 13
4468.017137
 23
116600.0
 33
0.0
  0
SOLID
  5
C8
  8
0
  6
BYBLOCK
 62
     9
 10
4464.683804
 20
116830.0
 30
0.0
 11
4471.350471
 21
116830.0
 31
0.0
 12
4468.017137
 22
116850.0
 32
0.0
 13
4468.017137
 23
116850.0
 33
0.0
  0
TEXT
  5
C9
  8
0
  6
BYBLOCK
 62
    11
 10
4485.517137
 20
116681.25
 30
0.0
 40
35.0
  1
250
 50
90.0
  0
POINT
  5
CA
  8
DEFPOINTS
  6
BYBLOCK
 62
     0
 10
4084.949874
 20
116600.0
 30
0.0
  0
POINT
  5
CB
  8
DEFPOINTS
  6
BYBLOCK
 62
     0
 10
4000.0
 20
116850.0
 30
0.0
  0
POINT
  5
CC
  8
DEFPOINTS
  6
BYBLOCK
 62
     0
 10
4468.017137
 20
116850.0
 30
0.0
  0
ENDBLK
  5
CE
  8
0
  0
BLOCK
  8
0
  2
*D9
 70
     1
 10
0.0
 20
0.0
 30
0.0
  3
*D9
  1

  0
LINE
  5
22
  8
0
  6
BYBLOCK
 62
     9
 10
4010.0
 20
116850.0
 30
0.0
 11
4410.558925
 21
116850.0
 31
0.0
  0
LINE
  5
23
  8
0
  6
BYBLOCK
 62
     9
 10
4045.0
 20
116725.0
 30
0.0
 11
4410.558925
 21
116725.0
 31
0.0
  0
LINE
  5
24
  8
0
  6
BYBLOCK
 62
     9
 10
4409.558925
 20
116830.0
 30
0.0
 11
4409.558925
 21
116823.0
 31
0.0
  0
LINE
  5
25
  8
0
  6
BYBLOCK
 62
     9
 10
4409.558925
 20
116745.0
 30
0.0
 11
4409.558925
 21
116752.0
 31
0.0
  0
TEXT
  5
26
  8
0
  6
BYBLOCK
 62
    11
 10
4427.058925
 20
116746.666667
 30
0.0
 40
35.0
  1
125
 50
90.0
  0
SOLID
  5
27
  8
0
  6
BYBLOCK
 62
     9
 10
4406.225592
 20
116830.0
 30
0.0
 11
4412.892259
 21
116830.0
 31
0.0
 12
4409.558925
 22
116850.0
 32
0.0
 13
4409.558925
 23
116850.0
 33
0.0
  0
SOLID
  5
28
  8
0
  6
BYBLOCK
 62
     9
 10
4406.225592
 20
116745.0
 30
0.0
 11
4412.892259
 21
116745.0
 31
0.0
 12
4409.558925
 22
116725.0
 32
0.0
 13
4409.558925
 23
116725.0
 33
0.0
  0
POINT
  5
29
  8
DEFPOINTS
  6
BYBLOCK
 62
     0
 10
4000.0
 20
116850.0
 30
0.0
  0
POINT
  5
2B
  8
DEFPOINTS
  6
BYBLOCK
 62
     0
 10
4035.0
 20
116725.0
 30
0.0
  0
POINT
  5
2C
  8
DEFPOINTS
  6
BYBLOCK
 62
     0
 10
4409.558925
 20
116725.0
 30
10.0
  0
ENDBLK
  5
2E
  8
0
  0
BLOCK
  8
0
  2
*D10
 70
     1
 10
0.0
 20
0.0
 30
0.0
  3
*D10
  1

  0
LINE
  5
B4
  8
0
  6
BYBLOCK
 62
     9
 10
4010.0
 20
116850.0
 30
0.0
 11
4350.897149
 21
116850.0
 31
0.0
  0
LINE
  5
B5
  8
0
  6
BYBLOCK
 62
     9
 10
4175.0
 20
116800.0
 30
0.0
 11
4350.897149
 21
116800.0
 31
0.0
  0
LINE
  5
B6
  8
0
  6
BYBLOCK
 62
     9
 10
4349.897149
 20
116870.0
 30
0.0
 11
4349.897149
 21
116890.0
 31
0.0
  0
LINE
  5
B7
  8
0
  6
BYBLOCK
 62
     9
 10
4349.897149
 20
116780.0
 30
0.0
 11
4349.897149
 21
116760.0
 31
0.0
  0
TEXT
  5
B8
  8
0
  6
BYBLOCK
 62
    11
 10
4364.063816
 20
116876.350618
 30
0.0
 40
35.0
  1
50
 50
90.0
  0
LINE
  5
B9
  8
0
  6
BYBLOCK
 62
     9
 10
4349.897149
 20
116850.0
 30
0.0
 11
4349.897149
 21
116800.0
 31
0.0
  0
SOLID
  5
BA
  8
0
  6
BYBLOCK
 62
     9
 10
4346.563816
 20
116870.0
 30
0.0
 11
4353.230483
 21
116870.0
 31
0.0
 12
4349.897149
 22
116850.0
 32
0.0
 13
4349.897149
 23
116850.0
 33
0.0
  0
SOLID
  5
BB
  8
0
  6
BYBLOCK
 62
     9
 10
4346.563816
 20
116780.0
 30
0.0
 11
4353.230483
 21
116780.0
 31
0.0
 12
4349.897149
 22
116800.0
 32
0.0
 13
4349.897149
 23
116800.0
 33
0.0
  0
POINT
  5
BC
  8
DEFPOINTS
  6
BYBLOCK
 62
     0
 10
4000.0
 20
116850.0
 30
0.0
  0
POINT
  5
BD
  8
DEFPOINTS
  6
BYBLOCK
 62
     0
 10
4165.0
 20
116800.0
 30
0.0
  0
POINT
  5
BE
  8
DEFPOINTS
  6
BYBLOCK
 62
     0
 10
4349.897149
 20
116800.0
 30
0.0
  0
ENDBLK
  5
C0
  8
0
  0
ENDSEC
  0
SECTION
  2
ENTITIES
  0
DIMENSION
  5
20
  8
TEAM-MAS
  2
*D9
 10
409.558925
 20
725.0
 30
10.0
 11
409.558925
 21
787.5
 31
0.0
 12
-4000.0
 22
-116000.0
 32
0.0
 70
   128
 13
0.0
 23
850.0
 33
0.0
 14
35.0
 24
725.0
 34
0.0
 50
90.0
  0
DIMENSION
  5
2F
  8
TEAM-MAS
  2
*D4
 10
580.628169
 20
0.0
 30
10.0
 11
580.628169
 21
425.0
 31
0.0
 12
-4000.0
 22
-116000.0
 32
0.0
 13
0.0
 23
850.0
 33
0.0
 14
0.0
 24
0.0
 34
0.0
 50
90.0
  0
DIMENSION
  5
3D
  8
TEAM-MAS
  2
*D3
 10
527.152933
 20
530.0
 30
10.0
 11
527.152933
 21
690.0
 31
-10.0
 12
-4000.0
 22
-116000.0
 32
-10.0
 13
0.0
 23
850.0
 33
0.0
 14
20.0
 24
530.0
 34
0.0
 50
90.0
  0
DIMENSION
  5
4B
  8
TEAM-MAS
  2
*D2
 10
527.152933
 20
0.0
 30
0.0
 11
527.152933
 21
265.0
 31
-10.0
 12
-4000.0
 22
-116000.0
 32
-10.0
 13
20.0
 23
530.0
 33
0.0
 14
150.0
 24
0.0
 34
10.0
 50
90.0
  0
DIMENSION
  5
59
  8
TEAM-MAS
  2
*D1
 10
75.0
 20
451.0
 30
10.0
 11
0.0
 21
451.0
 31
-20.0
 12
-4000.0
 22
-116000.0
 32
-20.0
 70
   128
 13
-75.0
 23
589.783522
 33
0.0
 14
75.0
 24
590.0
 34
0.0
  0
DIMENSION
  5
67
  8
TEAM-MAS
  2
*D0
 10
468.017137
 20
0.0
 30
20.0
 11
468.017137
 21
300.0
 31
0.0
 12
-4000.0
 22
-116000.0
 32
0.0
 13
84.949874
 23
600.0
 33
0.0
 14
210.0
 24
0.0
 34
10.0
 50
90.0
  0
DIMENSION
  5
75
  8
TEAM-MAS
  2
*D7
 10
-300.0
 20
921.446539
 30
0.0
 11
0.0
 21
921.446539
 31
0.0
 12
-4000.0
 22
-116000.0
 32
0.0
 13
300.0
 23
850.0
 33
0.0
 14
-300.0
 24
850.0
 34
0.0
1001
ACAD
1000
DSTYLE
1002
{
1070
    78
1070
     0
1070
    40
1040
1.0
1002
}
  0
DIMENSION
  5
83
  8
TEAM-MAS
  2
*D6
 10
140.0
 20
879.209769
 30
0.0
 11
0.0
 21
879.209769
 31
0.0
 12
-4000.0
 22
-116000.0
 32
0.0
 13
-140.0
 23
814.0
 33
0.0
 14
140.0
 24
814.0
 34
0.0
  0
TEXT
  5
91
  8
TEAM-TXT
 10
-105.116187
 20
685.422206
 30
0.0
 40
30.0
  1
team 421421
 41
0.8
 51
15.0
  7
TEAM
  0
LINE
  5
94
  8
TEAM-BODY
 10
300.0
 20
850.0
 30
0.0
 11
-300.0
 21
850.0
 31
0.0
  0
LINE
  5
96
  8
TEAM-BODY
 10
300.0
 20
790.0
 30
0.0
 11
-300.0
 21
790.0
 31
0.0
  0
POLYLINE
  5
97
  8
TEAM-DET3
 66
     1
 10
0.0
 20
0.0
 30
0.0
  0
VERTEX
  5
146
  8
TEAM-DET3
 10
150.0
 20
756.237527
 30
0.0
  0
VERTEX
  5
147
  8
TEAM-DET3
 10
150.0
 20
725.0
 30
0.0
  0
VERTEX
  5
148
  8
TEAM-DET3
 10
-150.0
 20
725.0
 30
0.0
  0
VERTEX
  5
149
  8
TEAM-DET3
 10
-150.0
 20
756.19982
 30
0.0
  0
SEQEND
  5
14A
  8
TEAM-DET3
  0
LINE
  5
99
  8
TEAM-AXE
 10
-65.050126
 20
599.783522
 30
0.0
 11
-84.949874
 21
599.783522
 31
0.0
  0
CIRCLE
  5
9C
  8
TEAM-WARM
 10
-75.0
 20
599.783522
 30
0.0
 40
10.0
  0
ARC
  5
9E
  8
TEAM-BODY
 10
-22.080057
 20
1127.598129
 30
0.0
 40
392.810661
 50
239.254031
 51
268.115144
  0
DIMENSION
  5
9F
  8
TEAM-MAS
  2
*D5
 10
-351.80534
 20
790.0
 30
0.0
 11
-380.80534
 21
820.0
 31
0.0
 12
-4000.0
 22
-116000.0
 32
0.0
 13
-300.0
 23
850.0
 33
0.0
 14
-300.0
 24
790.0
 34
0.0
 50
90.0
  0
LINE
  5
AC
  8
TEAM-AXE
 10
-165.0
 20
800.0
 30
0.0
 11
-115.0
 21
800.0
 31
0.0
  0
LINE
  5
AD
  8
TEAM-AXE
 10
-140.0
 20
814.0
 30
0.0
 11
-140.0
 21
786.0
 31
0.0
  0
POLYLINE
  5
AE
  8
TEAM-HIDE
 66
     1
 10
0.0
 20
0.0
 30
0.0
 70
     1
  0
VERTEX
  5
14B
  8
TEAM-HIDE
 10
-129.0
 20
791.0
 30
0.0
 42
1.0
  0
VERTEX
  5
14C
  8
TEAM-HIDE
 10
-129.0
 20
809.0
 30
0.0
  0
VERTEX
  5
14D
  8
TEAM-HIDE
 10
-151.0
 20
809.0
 30
0.0
 42
1.0
  0
VERTEX
  5
14E
  8
TEAM-HIDE
 10
-151.0
 20
791.0
 30
0.0
  0
SEQEND
  5
14F
  8
TEAM-HIDE
  0
LINE
  5
B1
  8
TEAM-BODY
 10
-300.0
 20
850.0
 30
0.0
 11
-300.0
 21
790.0
 31
0.0
  0
DIMENSION
  5
B2
  8
TEAM-MAS
  2
*D10
 10
349.897149
 20
800.0
 30
0.0
 11
346.563816
 21
902.600618
 31
0.0
 12
-4000.0
 22
-116000.0
 32
0.0
 70
   128
 13
0.0
 23
850.0
 33
0.0
 14
165.0
 24
800.0
 34
0.0
 50
90.0
  0
DIMENSION
  5
C1
  8
TEAM-MAS
  2
*D8
 10
468.017137
 20
850.0
 30
0.0
 11
468.017137
 21
725.0
 31
0.0
 12
-4000.0
 22
-116000.0
 32
0.0
 13
84.949874
 23
600.0
 33
0.0
 14
0.0
 24
850.0
 34
0.0
 50
90.0
1001
ACAD
1000
DSTYLE
1002
{
1070
    78
1070
     0
1070
    40
1040
1.0
1002
}
  0
LINE
  5
CF
  8
TEAM-AXE
 10
0.0
 20
658.523386
 30
0.0
 11
0.0
 21
850.0
 31
0.0
  0
CIRCLE
  5
D0
  8
TEAM-INSP
 10
0.0
 20
0.0
 30
0.0
 40
10.0
  0
LINE
  5
D2
  8
TEAM-AXE
 10
0.0
 20
510.0
 30
0.0
 11
0.0
 21
550.0
 31
0.0
  0
LINE
  5
D3
  8
TEAM-AXE
 10
20.0
 20
530.0
 30
0.0
 11
-20.0
 21
530.0
 31
0.0
  0
CIRCLE
  5
D4
  8
TEAM-KAN
 10
0.0
 20
530.0
 30
0.0
 40
20.0
  0
LINE
  5
D6
  8
TEAM-AXE
 10
115.0
 20
800.0
 30
0.0
 11
165.0
 21
800.0
 31
0.0
  0
LINE
  5
D7
  8
TEAM-AXE
 10
140.0
 20
814.0
 30
0.0
 11
140.0
 21
786.0
 31
0.0
  0
POLYLINE
  5
D8
  8
TEAM-HIDE
 66
     1
 10
0.0
 20
0.0
 30
0.0
 70
     1
  0
VERTEX
  5
150
  8
TEAM-HIDE
 10
151.0
 20
791.0
 30
0.0
 42
1.0
  0
VERTEX
  5
151
  8
TEAM-HIDE
 10
151.0
 20
809.0
 30
0.0
  0
VERTEX
  5
152
  8
TEAM-HIDE
 10
129.0
 20
809.0
 30
0.0
 42
1.0
  0
VERTEX
  5
153
  8
TEAM-HIDE
 10
129.0
 20
791.0
 30
0.0
  0
SEQEND
  5
154
  8
TEAM-HIDE
  0
LINE
  5
D9
  8
TEAM-BODY
 10
300.0
 20
850.0
 30
0.0
 11
300.0
 21
790.0
 31
0.0
  0
LINE
  5
DA
  8
TEAM-AXE
 10
84.949874
 20
600.0
 30
0.0
 11
65.050126
 21
600.0
 31
0.0
  0
CIRCLE
  5
DB
  8
TEAM-COLD
 10
75.0
 20
600.0
 30
0.0
 40
10.0
  0
LINE
  5
DD
  8
TEAM-AXE
 10
75.0
 20
590.0
 30
0.0
 11
75.0
 21
610.0
 31
0.0
  0
LINE
  5
DE
  8
TEAM-AXE
 10
-75.0
 20
589.783522
 30
0.0
 11
-75.0
 21
609.783522
 31
0.0
  0
LINE
  5
DF
  8
TEAM-BODY
 10
35.0
 20
725.0
 30
0.0
 11
35.0
 21
735.0
 31
0.0
  0
LINE
  5
E0
  8
TEAM-BODY
 10
-35.0
 20
735.0
 30
0.0
 11
-35.0
 21
725.0
 31
0.0
  0
LINE
  5
E1
  8
TEAM-BODY
 10
-35.0
 20
735.0
 30
0.0
 11
35.0
 21
735.0
 31
0.0
  0
LINE
  5
E2
  8
TEAM-BODY
 10
-35.0
 20
725.0
 30
0.0
 11
35.0
 21
725.0
 31
0.0
  0
ARC
  5
E3
  8
TEAM-BODY
 10
21.868077
 20
1128.086606
 30
0.0
 40
393.305895
 50
271.91338
 51
300.728055
  0
ENDSEC
  0
EOF
