  0
SECTION
  2
HEADER
  9
$ACADVER
  1
AC1009
  9
$INSBASE
 10
0.0
 20
0.0
 30
0.0
  9
$EXTMIN
 10
-262.780752
 20
-10.062079
 30
0.0
  9
$EXTMAX
 10
553.31625
 20
1120.082052
 30
0.000005
  9
$LIMMIN
 10
-262.780752
 20
-10.062079
  9
$LIMMAX
 10
553.31625
 20
1120.082052
  9
$ORTHOMODE
 70
     1
  9
$REGENMODE
 70
     1
  9
$FILLMODE
 70
     1
  9
$QTEXTMODE
 70
     0
  9
$MIRRTEXT
 70
     0
  9
$DRAGMODE
 70
     2
  9
$LTSCALE
 40
50.0
  9
$OSMODE
 70
     0
  9
$ATTMODE
 70
     1
  9
$TEXTSIZE
 40
200.0
  9
$TRACEWID
 40
1.0
  9
$TEXTSTYLE
  7
STANDARD
  9
$CLAYER
  8
TEAM-MAS
  9
$CELTYPE
  6
BYLAYER
  9
$CECOLOR
 62
   256
  9
$DIMSCALE
 40
0.0
  9
$DIMASZ
 40
20.0
  9
$DIMEXO
 40
10.0
  9
$DIMDLI
 40
1.0
  9
$DIMRND
 40
0.0
  9
$DIMDLE
 40
0.0
  9
$DIMEXE
 40
1.0
  9
$DIMTP
 40
0.0
  9
$DIMTM
 40
0.0
  9
$DIMTXT
 40
35.0
  9
$DIMCEN
 40
1.0
  9
$DIMTSZ
 40
0.0
  9
$DIMTOL
 70
     0
  9
$DIMLIM
 70
     0
  9
$DIMTIH
 70
     0
  9
$DIMTOH
 70
     0
  9
$DIMSE1
 70
     0
  9
$DIMSE2
 70
     0
  9
$DIMTAD
 70
     0
  9
$DIMZIN
 70
     0
  9
$DIMBLK
  1

  9
$DIMASO
 70
     1
  9
$DIMSHO
 70
     0
  9
$DIMPOST
  1

  9
$DIMAPOST
  1

  9
$DIMALT
 70
     0
  9
$DIMALTD
 70
     2
  9
$DIMALTF
 40
25.4
  9
$DIMLFAC
 40
1.0
  9
$DIMTOFL
 70
     0
  9
$DIMTVP
 40
0.0
  9
$DIMTIX
 70
     0
  9
$DIMSOXD
 70
     0
  9
$DIMSAH
 70
     0
  9
$DIMBLK1
  1

  9
$DIMBLK2
  1

  9
$DIMSTYLE
  2
TEAM
  9
$DIMCLRD
 70
     9
  9
$DIMCLRE
 70
     9
  9
$DIMCLRT
 70
    11
  9
$DIMTFAC
 40
1.0
  9
$DIMGAP
 40
7.0
  9
$LUNITS
 70
     2
  9
$LUPREC
 70
     1
  9
$SKETCHINC
 40
1.0
  9
$FILLETRAD
 40
50.0
  9
$AUNITS
 70
     0
  9
$AUPREC
 70
     0
  9
$MENU
  1
ROPLANS
  9
$ELEVATION
 40
0.0
  9
$PELEVATION
 40
0.0
  9
$THICKNESS
 40
0.0
  9
$LIMCHECK
 70
     0
  9
$BLIPMODE
 70
     1
  9
$CHAMFERA
 40
0.0
  9
$CHAMFERB
 40
0.0
  9
$SKPOLY
 70
     0
  9
$TDCREATE
 40
2450392.957851
  9
$TDUPDATE
 40
2456272.033233
  9
$TDINDWG
 40
2.315654
  9
$TDUSRTIMER
 40
2.315654
  9
$USRTIMER
 70
     1
  9
$ANGBASE
 50
0.0
  9
$ANGDIR
 70
     0
  9
$PDMODE
 70
     0
  9
$PDSIZE
 40
0.0
  9
$PLINEWID
 40
0.0
  9
$COORDS
 70
     2
  9
$SPLFRAME
 70
     0
  9
$SPLINETYPE
 70
     6
  9
$SPLINESEGS
 70
     8
  9
$ATTDIA
 70
     0
  9
$ATTREQ
 70
     0
  9
$HANDLING
 70
     1
  9
$HANDSEED
  5
144
  9
$SURFTAB1
 70
    24
  9
$SURFTAB2
 70
    24
  9
$SURFTYPE
 70
     6
  9
$SURFU
 70
     6
  9
$SURFV
 70
     6
  9
$UCSNAME
  2

  9
$UCSORG
 10
0.0
 20
0.0
 30
0.0
  9
$UCSXDIR
 10
1.0
 20
0.0
 30
0.0
  9
$UCSYDIR
 10
0.0
 20
1.0
 30
0.0
  9
$PUCSNAME
  2

  9
$PUCSORG
 10
0.0
 20
0.0
 30
0.0
  9
$PUCSXDIR
 10
1.0
 20
0.0
 30
0.0
  9
$PUCSYDIR
 10
0.0
 20
1.0
 30
0.0
  9
$USERI1
 70
     0
  9
$USERI2
 70
     0
  9
$USERI3
 70
     0
  9
$USERI4
 70
     0
  9
$USERI5
 70
     0
  9
$USERR1
 40
0.0
  9
$USERR2
 40
0.0
  9
$USERR3
 40
0.0
  9
$USERR4
 40
0.0
  9
$USERR5
 40
0.0
  9
$WORLDVIEW
 70
     1
  9
$SHADEDGE
 70
     0
  9
$SHADEDIF
 70
    70
  9
$TILEMODE
 70
     1
  9
$MAXACTVP
 70
    16
  9
$PLIMCHECK
 70
     0
  9
$PEXTMIN
 10
-0.805942
 20
0.005011
 30
0.0
  9
$PEXTMAX
 10
20.250094
 20
11.356329
 30
0.0
  9
$PLIMMIN
 10
0.0
 20
0.0
  9
$PLIMMAX
 10
12.0
 20
9.0
  9
$UNITMODE
 70
     0
  9
$VISRETAIN
 70
     0
  9
$PLINEGEN
 70
     0
  9
$PSLTSCALE
 70
     0
  0
ENDSEC
  0
SECTION
  2
TABLES
  0
TABLE
  2
VPORT
 70
     2
  0
VPORT
  2
*ACTIVE
 70
     0
 10
0.0
 20
0.0
 11
1.0
 21
1.0
 12
145.267749
 22
555.009987
 13
0.0
 23
0.0
 14
1.0
 24
1.0
 15
50.0
 25
50.0
 16
0.0
 26
0.0
 36
1.0
 17
0.0
 27
0.0
 37
0.0
 40
1137.259415
 41
1.911765
 42
50.0
 43
0.0
 44
0.0
 50
0.0
 51
0.0
 71
     0
 72
   100
 73
     1
 74
     1
 75
     0
 76
     0
 77
     0
 78
     0
  0
ENDTAB
  0
TABLE
  2
LTYPE
 70
     3
  0
LTYPE
  2
CONTINUOUS
 70
     0
  3
Solid Line
 72
    65
 73
     0
 40
0.0
  0
LTYPE
  2
31
 70
     0
  3

 72
    65
 73
     4
 40
2.1
 49
1.5
 49
-0.3
 49
0.0
 49
-0.3
  0
LTYPE
  2
22
 70
     0
  3

 72
    65
 73
     2
 40
1.4
 49
1.2
 49
-0.2
  0
ENDTAB
  0
TABLE
  2
LAYER
 70
    11
  0
LAYER
  2
0
 70
     0
 62
     7
  6
CONTINUOUS
  0
LAYER
  2
DEFPOINTS
 70
     0
 62
     7
  6
CONTINUOUS
  0
LAYER
  2
TEAM-BODY
 70
     0
 62
     2
  6
CONTINUOUS
  0
LAYER
  2
TEAM-AXE
 70
     0
 62
    10
  6
31
  0
LAYER
  2
TEAM-MAS
 70
     0
 62
     9
  6
CONTINUOUS
  0
LAYER
  2
TEAM-TXT
 70
     0
 62
    11
  6
CONTINUOUS
  0
LAYER
  2
TEAM-COLD
 70
     0
 62
     3
  6
CONTINUOUS
  0
LAYER
  2
TEAM-HIDE
 70
     0
 62
     8
  6
22
  0
LAYER
  2
TEAM-KAN
 70
     0
 62
     6
  6
CONTINUOUS
  0
LAYER
  2
TEAM-WARM
 70
     0
 62
     1
  6
CONTINUOUS
  0
LAYER
  2
TEAM-INSP
 70
     0
 62
     5
  6
CONTINUOUS
  0
ENDTAB
  0
TABLE
  2
STYLE
 70
     2
  0
STYLE
  2
STANDARD
 70
     0
 40
0.0
 41
1.0
 50
0.0
 71
     0
 42
200.0
  3
txt
  4

  0
STYLE
  2
TEAM
 70
     0
 40
0.0
 41
0.8
 50
15.0
 71
     0
 42
7.0
  3
ROMANS.shx
  4

  0
ENDTAB
  0
TABLE
  2
VIEW
 70
     0
  0
ENDTAB
  0
TABLE
  2
UCS
 70
     0
  0
ENDTAB
  0
TABLE
  2
APPID
 70
     1
  0
APPID
  2
ACAD
 70
     0
  0
ENDTAB
  0
TABLE
  2
DIMSTYLE
 70
     1
  0
DIMSTYLE
  2
TEAM
 70
     0
  3

  4

  5

  6

  7

 40
0.0
 41
20.0
 42
10.0
 43
1.0
 44
1.0
 45
0.0
 46
0.0
 47
0.0
 48
0.0
140
35.0
141
1.0
142
0.0
143
25.4
144
1.0
145
0.0
146
1.0
147
7.0
 71
     0
 72
     0
 73
     0
 74
     0
 75
     0
 76
     0
 77
     0
 78
     0
170
     0
171
     2
172
     0
173
     0
174
     0
175
     0
176
     9
177
     9
178
    11
  0
ENDTAB
  0
ENDSEC
  0
SECTION
  2
BLOCKS
  0
BLOCK
  8
0
  2
$MODEL_SPACE
 70
     0
 10
0.0
 20
0.0
 30
0.0
  3
$MODEL_SPACE
  1

  0
ENDBLK
  5
13D
  8
0
  0
BLOCK
 67
     1
  8
0
  2
$PAPER_SPACE
 70
     0
 10
0.0
 20
0.0
 30
0.0
  3
$PAPER_SPACE
  1

  0
ENDBLK
  5
13B
 67
     1
  8
0
  0
BLOCK
  8
0
  2
*D0
 70
     1
 10
0.0
 20
0.0
 30
0.0
  3
*D0
  1

  0
LINE
  5
BD
  8
0
  6
BYBLOCK
 62
     9
 10
8510.0
 20
148800.0
 30
0.0
 11
8536.786918
 21
148800.0
 31
0.0
  0
LINE
  5
BE
  8
0
  6
BYBLOCK
 62
     9
 10
8421.826614
 20
148590.0
 30
0.0
 11
8536.786918
 21
148590.0
 31
0.0
  0
LINE
  5
BF
  8
0
  6
BYBLOCK
 62
     9
 10
8535.786918
 20
148780.0
 30
0.0
 11
8535.786918
 21
148739.916667
 31
0.0
  0
LINE
  5
C0
  8
0
  6
BYBLOCK
 62
     9
 10
8535.786918
 20
148610.0
 30
0.0
 11
8535.786918
 21
148650.083333
 31
0.0
  0
SOLID
  5
C1
  8
0
  6
BYBLOCK
 62
     9
 10
8532.453585
 20
148780.0
 30
0.0
 11
8539.120252
 21
148780.0
 31
0.0
 12
8535.786918
 22
148800.0
 32
0.0
 13
8535.786918
 23
148800.0
 33
0.0
  0
SOLID
  5
C2
  8
0
  6
BYBLOCK
 62
     9
 10
8532.453585
 20
148610.0
 30
0.0
 11
8539.120252
 21
148610.0
 31
0.0
 12
8535.786918
 22
148590.0
 32
0.0
 13
8535.786918
 23
148590.0
 33
0.0
  0
TEXT
  5
C3
  8
0
  6
BYBLOCK
 62
    11
 10
8553.286918
 20
148657.083333
 30
0.0
 40
35.0
  1
210
 50
90.0
  0
POINT
  5
C4
  8
DEFPOINTS
  6
BYBLOCK
 62
     0
 10
8500.0
 20
148800.0
 30
0.0
  0
POINT
  5
C5
  8
DEFPOINTS
  6
BYBLOCK
 62
     0
 10
8411.826614
 20
148590.0
 30
0.0
  0
POINT
  5
C6
  8
DEFPOINTS
  6
BYBLOCK
 62
     0
 10
8535.786918
 20
148590.0
 30
0.0
  0
ENDBLK
  5
C8
  8
0
  0
BLOCK
  8
0
  2
*D1
 70
     1
 10
0.0
 20
0.0
 30
0.0
  3
*D1
  1

  0
LINE
  5
AE
  8
0
  6
BYBLOCK
 62
     9
 10
7990.0
 20
148860.0
 30
0.0
 11
7967.38252
 21
148860.0
 31
0.0
  0
LINE
  5
AF
  8
0
  6
BYBLOCK
 62
     9
 10
7990.0
 20
148835.0
 30
0.0
 11
7967.38252
 21
148835.0
 31
0.0
  0
LINE
  5
B0
  8
0
  6
BYBLOCK
 62
     9
 10
7968.38252
 20
148880.0
 30
0.0
 11
7968.38252
 21
148900.0
 31
0.0
  0
LINE
  5
B1
  8
0
  6
BYBLOCK
 62
     9
 10
7968.38252
 20
148815.0
 30
0.0
 11
7968.38252
 21
148795.0
 31
0.0
  0
TEXT
  5
B2
  8
0
  6
BYBLOCK
 62
    11
 10
7985.88252
 20
148912.496516
 30
0.0
 40
35.0
  1
25
 50
90.0
  0
LINE
  5
B3
  8
0
  6
BYBLOCK
 62
     9
 10
7968.38252
 20
148860.0
 30
0.0
 11
7968.38252
 21
148835.0
 31
0.0
  0
SOLID
  5
B4
  8
0
  6
BYBLOCK
 62
     9
 10
7965.049187
 20
148880.0
 30
0.0
 11
7971.715853
 21
148880.0
 31
0.0
 12
7968.38252
 22
148860.0
 32
0.0
 13
7968.38252
 23
148860.0
 33
0.0
  0
SOLID
  5
B5
  8
0
  6
BYBLOCK
 62
     9
 10
7965.049187
 20
148815.0
 30
0.0
 11
7971.715853
 21
148815.0
 31
0.0
 12
7968.38252
 22
148835.0
 32
0.0
 13
7968.38252
 23
148835.0
 33
0.0
  0
POINT
  5
B6
  8
DEFPOINTS
  6
BYBLOCK
 62
     0
 10
8000.0
 20
148860.0
 30
0.0
  0
POINT
  5
B7
  8
DEFPOINTS
  6
BYBLOCK
 62
     0
 10
8000.0
 20
148835.0
 30
0.0
  0
POINT
  5
B8
  8
DEFPOINTS
  6
BYBLOCK
 62
     0
 10
7968.38252
 20
148835.0
 30
0.0
  0
ENDBLK
  5
BA
  8
0
  0
BLOCK
  8
0
  2
*D2
 70
     1
 10
0.0
 20
0.0
 30
0.0
  3
*D2
  1

  0
LINE
  5
A0
  8
0
  6
BYBLOCK
 62
     9
 10
7990.0
 20
148550.0
 30
0.0
 11
7967.38252
 21
148550.0
 31
0.0
  0
LINE
  5
A1
  8
0
  6
BYBLOCK
 62
     9
 10
7990.0
 20
148835.0
 30
0.0
 11
7967.38252
 21
148835.0
 31
0.0
  0
LINE
  5
A2
  8
0
  6
BYBLOCK
 62
     9
 10
7968.38252
 20
148570.0
 30
0.0
 11
7968.38252
 21
148638.833333
 31
0.0
  0
LINE
  5
A3
  8
0
  6
BYBLOCK
 62
     9
 10
7968.38252
 20
148815.0
 30
0.0
 11
7968.38252
 21
148746.166667
 31
0.0
  0
SOLID
  5
A4
  8
0
  6
BYBLOCK
 62
     9
 10
7965.049187
 20
148570.0
 30
0.0
 11
7971.715853
 21
148570.0
 31
0.0
 12
7968.38252
 22
148550.0
 32
0.0
 13
7968.38252
 23
148550.0
 33
0.0
  0
SOLID
  5
A5
  8
0
  6
BYBLOCK
 62
     9
 10
7965.049187
 20
148815.0
 30
0.0
 11
7971.715853
 21
148815.0
 31
0.0
 12
7968.38252
 22
148835.0
 32
0.0
 13
7968.38252
 23
148835.0
 33
0.0
  0
TEXT
  5
A6
  8
0
  6
BYBLOCK
 62
    11
 10
7985.88252
 20
148645.833333
 30
0.0
 40
35.0
  1
285
 50
90.0
  0
POINT
  5
A7
  8
DEFPOINTS
  6
BYBLOCK
 62
     0
 10
8000.0
 20
148550.0
 30
0.0
  0
POINT
  5
A8
  8
DEFPOINTS
  6
BYBLOCK
 62
     0
 10
8000.0
 20
148835.0
 30
0.0
  0
POINT
  5
A9
  8
DEFPOINTS
  6
BYBLOCK
 62
     0
 10
7968.38252
 20
148835.0
 30
0.0
  0
ENDBLK
  5
AB
  8
0
  0
BLOCK
  8
0
  2
*D3
 70
     1
 10
0.0
 20
0.0
 30
0.0
  3
*D3
  1

  0
LINE
  5
93
  8
0
  6
BYBLOCK
 62
     9
 10
8510.0
 20
148800.0
 30
0.0
 11
8536.786918
 21
148800.0
 31
0.0
  0
LINE
  5
94
  8
0
  6
BYBLOCK
 62
     9
 10
8020.0
 20
148860.0
 30
0.0
 11
8536.786918
 21
148860.0
 31
0.0
  0
LINE
  5
95
  8
0
  6
BYBLOCK
 62
     9
 10
8535.786918
 20
148820.0
 30
0.0
 11
8535.786918
 21
148840.0
 31
0.0
  0
TEXT
  5
96
  8
0
  6
BYBLOCK
 62
    11
 10
8552.937354
 20
148866.174664
 30
0.0
 40
35.0
  1
60
 50
90.0
  0
SOLID
  5
97
  8
0
  6
BYBLOCK
 62
     9
 10
8532.453585
 20
148820.0
 30
0.0
 11
8539.120252
 21
148820.0
 31
0.0
 12
8535.786918
 22
148800.0
 32
0.0
 13
8535.786918
 23
148800.0
 33
0.0
  0
SOLID
  5
98
  8
0
  6
BYBLOCK
 62
     9
 10
8532.453585
 20
148840.0
 30
0.0
 11
8539.120252
 21
148840.0
 31
0.0
 12
8535.786918
 22
148860.0
 32
0.0
 13
8535.786918
 23
148860.0
 33
0.0
  0
POINT
  5
99
  8
DEFPOINTS
  6
BYBLOCK
 62
     0
 10
8500.0
 20
148800.0
 30
0.0
  0
POINT
  5
9A
  8
DEFPOINTS
  6
BYBLOCK
 62
     0
 10
8010.0
 20
148860.0
 30
0.0
  0
POINT
  5
9B
  8
DEFPOINTS
  6
BYBLOCK
 62
     0
 10
8535.786918
 20
148860.0
 30
0.0
  0
ENDBLK
  5
9D
  8
0
  0
BLOCK
  8
0
  2
*D4
 70
     1
 10
0.0
 20
0.0
 30
0.0
  3
*D4
  1

  0
LINE
  5
85
  8
0
  6
BYBLOCK
 62
     9
 10
8000.0
 20
148390.0
 30
0.0
 11
8000.0
 21
148238.571197
 31
0.0
  0
LINE
  5
86
  8
0
  6
BYBLOCK
 62
     9
 10
8100.0
 20
148315.980383
 30
0.0
 11
8100.0
 21
148238.571197
 31
0.0
  0
LINE
  5
87
  8
0
  6
BYBLOCK
 62
     9
 10
8020.0
 20
148239.571197
 30
0.0
 11
8027.0
 21
148239.571197
 31
0.0
  0
LINE
  5
88
  8
0
  6
BYBLOCK
 62
     9
 10
8080.0
 20
148239.571197
 30
0.0
 11
8073.0
 21
148239.571197
 31
0.0
  0
TEXT
  5
89
  8
0
  6
BYBLOCK
 62
    11
 10
8015.0
 20
148222.071197
 30
0.0
 40
35.0
  1
100
  0
SOLID
  5
8A
  8
0
  6
BYBLOCK
 62
     9
 10
8020.0
 20
148242.90453
 30
0.0
 11
8020.0
 21
148236.237864
 31
0.0
 12
8000.0
 22
148239.571197
 32
0.0
 13
8000.0
 23
148239.571197
 33
0.0
  0
SOLID
  5
8B
  8
0
  6
BYBLOCK
 62
     9
 10
8080.0
 20
148242.90453
 30
0.0
 11
8080.0
 21
148236.237864
 31
0.0
 12
8100.0
 22
148239.571197
 32
0.0
 13
8100.0
 23
148239.571197
 33
0.0
  0
POINT
  5
8C
  8
DEFPOINTS
  6
BYBLOCK
 62
     0
 10
8000.0
 20
148400.0
 30
0.0
  0
POINT
  5
8D
  8
DEFPOINTS
  6
BYBLOCK
 62
     0
 10
8100.0
 20
148325.980383
 30
0.0
  0
POINT
  5
8E
  8
DEFPOINTS
  6
BYBLOCK
 62
     0
 10
8100.0
 20
148239.571197
 30
0.0
  0
ENDBLK
  5
90
  8
0
  0
BLOCK
  8
0
  2
*D5
 70
     1
 10
0.0
 20
0.0
 30
0.0
  3
*D5
  1

  0
LINE
  5
77
  8
0
  6
BYBLOCK
 62
     9
 10
8500.0
 20
148810.0
 30
0.0
 11
8500.0
 21
148953.878377
 31
0.0
  0
LINE
  5
78
  8
0
  6
BYBLOCK
 62
     9
 10
8000.0
 20
148010.0
 30
0.0
 11
8000.0
 21
148953.878377
 31
0.0
  0
LINE
  5
79
  8
0
  6
BYBLOCK
 62
     9
 10
8480.0
 20
148952.878377
 30
0.0
 11
8297.833333
 21
148952.878377
 31
0.0
  0
LINE
  5
7A
  8
0
  6
BYBLOCK
 62
     9
 10
8020.0
 20
148952.878377
 30
0.0
 11
8202.166667
 21
148952.878377
 31
0.0
  0
SOLID
  5
7B
  8
0
  6
BYBLOCK
 62
     9
 10
8480.0
 20
148956.211711
 30
0.0
 11
8480.0
 21
148949.545044
 31
0.0
 12
8500.0
 22
148952.878377
 32
0.0
 13
8500.0
 23
148952.878377
 33
0.0
  0
SOLID
  5
7C
  8
0
  6
BYBLOCK
 62
     9
 10
8020.0
 20
148956.211711
 30
0.0
 11
8020.0
 21
148949.545044
 31
0.0
 12
8000.0
 22
148952.878377
 32
0.0
 13
8000.0
 23
148952.878377
 33
0.0
  0
TEXT
  5
7D
  8
0
  6
BYBLOCK
 62
    11
 10
8209.166667
 20
148935.378377
 30
0.0
 40
35.0
  1
500
  0
POINT
  5
7E
  8
DEFPOINTS
  6
BYBLOCK
 62
     0
 10
8500.0
 20
148800.0
 30
0.0
  0
POINT
  5
7F
  8
DEFPOINTS
  6
BYBLOCK
 62
     0
 10
8000.0
 20
148000.0
 30
0.0
  0
POINT
  5
80
  8
DEFPOINTS
  6
BYBLOCK
 62
     0
 10
8000.0
 20
148952.878377
 30
0.0
  0
ENDBLK
  5
82
  8
0
  0
BLOCK
  8
0
  2
*D6
 70
     1
 10
0.0
 20
0.0
 30
0.0
  3
*D6
  1

  0
LINE
  5
69
  8
0
  6
BYBLOCK
 62
     9
 10
7990.0
 20
148000.0
 30
0.0
 11
7753.772901
 21
148000.0
 31
0.0
  0
LINE
  5
6A
  8
0
  6
BYBLOCK
 62
     9
 10
7997.579317
 20
149100.0
 30
0.0
 11
7753.772901
 21
149100.0
 31
0.0
  0
LINE
  5
6B
  8
0
  6
BYBLOCK
 62
     9
 10
7754.772901
 20
148020.0
 30
0.0
 11
7754.772901
 21
148417.583333
 31
0.0
  0
LINE
  5
6C
  8
0
  6
BYBLOCK
 62
     9
 10
7754.772901
 20
149080.0
 30
0.0
 11
7754.772901
 21
148682.416667
 31
0.0
  0
SOLID
  5
6D
  8
0
  6
BYBLOCK
 62
     9
 10
7751.439567
 20
148020.0
 30
0.0
 11
7758.106234
 21
148020.0
 31
0.0
 12
7754.772901
 22
148000.0
 32
0.0
 13
7754.772901
 23
148000.0
 33
0.0
  0
SOLID
  5
6E
  8
0
  6
BYBLOCK
 62
     9
 10
7751.439567
 20
149080.0
 30
0.0
 11
7758.106234
 21
149080.0
 31
0.0
 12
7754.772901
 22
149100.0
 32
0.0
 13
7754.772901
 23
149100.0
 33
0.0
  0
TEXT
  5
6F
  8
0
  6
BYBLOCK
 62
    11
 10
7772.272901
 20
148424.583333
 30
0.0
 40
35.0
  1
1100-1250
 50
90.0
  0
POINT
  5
70
  8
DEFPOINTS
  6
BYBLOCK
 62
     0
 10
8000.0
 20
148000.0
 30
0.0
  0
POINT
  5
71
  8
DEFPOINTS
  6
BYBLOCK
 62
     0
 10
8007.579317
 20
149100.0
 30
0.0
  0
POINT
  5
72
  8
DEFPOINTS
  6
BYBLOCK
 62
     0
 10
7754.772901
 20
149100.0
 30
0.0
  0
ENDBLK
  5
74
  8
0
  0
BLOCK
  8
0
  2
*D7
 70
     1
 10
0.0
 20
0.0
 30
0.0
  3
*D7
  1

  0
LINE
  5
5B
  8
0
  6
BYBLOCK
 62
     9
 10
7990.0
 20
148000.0
 30
0.0
 11
7796.838976
 21
148000.0
 31
0.0
  0
LINE
  5
5C
  8
0
  6
BYBLOCK
 62
     9
 10
7990.0
 20
149100.0
 30
0.0
 11
7796.838976
 21
149100.0
 31
0.0
  0
LINE
  5
5D
  8
0
  6
BYBLOCK
 62
     9
 10
7797.838976
 20
148020.0
 30
0.0
 11
7797.838976
 21
148496.333333
 31
0.0
  0
LINE
  5
5E
  8
0
  6
BYBLOCK
 62
     9
 10
7797.838976
 20
149080.0
 30
0.0
 11
7797.838976
 21
148603.666667
 31
0.0
  0
SOLID
  5
5F
  8
0
  6
BYBLOCK
 62
     9
 10
7794.505642
 20
148020.0
 30
0.0
 11
7801.172309
 21
148020.0
 31
0.0
 12
7797.838976
 22
148000.0
 32
0.0
 13
7797.838976
 23
148000.0
 33
0.0
  0
SOLID
  5
60
  8
0
  6
BYBLOCK
 62
     9
 10
7794.505642
 20
149080.0
 30
0.0
 11
7801.172309
 21
149080.0
 31
0.0
 12
7797.838976
 22
149100.0
 32
0.0
 13
7797.838976
 23
149100.0
 33
0.0
  0
TEXT
  5
61
  8
0
  6
BYBLOCK
 62
    11
 10
7815.338976
 20
148503.333333
 30
0.0
 40
35.0
  1
1100
 50
90.0
  0
POINT
  5
62
  8
DEFPOINTS
  6
BYBLOCK
 62
     0
 10
8000.0
 20
148000.0
 30
0.0
  0
POINT
  5
63
  8
DEFPOINTS
  6
BYBLOCK
 62
     0
 10
8000.0
 20
149100.0
 30
0.0
  0
POINT
  5
64
  8
DEFPOINTS
  6
BYBLOCK
 62
     0
 10
7797.838976
 20
149100.0
 30
0.0
  0
ENDBLK
  5
66
  8
0
  0
BLOCK
  8
0
  2
*D8
 70
     1
 10
0.0
 20
0.0
 30
0.0
  3
*D8
  1

  0
LINE
  5
4D
  8
0
  6
BYBLOCK
 62
     9
 10
7990.0
 20
148000.0
 30
0.0
 11
7967.563445
 21
148000.0
 31
0.0
  0
LINE
  5
4E
  8
0
  6
BYBLOCK
 62
     9
 10
7990.0
 20
148400.0
 30
0.0
 11
7967.563445
 21
148400.0
 31
0.0
  0
LINE
  5
4F
  8
0
  6
BYBLOCK
 62
     9
 10
7968.563445
 20
148020.0
 30
0.0
 11
7968.563445
 21
148152.166667
 31
0.0
  0
LINE
  5
50
  8
0
  6
BYBLOCK
 62
     9
 10
7968.563445
 20
148380.0
 30
0.0
 11
7968.563445
 21
148247.833333
 31
0.0
  0
SOLID
  5
51
  8
0
  6
BYBLOCK
 62
     9
 10
7965.230111
 20
148020.0
 30
0.0
 11
7971.896778
 21
148020.0
 31
0.0
 12
7968.563445
 22
148000.0
 32
0.0
 13
7968.563445
 23
148000.0
 33
0.0
  0
SOLID
  5
52
  8
0
  6
BYBLOCK
 62
     9
 10
7965.230111
 20
148380.0
 30
0.0
 11
7971.896778
 21
148380.0
 31
0.0
 12
7968.563445
 22
148400.0
 32
0.0
 13
7968.563445
 23
148400.0
 33
0.0
  0
TEXT
  5
53
  8
0
  6
BYBLOCK
 62
    11
 10
7986.063445
 20
148159.166667
 30
0.0
 40
35.0
  1
400
 50
90.0
  0
POINT
  5
54
  8
DEFPOINTS
  6
BYBLOCK
 62
     0
 10
8000.0
 20
148000.0
 30
0.0
  0
POINT
  5
55
  8
DEFPOINTS
  6
BYBLOCK
 62
     0
 10
8000.0
 20
148400.0
 30
0.0
  0
POINT
  5
56
  8
DEFPOINTS
  6
BYBLOCK
 62
     0
 10
7968.563445
 20
148400.0
 30
0.0
  0
ENDBLK
  5
58
  8
0
  0
BLOCK
  8
0
  2
*D9
 70
     1
 10
0.0
 20
0.0
 30
0.0
  3
*D9
  1

  0
LINE
  5
3F
  8
0
  6
BYBLOCK
 62
     9
 10
7990.0
 20
148000.0
 30
0.0
 11
7921.419114
 21
148000.0
 31
0.0
  0
LINE
  5
40
  8
0
  6
BYBLOCK
 62
     9
 10
7990.0
 20
148400.0
 30
0.0
 11
7921.419114
 21
148400.0
 31
0.0
  0
LINE
  5
41
  8
0
  6
BYBLOCK
 62
     9
 10
7922.419114
 20
148020.0
 30
0.0
 11
7922.419114
 21
148085.083333
 31
0.0
  0
LINE
  5
42
  8
0
  6
BYBLOCK
 62
     9
 10
7922.419114
 20
148380.0
 30
0.0
 11
7922.419114
 21
148314.916667
 31
0.0
  0
SOLID
  5
43
  8
0
  6
BYBLOCK
 62
     9
 10
7919.085781
 20
148020.0
 30
0.0
 11
7925.752448
 21
148020.0
 31
0.0
 12
7922.419114
 22
148000.0
 32
0.0
 13
7922.419114
 23
148000.0
 33
0.0
  0
SOLID
  5
44
  8
0
  6
BYBLOCK
 62
     9
 10
7919.085781
 20
148380.0
 30
0.0
 11
7925.752448
 21
148380.0
 31
0.0
 12
7922.419114
 22
148400.0
 32
0.0
 13
7922.419114
 23
148400.0
 33
0.0
  0
TEXT
  5
45
  8
0
  6
BYBLOCK
 62
    11
 10
7939.919114
 20
148092.083333
 30
0.0
 40
35.0
  1
300-450
 50
90.0
  0
POINT
  5
46
  8
DEFPOINTS
  6
BYBLOCK
 62
     0
 10
8000.0
 20
148000.0
 30
0.0
  0
POINT
  5
47
  8
DEFPOINTS
  6
BYBLOCK
 62
     0
 10
8000.0
 20
148400.0
 30
0.0
  0
POINT
  5
48
  8
DEFPOINTS
  6
BYBLOCK
 62
     0
 10
7922.419114
 20
148400.0
 30
0.0
  0
ENDBLK
  5
4A
  8
0
  0
BLOCK
  8
0
  2
*D10
 70
     1
 10
0.0
 20
0.0
 30
0.0
  3
*D10
  1

  0
LINE
  5
31
  8
0
  6
BYBLOCK
 62
     9
 10
7990.0
 20
148000.0
 30
0.0
 11
7879.891462
 21
148000.0
 31
0.0
  0
LINE
  5
32
  8
0
  6
BYBLOCK
 62
     9
 10
7990.0
 20
148800.0
 30
0.0
 11
7879.891462
 21
148800.0
 31
0.0
  0
LINE
  5
33
  8
0
  6
BYBLOCK
 62
     9
 10
7880.891462
 20
148020.0
 30
0.0
 11
7880.891462
 21
148352.166667
 31
0.0
  0
LINE
  5
34
  8
0
  6
BYBLOCK
 62
     9
 10
7880.891462
 20
148780.0
 30
0.0
 11
7880.891462
 21
148447.833333
 31
0.0
  0
SOLID
  5
35
  8
0
  6
BYBLOCK
 62
     9
 10
7877.558129
 20
148020.0
 30
0.0
 11
7884.224796
 21
148020.0
 31
0.0
 12
7880.891462
 22
148000.0
 32
0.0
 13
7880.891462
 23
148000.0
 33
0.0
  0
SOLID
  5
36
  8
0
  6
BYBLOCK
 62
     9
 10
7877.558129
 20
148780.0
 30
0.0
 11
7884.224796
 21
148780.0
 31
0.0
 12
7880.891462
 22
148800.0
 32
0.0
 13
7880.891462
 23
148800.0
 33
0.0
  0
TEXT
  5
37
  8
0
  6
BYBLOCK
 62
    11
 10
7898.391462
 20
148359.166667
 30
0.0
 40
35.0
  1
800
 50
90.0
  0
POINT
  5
38
  8
DEFPOINTS
  6
BYBLOCK
 62
     0
 10
8000.0
 20
148000.0
 30
0.0
  0
POINT
  5
39
  8
DEFPOINTS
  6
BYBLOCK
 62
     0
 10
8000.0
 20
148800.0
 30
0.0
  0
POINT
  5
3A
  8
DEFPOINTS
  6
BYBLOCK
 62
     0
 10
7880.891462
 20
148800.0
 30
0.0
  0
ENDBLK
  5
3C
  8
0
  0
BLOCK
  8
0
  2
*D11
 70
     1
 10
0.0
 20
0.0
 30
0.0
  3
*D11
  1

  0
LINE
  5
22
  8
0
  6
BYBLOCK
 62
     9
 10
7990.0
 20
148000.0
 30
0.0
 11
7838.365219
 21
148000.0
 31
0.0
  0
LINE
  5
23
  8
0
  6
BYBLOCK
 62
     9
 10
7990.0
 20
148800.0
 30
0.0
 11
7838.365219
 21
148800.0
 31
0.0
  0
LINE
  5
24
  8
0
  6
BYBLOCK
 62
     9
 10
7839.365219
 20
148020.0
 30
0.0
 11
7839.365219
 21
148285.083333
 31
0.0
  0
LINE
  5
25
  8
0
  6
BYBLOCK
 62
     9
 10
7839.365219
 20
148780.0
 30
0.0
 11
7839.365219
 21
148514.916667
 31
0.0
  0
SOLID
  5
26
  8
0
  6
BYBLOCK
 62
     9
 10
7836.031886
 20
148020.0
 30
0.0
 11
7842.698552
 21
148020.0
 31
0.0
 12
7839.365219
 22
148000.0
 32
0.0
 13
7839.365219
 23
148000.0
 33
0.0
  0
SOLID
  5
27
  8
0
  6
BYBLOCK
 62
     9
 10
7836.031886
 20
148780.0
 30
0.0
 11
7842.698552
 21
148780.0
 31
0.0
 12
7839.365219
 22
148800.0
 32
0.0
 13
7839.365219
 23
148800.0
 33
0.0
  0
TEXT
  5
28
  8
0
  6
BYBLOCK
 62
    11
 10
7856.865219
 20
148292.083333
 30
0.0
 40
35.0
  1
700-850
 50
90.0
  0
POINT
  5
29
  8
DEFPOINTS
  6
BYBLOCK
 62
     0
 10
8000.0
 20
148000.0
 30
0.0
  0
POINT
  5
2B
  8
DEFPOINTS
  6
BYBLOCK
 62
     0
 10
8000.0
 20
148800.0
 30
0.0
  0
POINT
  5
2C
  8
DEFPOINTS
  6
BYBLOCK
 62
     0
 10
7839.365219
 20
148800.0
 30
0.0
  0
ENDBLK
  5
2E
  8
0
  0
ENDSEC
  0
SECTION
  2
ENTITIES
  0
DIMENSION
  5
20
  8
TEAM-MAS
  2
*D11
 10
-160.634781
 20
800.0
 30
0.0
 11
-160.634781
 21
400.0
 31
0.0
 12
-8000.0
 22
-148000.0
 32
0.0
  1
700-850
 13
0.0
 23
0.0
 33
0.0
 14
0.0
 24
800.0
 34
0.0
 50
90.0
1001
ACAD
1000
DSTYLE
1002
{
1070
    40
1040
1.0
1002
}
  0
DIMENSION
  5
2F
  8
TEAM-MAS
  2
*D10
 10
-119.108538
 20
800.0
 30
0.0
 11
-119.108538
 21
400.0
 31
0.0
 12
-8000.0
 22
-148000.0
 32
0.0
 13
0.0
 23
0.0
 33
0.0
 14
0.0
 24
800.0
 34
0.0
 50
90.0
1001
ACAD
1000
DSTYLE
1002
{
1070
    40
1040
1.0
1002
}
  0
DIMENSION
  5
3D
  8
TEAM-MAS
  2
*D9
 10
-77.580886
 20
400.0
 30
0.0
 11
-77.580886
 21
200.0
 31
0.0
 12
-8000.0
 22
-148000.0
 32
0.0
  1
300-450
 13
0.0
 23
0.0
 33
0.0
 14
0.0
 24
400.0
 34
0.0
 50
90.0
1001
ACAD
1000
DSTYLE
1002
{
1070
    40
1040
1.0
1002
}
  0
DIMENSION
  5
4B
  8
TEAM-MAS
  2
*D8
 10
-31.436555
 20
400.0
 30
0.0
 11
-31.436555
 21
200.0
 31
0.0
 12
-8000.0
 22
-148000.0
 32
0.0
 13
0.0
 23
0.0
 33
0.0
 14
0.0
 24
400.0
 34
0.0
 50
90.0
1001
ACAD
1000
DSTYLE
1002
{
1070
    40
1040
1.0
1002
}
  0
DIMENSION
  5
59
  8
TEAM-MAS
  2
*D7
 10
-202.161024
 20
1100.0
 30
0.0
 11
-202.161024
 21
550.0
 31
0.0
 12
-8000.0
 22
-148000.0
 32
0.0
 13
0.0
 23
0.0
 33
0.0
 14
0.0
 24
1100.0
 34
0.0
 50
90.0
1001
ACAD
1000
DSTYLE
1002
{
1070
    40
1040
1.0
1002
}
  0
DIMENSION
  5
67
  8
TEAM-MAS
  2
*D6
 10
-245.227099
 20
1100.0
 30
0.0
 11
-245.227099
 21
550.0
 31
0.0
 12
-8000.0
 22
-148000.0
 32
0.0
  1
1100-1250
 13
0.0
 23
0.0
 33
0.0
 14
7.579317
 24
1100.0
 34
0.0
 50
90.0
1001
ACAD
1000
DSTYLE
1002
{
1070
    40
1040
1.0
1002
}
  0
DIMENSION
  5
75
  8
TEAM-MAS
  2
*D5
 10
0.0
 20
952.878377
 30
0.0
 11
250.0
 21
952.878377
 31
0.0
 12
-8000.0
 22
-148000.0
 32
0.0
 13
500.0
 23
800.0
 33
0.0
 14
0.0
 24
0.0
 34
0.0
1001
ACAD
1000
DSTYLE
1002
{
1070
    40
1040
1.0
1002
}
  0
DIMENSION
  5
83
  8
TEAM-MAS
  2
*D4
 10
100.0
 20
239.571197
 30
0.0
 11
50.0
 21
239.571197
 31
0.0
 12
-8000.0
 22
-148000.0
 32
0.0
 70
   128
 13
0.0
 23
400.0
 33
0.0
 14
100.0
 24
325.980383
 34
0.0
1001
ACAD
1000
DSTYLE
1002
{
1070
    40
1040
1.0
1002
}
  0
DIMENSION
  5
91
  8
TEAM-MAS
  2
*D3
 10
535.786918
 20
860.0
 30
0.0
 11
535.437354
 21
892.424664
 31
0.0
 12
-8000.0
 22
-148000.0
 32
0.0
 70
   128
 13
500.0
 23
800.0
 33
0.0
 14
10.0
 24
860.0
 34
0.0
 50
90.0
1001
ACAD
1000
DSTYLE
1002
{
1070
    40
1040
1.0
1002
}
  0
DIMENSION
  5
9E
  8
TEAM-MAS
  2
*D2
 10
-31.61748
 20
835.0
 30
0.0
 11
-31.61748
 21
692.5
 31
0.0
 12
-8000.0
 22
-148000.0
 32
0.0
 13
0.0
 23
550.0
 33
0.0
 14
0.0
 24
835.0
 34
0.0
 50
90.0
1001
ACAD
1000
DSTYLE
1002
{
1070
    40
1040
1.0
1002
}
  0
DIMENSION
  5
AC
  8
TEAM-MAS
  2
*D1
 10
-31.61748
 20
835.0
 30
0.0
 11
-31.61748
 21
941.663183
 31
0.0
 12
-8000.0
 22
-148000.0
 32
0.0
 70
   128
 13
0.0
 23
860.0
 33
0.0
 14
0.0
 24
835.0
 34
0.0
 50
90.0
1001
ACAD
1000
DSTYLE
1002
{
1070
    40
1040
1.0
1002
}
  0
DIMENSION
  5
BB
  8
TEAM-MAS
  2
*D0
 10
535.786918
 20
590.0
 30
0.0
 11
535.786918
 21
695.0
 31
0.0
 12
-8000.0
 22
-148000.0
 32
0.0
 13
500.0
 23
800.0
 33
0.0
 14
411.826614
 24
590.0
 34
0.0
 50
90.0
1001
ACAD
1000
DSTYLE
1002
{
1070
    40
1040
1.0
1002
}
  0
CIRCLE
  5
C9
  8
TEAM-INSP
 10
0.0
 20
0.0
 30
0.0
 40
10.0
  0
LINE
  5
CB
  8
TEAM-BODY
 10
72.683415
 20
552.171284
 30
0.0
 11
411.826614
 21
590.0
 31
0.0
  0
LINE
  5
CD
  8
TEAM-BODY
 10
432.964661
 20
752.47345
 30
0.0
 11
0.0
 21
694.018539
 31
0.0
  0
LINE
  5
CE
  8
TEAM-BODY
 10
10.0
 20
537.382141
 30
0.0
 11
100.0
 21
552.879696
 31
0.0
  0
LINE
  5
CF
  8
TEAM-BODY
 10
79.0
 20
552.879696
 30
0.0
 11
121.0
 21
552.879696
 31
0.0
  0
LINE
  5
D0
  8
TEAM-KAN
 10
30.0
 20
400.0
 30
0.0
 11
100.0
 21
400.0
 31
0.0
  0
LINE
  5
D2
  8
TEAM-BODY
 10
121.0
 20
542.588246
 30
0.0
 11
79.0
 21
542.588246
 31
0.0
  0
LINE
  5
D3
  8
TEAM-BODY
 10
500.0
 20
800.0
 30
0.0
 11
0.0
 21
800.0
 31
0.0
  0
LINE
  5
D4
  8
TEAM-BODY
 10
500.0
 20
800.0
 30
0.0
 11
0.0
 21
800.0
 31
0.0
  0
LINE
  5
D5
  8
TEAM-AXE
 10
0.0
 20
1080.0
 30
0.0
 11
0.0
 21
1120.0
 31
0.0
  0
LINE
  5
D8
  8
TEAM-AXE
 10
-20.0
 20
1100.0
 30
0.0
 11
20.0
 21
1100.0
 31
0.0
  0
CIRCLE
  5
D9
  8
TEAM-WARM
 10
0.0
 20
1100.0
 30
0.0
 40
15.0
  0
LINE
  5
DB
  8
TEAM-AXE
 10
7.579317
 20
1080.0
 30
0.0
 11
7.579317
 21
1120.0
 31
0.0
  0
LINE
  5
DC
  8
TEAM-AXE
 10
-12.420683
 20
1100.0
 30
0.0
 11
27.579317
 21
1100.0
 31
0.0
  0
CIRCLE
  5
DD
  8
TEAM-COLD
 10
7.579317
 20
1100.0
 30
0.0
 40
15.0
  0
LINE
  5
DF
  8
TEAM-AXE
 10
-30.0
 20
400.0
 30
0.0
 11
30.0
 21
400.0
 31
0.0
  0
LINE
  5
E0
  8
TEAM-AXE
 10
0.0
 20
370.0
 30
0.0
 11
0.0
 21
430.0
 31
0.0
  0
CIRCLE
  5
E1
  8
TEAM-KAN
 10
0.0
 20
400.0
 30
0.0
 40
20.0
  0
LINE
  5
E2
  8
TEAM-BODY
 10
10.0
 20
860.0
 30
0.0
 11
0.0
 21
860.0
 31
0.0
  0
LINE
  5
E3
  8
TEAM-BODY
 10
10.0
 20
860.0
 30
0.0
 11
10.0
 21
800.0
 31
0.0
  0
LINE
  5
E4
  8
TEAM-BODY
 10
79.0
 20
552.879696
 30
0.0
 11
79.0
 21
542.588246
 31
0.0
  0
LINE
  5
E5
  8
TEAM-BODY
 10
56.847851
 20
701.520347
 30
0.0
 11
61.625079
 21
561.050397
 31
0.0
  0
ARC
  5
E6
  8
TEAM-BODY
 10
71.568891
 20
562.108982
 30
0.0
 40
10.0
 50
186.076626
 51
276.399048
  0
LINE
  5
E7
  8
TEAM-BODY
 10
0.0
 20
860.0
 30
0.0
 11
0.0
 21
694.018539
 31
0.0
  0
LINE
  5
E8
  8
TEAM-BODY
 10
0.0
 20
537.382141
 30
0.0
 11
10.0
 21
537.382141
 31
0.0
  0
LINE
  5
E9
  8
TEAM-BODY
 10
10.0
 20
552.171284
 30
0.0
 11
10.0
 21
537.382141
 31
0.0
  0
LINE
  5
EA
  8
TEAM-BODY
 10
72.683415
 20
552.171284
 30
0.0
 11
0.0
 21
552.171284
 31
0.0
  0
LINE
  5
EB
  8
TEAM-HIDE
 10
10.0
 20
800.0
 30
0.0
 11
10.0
 21
694.130182
 31
0.0
  0
LINE
  5
EE
  8
TEAM-AXE
 10
15.625
 20
550.0
 30
0.0
 11
0.0
 21
550.0
 31
0.0
  0
LINE
  5
EF
  8
TEAM-AXE
 10
15.625
 20
835.0
 30
0.0
 11
0.0
 21
835.0
 31
0.0
  0
ARC
  5
F0
  8
TEAM-BODY
 10
409.597566
 20
609.875395
 30
0.0
 40
20.0
 50
276.399048
 51
347.863167
  0
LINE
  5
F1
  8
TEAM-HIDE
 10
403.64472
 20
605.670453
 30
0.0
 11
432.964661
 21
752.47345
 31
0.0
  0
ARC
  5
F2
  8
TEAM-HIDE
 10
375.356132
 20
614.919491
 30
0.0
 40
29.762206
 50
291.51557
 51
341.89469
  0
LINE
  5
F3
  8
TEAM-HIDE
 10
432.964661
 20
752.47345
 30
0.0
 11
432.964661
 21
800.0
 31
0.0
  0
ARC
  5
F4
  8
TEAM-HIDE
 10
402.354182
 20
610.685397
 30
0.0
 40
21.743806
 50
283.104326
 51
346.665376
  0
LINE
  5
F5
  8
TEAM-HIDE
 10
423.511768
 20
605.670453
 30
0.0
 11
453.092614
 21
755.129593
 31
0.0
  0
LINE
  5
F6
  8
TEAM-HIDE
 10
453.092614
 20
755.129593
 30
0.0
 11
452.83171
 21
800.0
 31
0.0
  0
LINE
  5
F7
  8
TEAM-BODY
 10
429.150531
 20
605.670453
 30
0.0
 11
458.171686
 21
752.47345
 31
0.0
  0
LINE
  5
F8
  8
TEAM-BODY
 10
432.964661
 20
752.47345
 30
0.0
 11
500.0
 21
752.47345
 31
0.0
  0
LINE
  5
F9
  8
TEAM-BODY
 10
500.0
 20
752.47345
 30
0.0
 11
500.0
 21
800.0
 31
0.0
  0
LINE
  5
FA
  8
TEAM-KAN
 10
100.0
 20
542.588246
 30
0.0
 11
100.0
 21
325.980383
 31
0.0
  0
LINE
  5
FB
  8
TEAM-BODY
 10
121.0
 20
557.590044
 30
0.0
 11
121.0
 21
542.588246
 31
0.0
  0
TEXT
  5
FC
  8
TEAM-TXT
 10
142.287569
 20
602.591344
 30
0.0
 40
30.0
  1
team 431002
 41
0.8
 51
15.0
  7
TEAM
  0
ENDSEC
  0
EOF
